  0
SECTION
  2
HEADER
  9
$ACADVER
  1
AC1015
  9
$ACADMAINTVER
 70
     6
  9
$DWGCODEPAGE
  3
ANSI_932
  9
$INSBASE
 10
0.0
 20
0.0
 30
0.0
  9
$EXTMIN
 10
0.0
 20
0.0
 30
0.0
  9
$EXTMAX
 10
1188.0
 20
840.0
 30
0.0
  9
$LIMMIN
 10
0.0
 20
0.0
  9
$LIMMAX
 10
1188.0
 20
840.0
  9
$ORTHOMODE
 70
     0
  9
$REGENMODE
 70
     1
  9
$FILLMODE
 70
     1
  9
$QTEXTMODE
 70
     0
  9
$MIRRTEXT
 70
     1
  9
$LTSCALE
 40
1.0
  9
$ATTMODE
 70
     1
  9
$TEXTSIZE
 40
12.0
  9
$TRACEWID
 40
0.05
  9
$TEXTSTYLE
  7
Standard
  9
$CLAYER
  8
0
  9
$CELTYPE
  6
ByLayer
  9
$CECOLOR
 62
   256
  9
$CELTSCALE
 40
1.0
  9
$DISPSILH
 70
     0
  9
$DIMSCALE
 40
4.0
  9
$DIMASZ
 40
2.0
  9
$DIMEXO
 40
2.0
  9
$DIMDLI
 40
10.0
  9
$DIMRND
 40
0.0
  9
$DIMDLE
 40
0.0
  9
$DIMEXE
 40
1.0
  9
$DIMTP
 40
0.0
  9
$DIMTM
 40
0.0
  9
$DIMTXT
 40
3.0
  9
$DIMCEN
 40
0.09
  9
$DIMTSZ
 40
0.0
  9
$DIMTOL
 70
     0
  9
$DIMLIM
 70
     0
  9
$DIMTIH
 70
     0
  9
$DIMTOH
 70
     0
  9
$DIMSE1
 70
     0
  9
$DIMSE2
 70
     0
  9
$DIMTAD
 70
     3
  9
$DIMZIN
 70
     8
  9
$DIMBLK
  1

  9
$DIMASO
 70
     1
  9
$DIMSHO
 70
     1
  9
$DIMPOST
  1

  9
$DIMAPOST
  1

  9
$DIMALT
 70
     0
  9
$DIMALTD
 70
     2
  9
$DIMALTF
 40
25.4
  9
$DIMLFAC
 40
1.0
  9
$DIMTOFL
 70
     1
  9
$DIMTVP
 40
0.7
  9
$DIMTIX
 70
     0
  9
$DIMSOXD
 70
     0
  9
$DIMSAH
 70
     0
  9
$DIMBLK1
  1

  9
$DIMBLK2
  1

  9
$DIMSTYLE
  2
Standard
  9
$DIMCLRD
 70
     0
  9
$DIMCLRE
 70
     0
  9
$DIMCLRT
 70
     0
  9
$DIMTFAC
 40
0.5
  9
$DIMGAP
 40
0.09
  9
$DIMJUST
 70
     0
  9
$DIMSD1
 70
     0
  9
$DIMSD2
 70
     0
  9
$DIMTOLJ
 70
     1
  9
$DIMTZIN
 70
     8
  9
$DIMALTZ
 70
     0
  9
$DIMALTTZ
 70
     0
  9
$DIMUPT
 70
     1
  9
$DIMDEC
 70
     2
  9
$DIMTDEC
 70
     4
  9
$DIMALTU
 70
     2
  9
$DIMALTTD
 70
     2
  9
$DIMTXSTY
  7
Standard
  9
$DIMAUNIT
 70
     0
  9
$DIMADEC
 70
     0
  9
$DIMALTRND
 40
0.0
  9
$DIMAZIN
 70
     0
  9
$DIMDSEP
 70
    46
  9
$DIMATFIT
 70
     2
  9
$DIMFRAC
 70
     0
  9
$DIMLDRBLK
  1

  9
$DIMLUNIT
 70
     2
  9
$DIMLWD
 70
    -2
  9
$DIMLWE
 70
    -2
  9
$DIMTMOVE
 70
     2
  9
$LUNITS
 70
     2
  9
$LUPREC
 70
     4
  9
$SKETCHINC
 40
0.1
  9
$FILLETRAD
 40
0.5
  9
$AUNITS
 70
     0
  9
$AUPREC
 70
     0
  9
$MENU
  1
.
  9
$ELEVATION
 40
0.0
  9
$PELEVATION
 40
0.0
  9
$THICKNESS
 40
0.0
  9
$LIMCHECK
 70
     0
  9
$CHAMFERA
 40
0.5
  9
$CHAMFERB
 40
0.5
  9
$CHAMFERC
 40
1.0
  9
$CHAMFERD
 40
0.0
  9
$SKPOLY
 70
     0
  9
$TDCREATE
 40
2456430.821203704
  9
$TDUCREATE
 40
2456430.446203704
  9
$TDUPDATE
 40
2456430.821203704
  9
$TDUUPDATE
 40
2456430.446203704
  9
$TDINDWG
 40
0.0000000116
  9
$TDUSRTIMER
 40
0.0000000116
  9
$USRTIMER
 70
     1
  9
$ANGBASE
 50
0.0
  9
$ANGDIR
 70
     0
  9
$PDMODE
 70
     0
  9
$PDSIZE
 40
0.0
  9
$PLINEWID
 40
0.0
  9
$SPLFRAME
 70
     0
  9
$SPLINETYPE
 70
     6
  9
$SPLINESEGS
 70
     8
  9
$HANDSEED
  5
240
  9
$SURFTAB1
 70
     6
  9
$SURFTAB2
 70
     6
  9
$SURFTYPE
 70
     6
  9
$SURFU
 70
     6
  9
$SURFV
 70
     6
  9
$UCSBASE
  2

  9
$UCSNAME
  2

  9
$UCSORG
 10
0.0
 20
0.0
 30
0.0
  9
$UCSXDIR
 10
1.0
 20
0.0
 30
0.0
  9
$UCSYDIR
 10
0.0
 20
1.0
 30
0.0
  9
$UCSORTHOREF
  2

  9
$UCSORTHOVIEW
 70
     0
  9
$UCSORGTOP
 10
0.0
 20
0.0
 30
0.0
  9
$UCSORGBOTTOM
 10
0.0
 20
0.0
 30
0.0
  9
$UCSORGLEFT
 10
0.0
 20
0.0
 30
0.0
  9
$UCSORGRIGHT
 10
0.0
 20
0.0
 30
0.0
  9
$UCSORGFRONT
 10
0.0
 20
0.0
 30
0.0
  9
$UCSORGBACK
 10
0.0
 20
0.0
 30
0.0
  9
$PUCSBASE
  2

  9
$PUCSNAME
  2

  9
$PUCSORG
 10
0.0
 20
0.0
 30
0.0
  9
$PUCSXDIR
 10
1.0
 20
0.0
 30
0.0
  9
$PUCSYDIR
 10
0.0
 20
1.0
 30
0.0
  9
$PUCSORTHOREF
  2

  9
$PUCSORTHOVIEW
 70
     0
  9
$PUCSORGTOP
 10
0.0
 20
0.0
 30
0.0
  9
$PUCSORGBOTTOM
 10
0.0
 20
0.0
 30
0.0
  9
$PUCSORGLEFT
 10
0.0
 20
0.0
 30
0.0
  9
$PUCSORGRIGHT
 10
0.0
 20
0.0
 30
0.0
  9
$PUCSORGFRONT
 10
0.0
 20
0.0
 30
0.0
  9
$PUCSORGBACK
 10
0.0
 20
0.0
 30
0.0
  9
$USERI1
 70
     0
  9
$USERI2
 70
     0
  9
$USERI3
 70
     0
  9
$USERI4
 70
     0
  9
$USERI5
 70
     0
  9
$USERR1
 40
0.0
  9
$USERR2
 40
0.0
  9
$USERR3
 40
0.0
  9
$USERR4
 40
0.0
  9
$USERR5
 40
0.0
  9
$WORLDVIEW
 70
     1
  9
$SHADEDGE
 70
     3
  9
$SHADEDIF
 70
    70
  9
$TILEMODE
 70
     1
  9
$MAXACTVP
 70
    64
  9
$PINSBASE
 10
0.0
 20
0.0
 30
0.0
  9
$PLIMCHECK
 70
     0
  9
$PEXTMIN
 10
0.0
 20
0.0
 30
0.0
  9
$PEXTMAX
 10
297.0
 20
210.0
 30
0.0
  9
$PLIMMIN
 10
0.0
 20
0.0
  9
$PLIMMAX
 10
297.0
 20
210.0
  9
$UNITMODE
 70
     0
  9
$VISRETAIN
 70
     1
  9
$PLINEGEN
 70
     0
  9
$PSLTSCALE
 70
     1
  9
$TREEDEPTH
 70
  3020
  9
$CMLSTYLE
  2
Standard
  9
$CMLJUST
 70
     0
  9
$CMLSCALE
 40
1.0
  9
$PROXYGRAPHICS
 70
     1
  9
$MEASUREMENT
 70
     1
  9
$CELWEIGHT
370
    -1
  9
$ENDCAPS
280
     0
  9
$JOINSTYLE
280
     0
  9
$LWDISPLAY
290
     0
  9
$INSUNITS
 70
     4
  9
$HYPERLINKBASE
  1

  9
$STYLESHEET
  1

  9
$XEDIT
290
     1
  9
$CEPSNTYPE
380
     0
  9
$PSTYLEMODE
290
     1
  9
$FINGERPRINTGUID
  2
{CEAA8D3A-50FC-4C6F-9B58-36DE49EFA3C0}
  9
$VERSIONGUID
  2
{FAEB1C32-E019-11D5-929B-00C0DF256EC4}
  9
$EXTNAMES
290
     1
  9
$PSVPSCALE
 40
0.0
  9
$OLESTARTUP
290
     0
  0
ENDSEC
  0
SECTION
  2
CLASSES
  0
CLASS
  1
ACDBDICTIONARYWDFLT
  2
AcDbDictionaryWithDefault
  3
ObjectDBX Classes
 90
        0
280
     0
281
     0
  0
CLASS
  1
DICTIONARYVAR
  2
AcDbDictionaryVar
  3
ObjectDBX Classes
 90
        0
280
     0
281
     0
  0
CLASS
  1
ACDBPLACEHOLDER
  2
AcDbPlaceHolder
  3
ObjectDBX Classes
 90
        0
280
     0
281
     0
  0
CLASS
  1
LAYOUT
  2
AcDbLayout
  3
ObjectDBX Classes
 90
        0
280
     0
281
     0
  0
ENDSEC
  0
SECTION
  2
TABLES
  0
TABLE
  2
VPORT
  5
8
330
0
100
AcDbSymbolTable
 70
     1
  0
VPORT
  5
29
330
8
100
AcDbSymbolTableRecord
100
AcDbViewportTableRecord
  2
*Active
 70
     0
 10
0.0
 20
0.0
 11
1.0
 21
1.0
 12
10.42990654205607
 22
4.5
 13
0.0
 23
0.0
 14
0.5
 24
0.5
 15
0.5
 25
0.5
 16
0.0
 26
0.0
 36
1.0
 17
0.0
 27
0.0
 37
0.0
 40
9.0
 41
1.972972972850329
 42
50.0
 43
0.0
 44
0.0
 50
0.0
 51
0.0
 71
     0
 72
   100
 73
     1
 74
     3
 75
     0
 76
     0
 77
     0
 78
     0
281
     0
 65
     1
110
0.0
120
0.0
130
0.0
111
1.0
121
0.0
131
0.0
112
0.0
122
1.0
132
0.0
 79
     0
146
0.0
  0
ENDTAB
  0
TABLE
  2
LTYPE
  5
5
330
0
100
AcDbSymbolTable
 70
     9
  0
LTYPE
  5
14
330
5
100
AcDbSymbolTableRecord
100
AcDbLinetypeTableRecord
  2
ByBlock
 70
     0
  3

 72
    65
 73
     0
 40
0.0
  0
LTYPE
  5
15
330
5
100
AcDbSymbolTableRecord
100
AcDbLinetypeTableRecord
  2
ByLayer
 70
     0
  3

 72
    65
 73
     0
 40
0.0
  0
LTYPE
  5
16
330
5
100
AcDbSymbolTableRecord
100
AcDbLinetypeTableRecord
  2
Continuous
 70
     0
  3
Solid line
 72
    65
 73
     0
 40
0.0
  0
LTYPE
  5
68
330
5
100
AcDbSymbolTableRecord
100
AcDbLinetypeTableRecord
  2
DOT
 70
     0
  3
DOT
 72
    65
 73
     2
 40
4.0
 49
6.0
 74
     0
 49
-2.0
 74
     0
  0
LTYPE
  5
69
330
5
100
AcDbSymbolTableRecord
100
AcDbLinetypeTableRecord
  2
HIDDEN
 70
     0
  3
HIDDEN
 72
    65
 73
     2
 40
4.2
 49
8.4
 74
     0
 49
-4.2
 74
     0
  0
LTYPE
  5
6A
330
5
100
AcDbSymbolTableRecord
100
AcDbLinetypeTableRecord
  2
DASHDOT
 70
     0
  3
DASHDOT
 72
    65
 73
     4
 40
14.5
 49
30.0
 74
     0
 49
-9.0
 74
     0
 49
2.5
 74
     0
 49
-9.0
 74
     0
  0
LTYPE
  5
6B
330
5
100
AcDbSymbolTableRecord
100
AcDbLinetypeTableRecord
  2
PHANTOM
 70
     0
  3
PHANTOM
 72
    65
 73
     6
 40
12.0
 49
30.0
 74
     0
 49
-9.0
 74
     0
 49
2.5
 74
     0
 49
-5.0
 74
     0
 49
2.5
 74
     0
 49
-9.0
 74
     0
  0
LTYPE
  5
6C
330
5
100
AcDbSymbolTableRecord
100
AcDbLinetypeTableRecord
  2
ACAD_ISO14W100
 70
     0
  3
ACAD_ISO14W100
 72
    65
 73
     8
 40
1.5
 49
12.0
 74
     0
 49
-3.0
 74
     0
 49
0.5
 74
     0
 49
-3.0
 74
     0
 49
0.5
 74
     0
 49
-3.0
 74
     0
 49
0.5
 74
     0
 49
-3.0
 74
     0
  0
LTYPE
  5
6D
330
5
100
AcDbSymbolTableRecord
100
AcDbLinetypeTableRecord
  2
ACAD_ISO06W100
 70
     0
  3
ACAD_ISO06W100
 72
    65
 73
     8
 40
13.5
 49
24.0
 74
     0
 49
-3.0
 74
     0
 49
0.5
 74
     0
 49
-3.0
 74
     0
 49
0.5
 74
     0
 49
-3.0
 74
     0
 49
0.5
 74
     0
 49
-3.0
 74
     0
  0
LTYPE
  5
6E
330
5
100
AcDbSymbolTableRecord
100
AcDbLinetypeTableRecord
  2
ACAD_ISO11W100
 70
     0
  3
ACAD_ISO11W100
 72
    65
 73
     6
 40
15.5
 49
12.0
 74
     0
 49
-3.0
 74
     0
 49
12.0
 74
     0
 49
-3.0
 74
     0
 49
0.5
 74
     0
 49
-3.0
 74
     0
  0
LTYPE
  5
6F
330
5
100
AcDbSymbolTableRecord
100
AcDbLinetypeTableRecord
  2
ACAD_ISO13W100
 70
     0
  3
ACAD_ISO13W100
 72
    65
 73
     8
 40
13.0
 49
12.0
 74
     0
 49
-3.0
 74
     0
 49
12.0
 74
     0
 49
-3.0
 74
     0
 49
0.5
 74
     0
 49
-3.0
 74
     0
 49
0.5
 74
     0
 49
-3.0
 74
     0
  0
ENDTAB
  0
TABLE
  2
LAYER
  5
2
330
0
100
AcDbSymbolTable
 70
    24
  0
LAYER
  5
10
330
2
100
AcDbSymbolTableRecord
100
AcDbLayerTableRecord
  2
0
 70
     0
 62
     7
  6
Continuous
370
    -3
390
F
  0
LAYER
  5
70
330
2
100
AcDbSymbolTableRecord
100
AcDbLayerTableRecord
  2
1
 70
     0
 62
    45
  6
Continuous
370
    -3
390
F
  0
LAYER
  5
71
330
2
100
AcDbSymbolTableRecord
100
AcDbLayerTableRecord
  2
2
 70
     0
 62
    90
  6
Continuous
370
    -3
390
F
  0
LAYER
  5
72
330
2
100
AcDbSymbolTableRecord
100
AcDbLayerTableRecord
  2
3
 70
     0
 62
     6
  6
Continuous
370
    -3
390
F
  0
LAYER
  5
73
330
2
100
AcDbSymbolTableRecord
100
AcDbLayerTableRecord
  2
4
 70
     0
 62
    30
  6
Continuous
370
    -3
390
F
  0
LAYER
  5
74
330
2
100
AcDbSymbolTableRecord
100
AcDbLayerTableRecord
  2
5
 70
     0
 62
     2
  6
Continuous
370
    -3
390
F
  0
LAYER
  5
75
330
2
100
AcDbSymbolTableRecord
100
AcDbLayerTableRecord
  2
6
 70
     0
 62
     7
  6
Continuous
370
    -3
390
F
  0
LAYER
  5
76
330
2
100
AcDbSymbolTableRecord
100
AcDbLayerTableRecord
  2
7
 70
     0
 62
   132
  6
Continuous
370
    -3
390
F
  0
LAYER
  5
77
330
2
100
AcDbSymbolTableRecord
100
AcDbLayerTableRecord
  2
8
 70
     0
 62
   171
  6
Continuous
370
    -3
390
F
  0
LAYER
  5
78
330
2
100
AcDbSymbolTableRecord
100
AcDbLayerTableRecord
  2
9
 70
     0
 62
   170
  6
Continuous
370
    -3
390
F
  0
LAYER
  5
79
330
2
100
AcDbSymbolTableRecord
100
AcDbLayerTableRecord
  2
10
 70
     0
 62
   172
  6
Continuous
370
    -3
390
F
  0
LAYER
  5
7A
330
2
100
AcDbSymbolTableRecord
100
AcDbLayerTableRecord
  2
11
 70
     0
 62
    16
  6
Continuous
370
    -3
390
F
  0
LAYER
  5
7B
330
2
100
AcDbSymbolTableRecord
100
AcDbLayerTableRecord
  2
12
 70
     0
 62
   136
  6
Continuous
370
    -3
390
F
  0
LAYER
  5
7C
330
2
100
AcDbSymbolTableRecord
100
AcDbLayerTableRecord
  2
13
 70
     0
 62
   216
  6
Continuous
370
    -3
390
F
  0
LAYER
  5
7D
330
2
100
AcDbSymbolTableRecord
100
AcDbLayerTableRecord
  2
14
 70
     0
 62
     7
  6
Continuous
370
    -3
390
F
  0
LAYER
  5
7E
330
2
100
AcDbSymbolTableRecord
100
AcDbLayerTableRecord
  2
15
 70
     0
 62
    14
  6
Continuous
370
    -3
390
F
  0
LAYER
  5
7F
330
2
100
AcDbSymbolTableRecord
100
AcDbLayerTableRecord
  2
16
 70
     0
 62
    94
  6
Continuous
370
    -3
390
F
  0
LAYER
  5
80
330
2
100
AcDbSymbolTableRecord
100
AcDbLayerTableRecord
  2
17
 70
     0
 62
   230
  6
Continuous
370
    -3
390
F
  0
LAYER
  5
81
330
2
100
AcDbSymbolTableRecord
100
AcDbLayerTableRecord
  2
18
 70
     0
 62
     7
  6
Continuous
370
    -3
390
F
  0
LAYER
  5
82
330
2
100
AcDbSymbolTableRecord
100
AcDbLayerTableRecord
  2
19
 70
     0
 62
    52
  6
Continuous
370
    -3
390
F
  0
LAYER
  5
83
330
2
100
AcDbSymbolTableRecord
100
AcDbLayerTableRecord
  2
20
 70
     0
 62
   134
  6
Continuous
370
    -3
390
F
  0
LAYER
  5
84
330
2
100
AcDbSymbolTableRecord
100
AcDbLayerTableRecord
  2
21
 70
     0
 62
   214
  6
Continuous
370
    -3
390
F
  0
LAYER
  5
85
330
2
100
AcDbSymbolTableRecord
100
AcDbLayerTableRecord
  2
22
 70
     0
 62
     7
  6
Continuous
370
    -3
390
F
  0
LAYER
  5
86
330
2
100
AcDbSymbolTableRecord
100
AcDbLayerTableRecord
  2
128
 70
     0
 62
     7
  6
Continuous
370
    -3
390
F
  0
ENDTAB
  0
TABLE
  2
STYLE
  5
3
330
0
100
AcDbSymbolTable
 70
     2
  0
STYLE
  5
11
330
3
100
AcDbSymbolTableRecord
100
AcDbTextStyleTableRecord
  2
Standard
 70
     0
 40
0.0
 41
1.0
 50
0.0
 71
     0
 42
0.2
  3
txt
  4
bigfont
  0
STYLE
  5
2C
330
3
100
AcDbSymbolTableRecord
100
AcDbTextStyleTableRecord
  2
T_STANDARD
 70
     4
 40
10.0
 41
1.0
 50
0.0
 71
     0
 42
10.0
  3
txt
  4
bigfont
  0
ENDTAB
  0
TABLE
  2
VIEW
  5
6
330
0
100
AcDbSymbolTable
 70
     0
  0
ENDTAB
  0
TABLE
  2
UCS
  5
7
330
0
100
AcDbSymbolTable
 70
     0
  0
ENDTAB
  0
TABLE
  2
APPID
  5
9
330
0
100
AcDbSymbolTable
 70
     2
  0
APPID
  5
12
330
9
100
AcDbSymbolTableRecord
100
AcDbRegAppTableRecord
  2
ACAD
 70
     0
  0
APPID
  5
2B
330
9
100
AcDbSymbolTableRecord
100
AcDbRegAppTableRecord
  2
ODA
 70
     0
  0
ENDTAB
  0
TABLE
  2
DIMSTYLE
  5
A
330
0
100
AcDbSymbolTable
 70
     1
100
AcDbDimStyleTable
  0
DIMSTYLE
105
27
102
{ACAD_REACTORS
330
1B2
330
1BD
330
1C8
330
1D4
330
1E0
330
1EA
330
1F4
330
1FE
330
207
102
}
330
A
100
AcDbSymbolTableRecord
100
AcDbDimStyleTableRecord
  2
Standard
 70
     0
340
11
  0
ENDTAB
  0
TABLE
  2
BLOCK_RECORD
  5
1
330
0
100
AcDbSymbolTable
 70
    23
  0
BLOCK_RECORD
  5
1F
330
1
100
AcDbSymbolTableRecord
100
AcDbBlockTableRecord
  2
*Model_Space
340
22
  0
BLOCK_RECORD
  5
1B
330
1
100
AcDbSymbolTableRecord
100
AcDbBlockTableRecord
  2
*Paper_Space
340
1E
  0
BLOCK_RECORD
  5
23
330
1
100
AcDbSymbolTableRecord
100
AcDbBlockTableRecord
  2
*Paper_Space0
340
26
  0
BLOCK_RECORD
  5
2D
330
1
100
AcDbSymbolTableRecord
100
AcDbBlockTableRecord
  2
_ORIGIN
340
0
  0
BLOCK_RECORD
  5
32
330
1
100
AcDbSymbolTableRecord
100
AcDbBlockTableRecord
  2
_DOTBLANK
340
0
  0
BLOCK_RECORD
  5
37
330
1
100
AcDbSymbolTableRecord
100
AcDbBlockTableRecord
  2
_DOT
340
0
  0
BLOCK_RECORD
  5
3C
330
1
100
AcDbSymbolTableRecord
100
AcDbBlockTableRecord
  2
_OPEN
340
0
  0
BLOCK_RECORD
  5
42
330
1
100
AcDbSymbolTableRecord
100
AcDbBlockTableRecord
  2
_CLOSED
340
0
  0
BLOCK_RECORD
  5
49
330
1
100
AcDbSymbolTableRecord
100
AcDbBlockTableRecord
  2
_CLOSEDBLANK
340
0
  0
BLOCK_RECORD
  5
4F
330
1
100
AcDbSymbolTableRecord
100
AcDbBlockTableRecord
  2
_BOXBLANK
340
0
  0
BLOCK_RECORD
  5
57
330
1
100
AcDbSymbolTableRecord
100
AcDbBlockTableRecord
  2
_BOXFILLED
340
0
  0
BLOCK_RECORD
  5
5C
330
1
100
AcDbSymbolTableRecord
100
AcDbBlockTableRecord
  2
_INTEGRAL
340
0
  0
BLOCK_RECORD
  5
61
330
1
100
AcDbSymbolTableRecord
100
AcDbBlockTableRecord
  2
_OBLIQUE
340
0
  0
BLOCK_RECORD
  5
65
330
1
100
AcDbSymbolTableRecord
100
AcDbBlockTableRecord
  2
_NONE
340
0
  0
BLOCK_RECORD
  5
87
330
1
100
AcDbSymbolTableRecord
100
AcDbBlockTableRecord
  2
*G12
340
0
102
{BLKREFS
331
8E
102
}
  0
BLOCK_RECORD
  5
1A7
330
1
100
AcDbSymbolTableRecord
100
AcDbBlockTableRecord
  2
Dim1
340
0
  0
BLOCK_RECORD
  5
1B3
330
1
100
AcDbSymbolTableRecord
100
AcDbBlockTableRecord
  2
Dim2
340
0
  0
BLOCK_RECORD
  5
1BE
330
1
100
AcDbSymbolTableRecord
100
AcDbBlockTableRecord
  2
Dim3
340
0
  0
BLOCK_RECORD
  5
1C9
330
1
100
AcDbSymbolTableRecord
100
AcDbBlockTableRecord
  2
Dim4
340
0
  0
BLOCK_RECORD
  5
1D5
330
1
100
AcDbSymbolTableRecord
100
AcDbBlockTableRecord
  2
Dim5
340
0
  0
BLOCK_RECORD
  5
1E1
330
1
100
AcDbSymbolTableRecord
100
AcDbBlockTableRecord
  2
Dim6
340
0
  0
BLOCK_RECORD
  5
1EB
330
1
100
AcDbSymbolTableRecord
100
AcDbBlockTableRecord
  2
Dim7
340
0
  0
BLOCK_RECORD
  5
1F5
330
1
100
AcDbSymbolTableRecord
100
AcDbBlockTableRecord
  2
Dim8
340
0
  0
BLOCK_RECORD
  5
200
330
1
100
AcDbSymbolTableRecord
100
AcDbBlockTableRecord
  2
Dim9
340
0
  0
BLOCK_RECORD
  5
226
330
1
100
AcDbSymbolTableRecord
100
AcDbBlockTableRecord
  2
*G22
340
0
102
{BLKREFS
331
22C
102
}
  0
ENDTAB
  0
ENDSEC
  0
SECTION
  2
BLOCKS
  0
BLOCK
  5
20
330
1F
100
AcDbEntity
  8
0
100
AcDbBlockBegin
  2
*Model_Space
 70
     0
 71
     0
 10
0.0
 20
0.0
 30
0.0
  3
*Model_Space
  1

  0
ENDBLK
  5
21
330
1F
100
AcDbEntity
  8
0
100
AcDbBlockEnd
  0
BLOCK
  5
1C
330
1B
100
AcDbEntity
 67
     1
  8
0
100
AcDbBlockBegin
  2
*Paper_Space
 70
     0
 71
     0
 10
0.0
 20
0.0
 30
0.0
  3
*Paper_Space
  1

  0
ENDBLK
  5
1D
330
1B
100
AcDbEntity
 67
     1
  8
0
100
AcDbBlockEnd
  0
BLOCK
  5
24
330
23
100
AcDbEntity
  8
0
100
AcDbBlockBegin
  2
*Paper_Space0
 70
     0
 71
     0
 10
0.0
 20
0.0
 30
0.0
  3
*Paper_Space0
  1

  0
ENDBLK
  5
25
330
23
100
AcDbEntity
  8
0
100
AcDbBlockEnd
  0
BLOCK
  5
30
330
2D
100
AcDbEntity
  8
0
100
AcDbBlockBegin
  2
_ORIGIN
 70
     0
 71
     0
 10
0.0
 20
0.0
 30
0.0
  3
_ORIGIN
  1

  0
CIRCLE
  5
2E
330
2D
100
AcDbEntity
  8
0
100
AcDbCircle
 10
0.0
 20
0.0
 30
0.0
 40
0.5
  0
LINE
  5
2F
330
2D
100
AcDbEntity
  8
0
100
AcDbLine
 10
0.0
 20
0.0
 30
0.0
 11
-1.0
 21
0.0
 31
0.0
  0
ENDBLK
  5
31
330
2D
100
AcDbEntity
  8
0
100
AcDbBlockEnd
  0
BLOCK
  5
35
330
32
100
AcDbEntity
  8
0
100
AcDbBlockBegin
  2
_DOTBLANK
 70
     0
 71
     0
 10
0.0
 20
0.0
 30
0.0
  3
_DOTBLANK
  1

  0
CIRCLE
  5
33
330
32
100
AcDbEntity
  8
0
100
AcDbCircle
 10
0.0
 20
0.0
 30
0.0
 40
0.5
  0
LINE
  5
34
330
32
100
AcDbEntity
  8
0
100
AcDbLine
 10
-0.5
 20
0.0
 30
0.0
 11
-1.0
 21
0.0
 31
0.0
  0
ENDBLK
  5
36
330
32
100
AcDbEntity
  8
0
100
AcDbBlockEnd
  0
BLOCK
  5
3A
330
37
100
AcDbEntity
  8
0
100
AcDbBlockBegin
  2
_DOT
 70
     0
 71
     0
 10
0.0
 20
0.0
 30
0.0
  3
_DOT
  1

  0
LWPOLYLINE
  5
38
330
37
100
AcDbEntity
  8
0
100
AcDbPolyline
 90
        2
 70
     1
 43
0.5
 10
-0.25
 20
0.0
 42
1.0
 10
0.25
 20
0.0
 42
1.0
  0
LINE
  5
39
330
37
100
AcDbEntity
  8
0
100
AcDbLine
 10
-0.5
 20
0.0
 30
0.0
 11
-1.0
 21
0.0
 31
0.0
  0
ENDBLK
  5
3B
330
37
100
AcDbEntity
  8
0
100
AcDbBlockEnd
  0
BLOCK
  5
40
330
3C
100
AcDbEntity
  8
0
100
AcDbBlockBegin
  2
_OPEN
 70
     0
 71
     0
 10
0.0
 20
0.0
 30
0.0
  3
_OPEN
  1

  0
LINE
  5
3D
330
3C
100
AcDbEntity
  8
0
100
AcDbLine
 10
-1.0
 20
0.1666666666666667
 30
0.0
 11
0.0
 21
0.0
 31
0.0
  0
LINE
  5
3E
330
3C
100
AcDbEntity
  8
0
100
AcDbLine
 10
-1.0
 20
-0.1666666666666667
 30
0.0
 11
0.0
 21
0.0
 31
0.0
  0
LINE
  5
3F
330
3C
100
AcDbEntity
  8
0
100
AcDbLine
 10
0.0
 20
0.0
 30
0.0
 11
-1.0
 21
0.0
 31
0.0
  0
ENDBLK
  5
41
330
3C
100
AcDbEntity
  8
0
100
AcDbBlockEnd
  0
BLOCK
  5
47
330
42
100
AcDbEntity
  8
0
100
AcDbBlockBegin
  2
_CLOSED
 70
     0
 71
     0
 10
0.0
 20
0.0
 30
0.0
  3
_CLOSED
  1

  0
LINE
  5
43
330
42
100
AcDbEntity
  8
0
100
AcDbLine
 10
-1.0
 20
0.1666666666666667
 30
0.0
 11
0.0
 21
0.0
 31
0.0
  0
LINE
  5
44
330
42
100
AcDbEntity
  8
0
100
AcDbLine
 10
0.0
 20
0.0
 30
0.0
 11
-1.0
 21
-0.1666666666666667
 31
0.0
  0
LINE
  5
45
330
42
100
AcDbEntity
  8
0
100
AcDbLine
 10
-1.0
 20
0.1666666666666667
 30
0.0
 11
-1.0
 21
-0.1666666666666667
 31
0.0
  0
LINE
  5
46
330
42
100
AcDbEntity
  8
0
100
AcDbLine
 10
0.0
 20
0.0
 30
0.0
 11
-1.0
 21
0.0
 31
0.0
  0
ENDBLK
  5
48
330
42
100
AcDbEntity
  8
0
100
AcDbBlockEnd
  0
BLOCK
  5
4D
330
49
100
AcDbEntity
  8
0
100
AcDbBlockBegin
  2
_CLOSEDBLANK
 70
     0
 71
     0
 10
0.0
 20
0.0
 30
0.0
  3
_CLOSEDBLANK
  1

  0
LINE
  5
4A
330
49
100
AcDbEntity
  8
0
100
AcDbLine
 10
-1.0
 20
0.1666666666666667
 30
0.0
 11
0.0
 21
0.0
 31
0.0
  0
LINE
  5
4B
330
49
100
AcDbEntity
  8
0
100
AcDbLine
 10
0.0
 20
0.0
 30
0.0
 11
-1.0
 21
-0.1666666666666667
 31
0.0
  0
LINE
  5
4C
330
49
100
AcDbEntity
  8
0
100
AcDbLine
 10
-1.0
 20
0.1666666666666667
 30
0.0
 11
-1.0
 21
-0.1666666666666667
 31
0.0
  0
ENDBLK
  5
4E
330
49
100
AcDbEntity
  8
0
100
AcDbBlockEnd
  0
BLOCK
  5
55
330
4F
100
AcDbEntity
  8
0
100
AcDbBlockBegin
  2
_BOXBLANK
 70
     0
 71
     0
 10
0.0
 20
0.0
 30
0.0
  3
_BOXBLANK
  1

  0
LINE
  5
50
330
4F
100
AcDbEntity
  8
0
100
AcDbLine
 10
-0.5
 20
-0.5
 30
0.0
 11
0.5
 21
-0.5
 31
0.0
  0
LINE
  5
51
330
4F
100
AcDbEntity
  8
0
100
AcDbLine
 10
0.5
 20
-0.5
 30
0.0
 11
0.5
 21
0.5
 31
0.0
  0
LINE
  5
52
330
4F
100
AcDbEntity
  8
0
100
AcDbLine
 10
0.5
 20
0.5
 30
0.0
 11
-0.5
 21
0.5
 31
0.0
  0
LINE
  5
53
330
4F
100
AcDbEntity
  8
0
100
AcDbLine
 10
-0.5
 20
0.5
 30
0.0
 11
-0.5
 21
-0.5
 31
0.0
  0
LINE
  5
54
330
4F
100
AcDbEntity
  8
0
100
AcDbLine
 10
-0.5
 20
0.0
 30
0.0
 11
-1.0
 21
0.0
 31
0.0
  0
ENDBLK
  5
56
330
4F
100
AcDbEntity
  8
0
100
AcDbBlockEnd
  0
BLOCK
  5
5A
330
57
100
AcDbEntity
  8
0
100
AcDbBlockBegin
  2
_BOXFILLED
 70
     0
 71
     0
 10
0.0
 20
0.0
 30
0.0
  3
_BOXFILLED
  1

  0
SOLID
  5
58
330
57
100
AcDbEntity
  8
0
100
AcDbTrace
 10
-0.5
 20
0.5
 30
0.0
 11
0.5
 21
0.5
 31
0.0
 12
-0.5
 22
-0.5
 32
0.0
 13
0.5
 23
-0.5
 33
0.0
  0
LINE
  5
59
330
57
100
AcDbEntity
  8
0
100
AcDbLine
 10
-0.5
 20
0.0
 30
0.0
 11
-1.0
 21
0.0
 31
0.0
  0
ENDBLK
  5
5B
330
57
100
AcDbEntity
  8
0
100
AcDbBlockEnd
  0
BLOCK
  5
5F
330
5C
100
AcDbEntity
  8
0
100
AcDbBlockBegin
  2
_INTEGRAL
 70
     0
 71
     0
 10
0.0
 20
0.0
 30
0.0
  3
_INTEGRAL
  1

  0
ARC
  5
5D
330
5C
100
AcDbEntity
  8
0
100
AcDbCircle
 10
0.444888
 20
-0.0913346
 30
0.0
 40
0.4541666
100
AcDbArc
 50
5844.169510334396
 51
9625.69095819783
  0
ARC
  5
5E
330
5C
100
AcDbEntity
  8
0
100
AcDbCircle
 10
-0.444888
 20
0.0913346
 30
0.0
 40
0.4541666
100
AcDbArc
 50
16157.40982268921
 51
19938.93127055265
  0
ENDBLK
  5
60
330
5C
100
AcDbEntity
  8
0
100
AcDbBlockEnd
  0
BLOCK
  5
63
330
61
100
AcDbEntity
  8
0
100
AcDbBlockBegin
  2
_OBLIQUE
 70
     0
 71
     0
 10
0.0
 20
0.0
 30
0.0
  3
_OBLIQUE
  1

  0
LINE
  5
62
330
61
100
AcDbEntity
  8
0
100
AcDbLine
 10
-0.5
 20
-0.5
 30
0.0
 11
0.5
 21
0.5
 31
0.0
  0
ENDBLK
  5
64
330
61
100
AcDbEntity
  8
0
100
AcDbBlockEnd
  0
BLOCK
  5
66
330
65
100
AcDbEntity
  8
0
100
AcDbBlockBegin
  2
_NONE
 70
     0
 71
     0
 10
0.0
 20
0.0
 30
0.0
  3
_NONE
  1

  0
ENDBLK
  5
67
330
65
100
AcDbEntity
  8
0
100
AcDbBlockEnd
  0
BLOCK
  5
88
330
87
100
AcDbEntity
  8
0
100
AcDbBlockBegin
  2
*G12
 70
     1
 71
     0
 10
0.0
 20
0.0
 30
0.0
  3
*G12
  1

  0
LINE
  5
8A
330
87
100
AcDbEntity
  8
10
  6
Continuous
 62
   172
370
   100
100
AcDbLine
 10
48.0
 20
48.0
 30
0.0
 11
48.0
 21
768.0
 31
0.0
  0
LINE
  5
8B
330
87
100
AcDbEntity
  8
10
  6
Continuous
 62
   172
370
   100
100
AcDbLine
 10
48.0
 20
768.0
 30
0.0
 11
1140.0
 21
768.0
 31
0.0
  0
LINE
  5
8C
330
87
100
AcDbEntity
  8
10
  6
Continuous
 62
   172
370
   100
100
AcDbLine
 10
1140.0
 20
768.0
 30
0.0
 11
1140.0
 21
48.0
 31
0.0
  0
LINE
  5
8D
330
87
100
AcDbEntity
  8
10
  6
Continuous
 62
   172
370
   100
100
AcDbLine
 10
1140.0
 20
48.0
 30
0.0
 11
48.0
 21
48.0
 31
0.0
  0
ENDBLK
  5
89
330
87
100
AcDbEntity
  8
0
100
AcDbBlockEnd
  0
BLOCK
  5
1A8
330
1A7
100
AcDbEntity
  8
0
100
AcDbBlockBegin
  2
Dim1
 70
     0
 71
     0
 10
0.0
 20
0.0
 30
0.0
  3
Dim1
  1

  0
LINE
  5
1AA
330
1A7
100
AcDbEntity
  8
6
  6
Continuous
 62
     7
370
     9
100
AcDbLine
 10
293.5510300350862
 20
698.7467476109616
 30
0.0
 11
366.0510300350854
 21
698.7467476109616
 31
0.0
  0
LINE
  5
1AB
330
1A7
100
AcDbEntity
  8
6
  6
Continuous
 62
     7
370
     9
100
AcDbLine
 10
293.5510300350862
 20
702.7467476109616
 30
0.0
 11
293.5510300350861
 21
616.746747610962
 31
0.0
  0
LINE
  5
1AC
330
1A7
100
AcDbEntity
  8
6
  6
Continuous
 62
     7
370
     9
100
AcDbLine
 10
366.0510300350854
 20
702.7467476109616
 30
0.0
 11
366.0510300350853
 21
669.2467476109616
 31
0.0
  0
LINE
  5
1AD
330
1A7
100
AcDbEntity
  8
6
  6
Continuous
 62
     7
370
     9
100
AcDbLine
 10
293.5510300350862
 20
698.7467476109616
 30
0.0
 11
301.2784366453988
 21
700.8172999717818
 31
0.0
  0
LINE
  5
1AE
330
1A7
100
AcDbEntity
  8
6
  6
Continuous
 62
     7
370
     9
100
AcDbLine
 10
293.5510300350862
 20
698.7467476109616
 30
0.0
 11
301.2784366453988
 21
696.6761952501414
 31
0.0
  0
LINE
  5
1AF
330
1A7
100
AcDbEntity
  8
6
  6
Continuous
 62
     7
370
     9
100
AcDbLine
 10
366.0510300350854
 20
698.7467476109616
 30
0.0
 11
358.3236234247728
 21
696.6761952501415
 31
0.0
  0
LINE
  5
1B0
330
1A7
100
AcDbEntity
  8
6
  6
Continuous
 62
     7
370
     9
100
AcDbLine
 10
366.0510300350854
 20
698.7467476109616
 30
0.0
 11
358.3236234247728
 21
700.8172999717818
 31
0.0
  0
MTEXT
  5
1B1
330
1A7
100
AcDbEntity
  8
6
  6
Continuous
 62
     7
370
     9
100
AcDbMText
 10
329.8010300350857
 20
704.7467476109616
 30
0.0
 40
12.0
 41
0.0
 71
     8
 72
     1
  1
70
 73
     1
 44
1.0
  0
ENDBLK
  5
1A9
330
1A7
100
AcDbEntity
  8
0
100
AcDbBlockEnd
  0
BLOCK
  5
1B4
330
1B3
100
AcDbEntity
  8
0
100
AcDbBlockBegin
  2
Dim2
 70
     0
 71
     0
 10
0.0
 20
0.0
 30
0.0
  3
Dim2
  1

  0
LINE
  5
1B6
330
1B3
100
AcDbEntity
  8
6
  6
Continuous
 62
     7
370
     9
100
AcDbLine
 10
366.0510300350854
 20
698.7467476109616
 30
0.0
 11
406.0510300350854
 21
698.7467476109616
 31
0.0
  0
LINE
  5
1B7
330
1B3
100
AcDbEntity
  8
6
  6
Continuous
 62
     7
370
     9
100
AcDbLine
 10
406.0510300350854
 20
702.7467476109616
 30
0.0
 11
406.0510300350853
 21
669.2467476109616
 31
0.0
  0
LINE
  5
1B8
330
1B3
100
AcDbEntity
  8
6
  6
Continuous
 62
     7
370
     9
100
AcDbLine
 10
366.0510300350854
 20
698.7467476109616
 30
0.0
 11
373.7784366453979
 21
700.8172999717818
 31
0.0
  0
LINE
  5
1B9
330
1B3
100
AcDbEntity
  8
6
  6
Continuous
 62
     7
370
     9
100
AcDbLine
 10
366.0510300350854
 20
698.7467476109616
 30
0.0
 11
373.7784366453979
 21
696.6761952501414
 31
0.0
  0
LINE
  5
1BA
330
1B3
100
AcDbEntity
  8
6
  6
Continuous
 62
     7
370
     9
100
AcDbLine
 10
406.0510300350854
 20
698.7467476109616
 30
0.0
 11
398.3236234247728
 21
696.6761952501415
 31
0.0
  0
LINE
  5
1BB
330
1B3
100
AcDbEntity
  8
6
  6
Continuous
 62
     7
370
     9
100
AcDbLine
 10
406.0510300350854
 20
698.7467476109616
 30
0.0
 11
398.3236234247728
 21
700.8172999717818
 31
0.0
  0
MTEXT
  5
1BC
330
1B3
100
AcDbEntity
  8
6
  6
Continuous
 62
     7
370
     9
100
AcDbMText
 10
386.0510300350854
 20
704.7467476109616
 30
0.0
 40
12.0
 41
0.0
 71
     8
 72
     1
  1
28～40
 73
     1
 44
1.0
  0
ENDBLK
  5
1B5
330
1B3
100
AcDbEntity
  8
0
100
AcDbBlockEnd
  0
BLOCK
  5
1BF
330
1BE
100
AcDbEntity
  8
0
100
AcDbBlockBegin
  2
Dim3
 70
     0
 71
     0
 10
0.0
 20
0.0
 30
0.0
  3
Dim3
  1

  0
LINE
  5
1C1
330
1BE
100
AcDbEntity
  8
6
  6
Continuous
 62
     7
370
     9
100
AcDbLine
 10
406.0510300350854
 20
698.7467476109616
 30
0.0
 11
478.5510300350862
 21
698.7467476109616
 31
0.0
  0
LINE
  5
1C2
330
1BE
100
AcDbEntity
  8
6
  6
Continuous
 62
     7
370
     9
100
AcDbLine
 10
478.5510300350862
 20
702.7467476109616
 30
0.0
 11
478.551030035086
 21
616.7467476109615
 31
0.0
  0
LINE
  5
1C3
330
1BE
100
AcDbEntity
  8
6
  6
Continuous
 62
     7
370
     9
100
AcDbLine
 10
406.0510300350854
 20
698.7467476109616
 30
0.0
 11
413.7784366453979
 21
700.8172999717818
 31
0.0
  0
LINE
  5
1C4
330
1BE
100
AcDbEntity
  8
6
  6
Continuous
 62
     7
370
     9
100
AcDbLine
 10
406.0510300350854
 20
698.7467476109616
 30
0.0
 11
413.7784366453979
 21
696.6761952501414
 31
0.0
  0
LINE
  5
1C5
330
1BE
100
AcDbEntity
  8
6
  6
Continuous
 62
     7
370
     9
100
AcDbLine
 10
478.5510300350862
 20
698.7467476109616
 30
0.0
 11
470.8236234247736
 21
696.6761952501415
 31
0.0
  0
LINE
  5
1C6
330
1BE
100
AcDbEntity
  8
6
  6
Continuous
 62
     7
370
     9
100
AcDbLine
 10
478.5510300350862
 20
698.7467476109616
 30
0.0
 11
470.8236234247736
 21
700.8172999717818
 31
0.0
  0
MTEXT
  5
1C7
330
1BE
100
AcDbEntity
  8
6
  6
Continuous
 62
     7
370
     9
100
AcDbMText
 10
442.3010300350857
 20
704.7467476109616
 30
0.0
 40
12.0
 41
0.0
 71
     8
 72
     1
  1
70
 73
     1
 44
1.0
  0
ENDBLK
  5
1C0
330
1BE
100
AcDbEntity
  8
0
100
AcDbBlockEnd
  0
BLOCK
  5
1CA
330
1C9
100
AcDbEntity
  8
0
100
AcDbBlockBegin
  2
Dim4
 70
     0
 71
     0
 10
0.0
 20
0.0
 30
0.0
  3
Dim4
  1

  0
LINE
  5
1CC
330
1C9
100
AcDbEntity
  8
6
  6
Continuous
 62
     7
370
     9
100
AcDbLine
 10
253.5510300350848
 20
658.7467476109622
 30
0.0
 11
253.5510300350855
 21
208.7467476109622
 31
0.0
  0
LINE
  5
1CD
330
1C9
100
AcDbEntity
  8
6
  6
Continuous
 62
     7
370
     9
100
AcDbLine
 10
249.5510300350848
 20
658.7467476109622
 30
0.0
 11
335.5510300350862
 21
658.7467476109618
 31
0.0
  0
LINE
  5
1CE
330
1C9
100
AcDbEntity
  8
6
  6
Continuous
 62
     7
370
     9
100
AcDbLine
 10
249.5510300350855
 20
208.7467476109622
 30
0.0
 11
335.5510300350862
 21
208.7467476109619
 31
0.0
  0
LINE
  5
1CF
330
1C9
100
AcDbEntity
  8
6
  6
Continuous
 62
     7
370
     9
100
AcDbLine
 10
253.5510300350848
 20
658.7467476109622
 30
0.0
 11
255.621582395905
 21
651.0193410006497
 31
0.0
  0
LINE
  5
1D0
330
1C9
100
AcDbEntity
  8
6
  6
Continuous
 62
     7
370
     9
100
AcDbLine
 10
253.5510300350848
 20
658.7467476109622
 30
0.0
 11
251.4804776742646
 21
651.0193410006497
 31
0.0
  0
LINE
  5
1D1
330
1C9
100
AcDbEntity
  8
6
  6
Continuous
 62
     7
370
     9
100
AcDbLine
 10
253.5510300350855
 20
208.7467476109622
 30
0.0
 11
251.4804776742654
 21
216.4741542212747
 31
0.0
  0
LINE
  5
1D2
330
1C9
100
AcDbEntity
  8
6
  6
Continuous
 62
     7
370
     9
100
AcDbLine
 10
253.5510300350855
 20
208.7467476109622
 30
0.0
 11
255.6215823959057
 21
216.4741542212747
 31
0.0
  0
MTEXT
  5
1D3
330
1C9
100
AcDbEntity
  8
6
  6
Continuous
 62
     7
370
     9
100
AcDbMText
 10
247.5510300350852
 20
433.7467476109622
 30
0.0
 40
12.0
 41
0.0
 71
     8
 72
     1
  1
450
 11
1.615544574432587E-15
 21
1.0
 31
0.0
 73
     1
 44
1.0
  0
ENDBLK
  5
1CB
330
1C9
100
AcDbEntity
  8
0
100
AcDbBlockEnd
  0
BLOCK
  5
1D6
330
1D5
100
AcDbEntity
  8
0
100
AcDbBlockBegin
  2
Dim5
 70
     0
 71
     0
 10
0.0
 20
0.0
 30
0.0
  3
Dim5
  1

  0
LINE
  5
1D8
330
1D5
100
AcDbEntity
  8
6
  6
Continuous
 62
     7
370
     9
100
AcDbLine
 10
518.551030035085
 20
646.2467476109606
 30
0.0
 11
518.5510300350857
 21
221.2467476109607
 31
0.0
  0
LINE
  5
1D9
330
1D5
100
AcDbEntity
  8
6
  6
Continuous
 62
     7
370
     9
100
AcDbLine
 10
522.551030035085
 20
646.2467476109606
 30
0.0
 11
436.5510300350861
 21
646.2467476109614
 31
0.0
  0
LINE
  5
1DA
330
1D5
100
AcDbEntity
  8
6
  6
Continuous
 62
     7
370
     9
100
AcDbLine
 10
522.5510300350857
 20
221.2467476109607
 30
0.0
 11
436.5510300350861
 21
221.2467476109615
 31
0.0
  0
LINE
  5
1DB
330
1D5
100
AcDbEntity
  8
6
  6
Continuous
 62
     7
370
     9
100
AcDbLine
 10
518.551030035085
 20
646.2467476109606
 30
0.0
 11
520.6215823959052
 21
638.5193410006481
 31
0.0
  0
LINE
  5
1DC
330
1D5
100
AcDbEntity
  8
6
  6
Continuous
 62
     7
370
     9
100
AcDbLine
 10
518.551030035085
 20
646.2467476109606
 30
0.0
 11
516.4804776742649
 21
638.5193410006481
 31
0.0
  0
LINE
  5
1DD
330
1D5
100
AcDbEntity
  8
6
  6
Continuous
 62
     7
370
     9
100
AcDbLine
 10
518.5510300350857
 20
221.2467476109607
 30
0.0
 11
516.4804776742654
 21
228.9741542212733
 31
0.0
  0
LINE
  5
1DE
330
1D5
100
AcDbEntity
  8
6
  6
Continuous
 62
     7
370
     9
100
AcDbLine
 10
518.5510300350857
 20
221.2467476109607
 30
0.0
 11
520.6215823959058
 21
228.9741542212733
 31
0.0
  0
MTEXT
  5
1DF
330
1D5
100
AcDbEntity
  8
6
  6
Continuous
 62
     7
370
     9
100
AcDbMText
 10
512.5510300350853
 20
433.7467476109607
 30
0.0
 40
12.0
 41
0.0
 71
     8
 72
     1
  1
425
 11
1.615544574432587E-15
 21
1.0
 31
0.0
 73
     1
 44
1.0
  0
ENDBLK
  5
1D7
330
1D5
100
AcDbEntity
  8
0
100
AcDbBlockEnd
  0
BLOCK
  5
1E2
330
1E1
100
AcDbEntity
  8
0
100
AcDbBlockBegin
  2
Dim6
 70
     0
 71
     0
 10
0.0
 20
0.0
 30
0.0
  3
Dim6
  1

  0
LINE
  5
1E4
330
1E1
100
AcDbEntity
  8
6
  6
Continuous
 62
     7
370
     9
100
AcDbLine
 10
264.0400000000001
 20
465.8399999999999
 30
0.0
 11
338.5510300350861
 21
465.8399999999999
 31
0.0
  0
LINE
  5
1E5
330
1E1
100
AcDbEntity
  8
6
  6
Continuous
 62
     7
370
     9
100
AcDbLine
 10
293.5510300350861
 20
465.8399999999999
 30
0.0
 11
285.8236234247735
 21
463.7694476391798
 31
0.0
  0
LINE
  5
1E6
330
1E1
100
AcDbEntity
  8
6
  6
Continuous
 62
     7
370
     9
100
AcDbLine
 10
293.5510300350861
 20
465.8399999999999
 30
0.0
 11
285.8236234247735
 21
467.9105523608201
 31
0.0
  0
LINE
  5
1E7
330
1E1
100
AcDbEntity
  8
6
  6
Continuous
 62
     7
370
     9
100
AcDbLine
 10
318.5510300350861
 20
465.8399999999999
 30
0.0
 11
326.2784366453986
 21
467.91055236082
 31
0.0
  0
LINE
  5
1E8
330
1E1
100
AcDbEntity
  8
6
  6
Continuous
 62
     7
370
     9
100
AcDbLine
 10
318.5510300350861
 20
465.8399999999999
 30
0.0
 11
326.2784366453986
 21
463.7694476391797
 31
0.0
  0
MTEXT
  5
1E9
330
1E1
100
AcDbEntity
  8
6
  6
Continuous
 62
     7
370
     9
100
AcDbMText
 10
276.0400000000001
 20
471.8399999999999
 30
0.0
 40
12.0
 41
0.0
 71
     8
 72
     1
  1
φ25
 73
     1
 44
1.0
  0
ENDBLK
  5
1E3
330
1E1
100
AcDbEntity
  8
0
100
AcDbBlockEnd
  0
BLOCK
  5
1EC
330
1EB
100
AcDbEntity
  8
0
100
AcDbBlockBegin
  2
Dim7
 70
     0
 71
     0
 10
0.0
 20
0.0
 30
0.0
  3
Dim7
  1

  0
LINE
  5
1EE
330
1EB
100
AcDbEntity
  8
6
  6
Continuous
 62
     7
370
     9
100
AcDbLine
 10
508.0620600701714
 20
465.8399999999998
 30
0.0
 11
433.5510300350853
 21
465.84
 31
0.0
  0
LINE
  5
1EF
330
1EB
100
AcDbEntity
  8
6
  6
Continuous
 62
     7
370
     9
100
AcDbLine
 10
478.5510300350853
 20
465.8399999999999
 30
0.0
 11
486.2784366453978
 21
467.9105523608201
 31
0.0
  0
LINE
  5
1F0
330
1EB
100
AcDbEntity
  8
6
  6
Continuous
 62
     7
370
     9
100
AcDbLine
 10
478.5510300350853
 20
465.8399999999999
 30
0.0
 11
486.2784366453978
 21
463.7694476391798
 31
0.0
  0
LINE
  5
1F1
330
1EB
100
AcDbEntity
  8
6
  6
Continuous
 62
     7
370
     9
100
AcDbLine
 10
453.5510300350853
 20
465.8399999999999
 30
0.0
 11
445.8236234247727
 21
463.7694476391798
 31
0.0
  0
LINE
  5
1F2
330
1EB
100
AcDbEntity
  8
6
  6
Continuous
 62
     7
370
     9
100
AcDbLine
 10
453.5510300350853
 20
465.8399999999999
 30
0.0
 11
445.8236234247727
 21
467.9105523608201
 31
0.0
  0
MTEXT
  5
1F3
330
1EB
100
AcDbEntity
  8
6
  6
Continuous
 62
     7
370
     9
100
AcDbMText
 10
496.0620600701713
 20
471.8399999999999
 30
0.0
 40
12.0
 41
0.0
 71
     8
 72
     1
  1
φ25
 73
     1
 44
1.0
  0
ENDBLK
  5
1ED
330
1EB
100
AcDbEntity
  8
0
100
AcDbBlockEnd
  0
BLOCK
  5
1F6
330
1F5
100
AcDbEntity
  8
0
100
AcDbBlockBegin
  2
Dim8
 70
     0
 71
     0
 10
0.0
 20
0.0
 30
0.0
  3
Dim8
  1

  0
LINE
  5
1F8
330
1F5
100
AcDbEntity
  8
6
  6
Continuous
 62
     7
370
     9
100
AcDbLine
 10
318.5510300350858
 20
465.84
 30
0.0
 11
366.0510300350853
 21
465.84
 31
0.0
  0
LINE
  5
1F9
330
1F5
100
AcDbEntity
  8
6
  6
Continuous
 62
     7
370
     9
100
AcDbLine
 10
318.5510300350858
 20
465.84
 30
0.0
 11
326.2784366453983
 21
467.9105523608201
 31
0.0
  0
LINE
  5
1FA
330
1F5
100
AcDbEntity
  8
6
  6
Continuous
 62
     7
370
     9
100
AcDbLine
 10
318.5510300350858
 20
465.84
 30
0.0
 11
326.2784366453983
 21
463.7694476391798
 31
0.0
  0
LINE
  5
1FB
330
1F5
100
AcDbEntity
  8
6
  6
Continuous
 62
     7
370
     9
100
AcDbLine
 10
366.0510300350853
 20
465.84
 30
0.0
 11
358.3236234247728
 21
463.7694476391798
 31
0.0
  0
LINE
  5
1FC
330
1F5
100
AcDbEntity
  8
6
  6
Continuous
 62
     7
370
     9
100
AcDbLine
 10
366.0510300350853
 20
465.84
 30
0.0
 11
358.3236234247728
 21
467.9105523608202
 31
0.0
  0
MTEXT
  5
1FD
330
1F5
100
AcDbEntity
  8
6
  6
Continuous
 62
     7
370
     9
100
AcDbMText
 10
342.3010300350855
 20
471.84
 30
0.0
 40
12.0
 41
0.0
 71
     8
 72
     1
  1
(45)
 73
     1
 44
1.0
  0
ENDBLK
  5
1F7
330
1F5
100
AcDbEntity
  8
0
100
AcDbBlockEnd
  0
BLOCK
  5
201
330
200
100
AcDbEntity
  8
0
100
AcDbBlockBegin
  2
Dim9
 70
     0
 71
     0
 10
0.0
 20
0.0
 30
0.0
  3
Dim9
  1

  0
LINE
  5
203
330
200
100
AcDbEntity
  8
6
  6
Continuous
 62
     7
370
     9
100
AcDbLine
 10
346.7619239277776
 20
605.5358537182702
 30
0.0
 11
325.8733605054226
 21
626.4244171406258
 31
0.0
  0
LINE
  5
204
330
200
100
AcDbEntity
  8
6
  6
Continuous
 62
     7
370
     9
100
AcDbLine
 10
325.8733605054224
 20
626.4244171406256
 30
0.0
 11
332.8015637356979
 21
622.4244171406255
 31
0.0
  0
LINE
  5
205
330
200
100
AcDbEntity
  8
6
  6
Continuous
 62
     7
370
     9
100
AcDbLine
 10
325.8733605054224
 20
626.4244171406256
 30
0.0
 11
329.8733605054223
 21
619.49621391035
 31
0.0
  0
MTEXT
  5
206
330
200
100
AcDbEntity
  8
6
  6
Continuous
 62
     7
370
     9
100
AcDbMText
 10
344.640603584218
 20
616.1424554360685
 30
0.0
 40
12.0
 41
0.0
 71
     8
 72
     1
  1
R25
 11
0.7071067811865488
 21
-0.7071067811865462
 31
0.0
 73
     1
 44
1.0
  0
ENDBLK
  5
202
330
200
100
AcDbEntity
  8
0
100
AcDbBlockEnd
  0
BLOCK
  5
227
330
226
100
AcDbEntity
  8
0
100
AcDbBlockBegin
  2
*G22
 70
     1
 71
     0
 10
0.0
 20
0.0
 30
0.0
  3
*G22
  1

  0
LINE
  5
229
330
226
100
AcDbEntity
  8
6
  6
Continuous
 62
     7
370
     9
100
AcDbLine
 10
348.0432791495925
 20
146.6483904892547
 30
0.0
 11
407.40946159122
 21
206.7027114769094
 31
0.0
  0
LINE
  5
22A
330
226
100
AcDbEntity
  8
6
  6
Continuous
 62
     7
370
     9
100
AcDbLine
 10
407.40946159122
 20
206.7027114769094
 30
0.0
 11
403.4494498240197
 21
199.7515743898109
 31
0.0
  0
LINE
  5
22B
330
226
100
AcDbEntity
  8
6
  6
Continuous
 62
     7
370
     9
100
AcDbLine
 10
407.40946159122
 20
206.7027114769094
 30
0.0
 11
400.50442225799
 21
202.6628560578941
 31
0.0
  0
ENDBLK
  5
228
330
226
100
AcDbEntity
  8
0
100
AcDbBlockEnd
  0
ENDSEC
  0
SECTION
  2
ENTITIES
  0
INSERT
  5
8E
330
1F
100
AcDbEntity
  8
0
100
AcDbBlockReference
  2
*G12
 10
0.0
 20
0.0
 30
0.0
  0
LINE
  5
8F
330
1F
100
AcDbEntity
  8
8
  6
Continuous
 62
   171
370
    30
100
AcDbLine
 10
948.0
 20
144.0
 30
0.0
 11
948.0
 21
80.0
 31
0.0
  0
TEXT
  5
90
330
1F
100
AcDbEntity
  8
8
  6
Continuous
 62
   171
370
     9
100
AcDbText
 10
750.0
 20
78.0
 30
0.0
 40
11.66666666666667
  1
備考
 50
-0.0000000000000891
  7
T_STANDARD
100
AcDbText
  0
TEXT
  5
91
330
1F
100
AcDbEntity
  8
8
  6
Continuous
 62
   171
370
     9
100
AcDbText
 10
750.0
 20
110.0
 30
0.0
 40
11.66666666666667
  1
品番
 50
-0.0000000000000891
  7
T_STANDARD
100
AcDbText
  0
TEXT
  5
92
330
1F
100
AcDbEntity
  8
8
  6
Continuous
 62
   171
370
     9
100
AcDbText
 10
750.0
 20
142.0
 30
0.0
 40
11.66666666666667
  1
品名
 50
-0.0000000000000891
  7
T_STANDARD
100
AcDbText
  0
LINE
  5
93
330
1F
100
AcDbEntity
  8
8
  6
Continuous
 62
   171
370
    30
100
AcDbLine
 10
948.0
 20
112.0
 30
0.0
 11
740.0
 21
112.0
 31
0.0
  0
LINE
  5
94
330
1F
100
AcDbEntity
  8
8
  6
Continuous
 62
   171
370
    30
100
AcDbLine
 10
760.0
 20
144.0
 30
0.0
 11
760.0
 21
48.0
 31
0.0
  0
LINE
  5
95
330
1F
100
AcDbEntity
  8
9
  6
Continuous
 62
   170
370
    50
100
AcDbLine
 10
1140.0
 20
144.0
 30
0.0
 11
740.0
 21
144.0
 31
0.0
  0
LINE
  5
96
330
1F
100
AcDbEntity
  8
9
  6
Continuous
 62
   170
370
    50
100
AcDbLine
 10
740.0
 20
144.0
 30
0.0
 11
740.0
 21
48.0
 31
0.0
  0
LINE
  5
97
330
1F
100
AcDbEntity
  8
8
  6
Continuous
 62
   171
370
    30
100
AcDbLine
 10
996.0
 20
144.0
 30
0.0
 11
996.0
 21
48.0
 31
0.0
  0
TEXT
  5
98
330
1F
100
AcDbEntity
  8
8
  6
Continuous
 62
   171
370
     9
100
AcDbText
 10
954.0
 20
128.0
 30
0.0
 40
12.0
  1
縮　尺
 41
0.8333333333333335
100
AcDbText
  0
LINE
  5
99
330
1F
100
AcDbEntity
  8
8
  6
Continuous
 62
   171
370
    30
100
AcDbLine
 10
948.0
 20
124.0
 30
0.0
 11
996.0
 21
124.0
 31
0.0
  0
LINE
  5
9A
330
1F
100
AcDbEntity
  8
8
  6
Continuous
 62
   171
370
    30
100
AcDbLine
 10
996.0
 20
80.0
 30
0.0
 11
740.0
 21
80.0
 31
0.0
  0
LINE
  5
9B
330
1F
100
AcDbEntity
  8
8
  6
Continuous
 62
   171
370
    30
100
AcDbLine
 10
1140.0
 20
72.0
 30
0.0
 11
996.0
 21
72.0
 31
0.0
  0
LINE
  5
9C
330
1F
100
AcDbEntity
  8
8
  6
Continuous
 62
   171
370
    30
100
AcDbLine
 10
996.0
 20
96.0
 30
0.0
 11
1140.0
 21
96.0
 31
0.0
  0
LINE
  5
9D
330
1F
100
AcDbEntity
  8
8
  6
Continuous
 62
   171
370
    30
100
AcDbLine
 10
1140.0
 20
112.0
 30
0.0
 11
996.0
 21
112.0
 31
0.0
  0
TEXT
  5
9E
330
1F
100
AcDbEntity
  8
8
  6
Continuous
 62
   171
370
     9
100
AcDbText
 10
1004.0
 20
118.0
 30
0.0
 40
20.0
  1
株式会社シマブン
 41
0.6666666666666667
100
AcDbText
  0
TEXT
  5
9F
330
1F
100
AcDbEntity
  8
8
  6
Continuous
 62
   171
370
     9
100
AcDbText
 10
1002.0
 20
47.99999999999997
 30
0.0
 40
12.0
  1
年月日
 41
0.8333333333333335
100
AcDbText
  0
TEXT
  5
A0
330
1F
100
AcDbEntity
  8
8
  6
Continuous
 62
   171
370
     9
100
AcDbText
 10
1002.0
 20
60.0
 30
0.0
 40
12.0
  1
作　成
 41
0.8333333333333335
100
AcDbText
  0
TEXT
  5
A1
330
1F
100
AcDbEntity
  8
8
  6
Continuous
 62
   171
370
     9
100
AcDbText
 10
1005.0
 20
98.0
 30
0.0
 40
12.0
  1
承 認
 41
0.8333333333333334
100
AcDbText
  0
LINE
  5
A2
330
1F
100
AcDbEntity
  8
8
  6
Continuous
 62
   171
370
    30
100
AcDbLine
 10
1044.0
 20
112.0
 30
0.0
 11
1044.0
 21
48.0
 31
0.0
  0
TEXT
  5
A3
330
1F
100
AcDbEntity
  8
8
  6
Continuous
 62
   171
370
     9
100
AcDbText
 10
1053.0
 20
98.0
 30
0.0
 40
12.0
  1
検 図
 41
0.8333333333333334
100
AcDbText
  0
LINE
  5
A4
330
1F
100
AcDbEntity
  8
8
  6
Continuous
 62
   171
370
    30
100
AcDbLine
 10
1092.0
 20
112.0
 30
0.0
 11
1092.0
 21
72.0
 31
0.0
  0
TEXT
  5
A5
330
1F
100
AcDbEntity
  8
8
  6
Continuous
 62
   171
370
     9
100
AcDbText
 10
1100.0
 20
76.00000000000001
 30
0.0
 40
16.0
  1
藤戸
 41
0.8333333333333334
100
AcDbText
  0
TEXT
  5
A6
330
1F
100
AcDbEntity
  8
8
  6
Continuous
 62
   171
370
     9
100
AcDbText
 10
1101.0
 20
98.0
 30
0.0
 40
12.0
  1
設 計
 41
0.8333333333333334
100
AcDbText
  0
LINE
  5
A7
330
1F
100
AcDbEntity
  8
8
  6
Continuous
 62
   171
370
    30
100
AcDbLine
 10
1140.0
 20
754.0
 30
0.0
 11
712.0
 21
754.0
 31
0.0
  0
TEXT
  5
A8
330
1F
100
AcDbEntity
  8
8
  6
Continuous
 62
   171
370
     9
100
AcDbText
 10
716.0
 20
755.9999999999998
 30
0.0
 40
10.0
  1
記号
 41
0.8333333333333334
100
AcDbText
  0
TEXT
  5
A9
330
1F
100
AcDbEntity
  8
8
  6
Continuous
 62
   171
370
     9
100
AcDbText
 10
797.5
 20
756.0
 30
0.0
 40
10.0
  1
訂　 正　 記　 事
 41
0.8333333333333334
100
AcDbText
  0
TEXT
  5
AA
330
1F
100
AcDbEntity
  8
8
  6
Continuous
 62
   171
370
     9
100
AcDbText
 10
945.0
 20
756.0
 30
0.0
 40
10.0
  1
訂 正 年 月 日
 41
0.8333333333333334
100
AcDbText
  0
TEXT
  5
AB
330
1F
100
AcDbEntity
  8
8
  6
Continuous
 62
   171
370
     9
100
AcDbText
 10
1045.0
 20
756.0
 30
0.0
 40
10.0
  1
備　　　　　考
 41
0.8333333333333333
100
AcDbText
  0
LINE
  5
AC
330
1F
100
AcDbEntity
  8
8
  6
Continuous
 62
   171
370
    30
100
AcDbLine
 10
712.0
 20
754.0
 30
0.0
 11
712.0
 21
767.9999999999995
 31
0.0
  0
LINE
  5
AD
330
1F
100
AcDbEntity
  8
8
  6
Continuous
 62
   171
370
    30
100
AcDbLine
 10
740.0
 20
754.0
 30
0.0
 11
740.0
 21
767.9999999999995
 31
0.0
  0
LINE
  5
AE
330
1F
100
AcDbEntity
  8
8
  6
Continuous
 62
   171
370
    30
100
AcDbLine
 10
940.0
 20
754.0
 30
0.0
 11
940.0
 21
767.9999999999995
 31
0.0
  0
LINE
  5
AF
330
1F
100
AcDbEntity
  8
8
  6
Continuous
 62
   171
370
    30
100
AcDbLine
 10
1020.0
 20
754.0
 30
0.0
 11
1020.0
 21
767.9999999999995
 31
0.0
  0
TEXT
  5
B0
330
1F
100
AcDbEntity
  8
8
  6
Continuous
 62
   171
370
     9
100
AcDbText
 10
1004.0
 20
76.00000000000001
 30
0.0
 40
16.0
  1
大野
 41
0.8333333333333334
100
AcDbText
  0
TEXT
  5
B1
330
1F
100
AcDbEntity
  8
8
  6
Continuous
 62
   171
370
     9
100
AcDbText
 10
1052.0
 20
76.00000000000001
 30
0.0
 40
16.0
  1
深川
 41
0.8333333333333334
100
AcDbText
  0
TEXT
  5
B2
330
1F
100
AcDbEntity
  8
8
  6
Continuous
 62
   171
370
     9
100
AcDbText
 10
1048.0
 20
53.99999999999997
 30
0.0
 40
12.0
  1
２０１３年０３月０１日
 41
0.5555555555555557
100
AcDbText
  0
TEXT
  5
B3
330
1F
100
AcDbEntity
  8
8
  6
Continuous
 62
   171
370
     9
100
AcDbText
 10
772.3999999999999
 20
120.0
 30
0.0
 40
16.0
  1
木粉樹脂ドアハンドル
 41
0.5000000000000001
100
AcDbText
  0
LINE
  5
B4
330
1F
100
AcDbEntity
  8
8
  6
Continuous
 62
   171
370
    30
100
AcDbLine
 10
818.3088585779749
 20
247.2399336991319
 30
0.0
 11
978.3088585779744
 21
247.2399336991319
 31
0.0
  0
LINE
  5
B5
330
1F
100
AcDbEntity
  8
8
  6
Continuous
 62
   171
370
    30
100
AcDbLine
 10
818.3088585779749
 20
267.239933699132
 30
0.0
 11
978.3088585779744
 21
267.239933699132
 31
0.0
  0
TEXT
  5
B6
330
1F
100
AcDbEntity
  8
8
  6
Continuous
 62
   171
370
     9
100
AcDbText
 10
943.5088585779749
 20
331.2399336991319
 30
0.0
 40
12.0
  1
色
 41
0.6666666666666604
100
AcDbText
  0
LINE
  5
B7
330
1F
100
AcDbEntity
  8
8
  6
Continuous
 62
   171
370
    30
100
AcDbLine
 10
918.3088585779749
 20
347.2399336991319
 30
0.0
 11
918.3088585779749
 21
247.2399336991319
 31
0.0
  0
LINE
  5
B8
330
1F
100
AcDbEntity
  8
8
  6
Continuous
 62
   171
370
    30
100
AcDbLine
 10
978.3088585779744
 20
347.2399336991319
 30
0.0
 11
978.3088585779744
 21
247.2399336991319
 31
0.0
  0
LINE
  5
B9
330
1F
100
AcDbEntity
  8
8
  6
Continuous
 62
   171
370
    30
100
AcDbLine
 10
818.3088585779749
 20
347.2399336991319
 30
0.0
 11
978.3088585779744
 21
347.2399336991319
 31
0.0
  0
LINE
  5
BA
330
1F
100
AcDbEntity
  8
8
  6
Continuous
 62
   171
370
    30
100
AcDbLine
 10
818.3088585779749
 20
327.2399336991319
 30
0.0
 11
978.3088585779744
 21
327.2399336991319
 31
0.0
  0
LINE
  5
BB
330
1F
100
AcDbEntity
  8
8
  6
Continuous
 62
   171
370
    30
100
AcDbLine
 10
818.3088585779749
 20
347.2399336991319
 30
0.0
 11
818.3088585779749
 21
247.2399336991319
 31
0.0
  0
TEXT
  5
BC
330
1F
100
AcDbEntity
  8
8
  6
Continuous
 62
   171
370
     9
100
AcDbText
 10
848.1358215409376
 20
331.2399336991319
 30
0.0
 40
12.0
  1
品　　番
 41
0.6666666666666683
100
AcDbText
  0
TEXT
  5
BD
330
1F
100
AcDbEntity
  8
8
  6
Continuous
 62
   171
370
     9
100
AcDbText
 10
847.6799768635678
 20
351.2399336991319
 30
0.0
 40
14.0
  1
品番表
 41
1.944444444444445
100
AcDbText
  0
LINE
  5
BE
330
1F
100
AcDbEntity
  8
8
  6
Continuous
 62
   171
370
    30
100
AcDbLine
 10
818.3088585779749
 20
287.2399336991321
 30
0.0
 11
978.3088585779744
 21
287.2399336991321
 31
0.0
  0
LINE
  5
BF
330
1F
100
AcDbEntity
  8
8
  6
Continuous
 62
   171
370
    30
100
AcDbLine
 10
818.3088585779749
 20
307.2399336991322
 30
0.0
 11
978.3088585779744
 21
307.2399336991322
 31
0.0
  0
TEXT
  5
C0
330
1F
100
AcDbEntity
  8
8
  6
Continuous
 62
   171
370
     9
100
AcDbText
 10
772.3999999999999
 20
88.0
 30
0.0
 40
16.0
  1
ＤＲ－２５Ｓ４５０
 41
0.5000000000000006
100
AcDbText
  0
TEXT
  5
C1
330
1F
100
AcDbEntity
  8
8
  6
Continuous
 62
   171
370
     9
100
AcDbText
 10
828.2667845039007
 20
311.2399336991321
 30
0.0
 40
12.0
  1
ＤＲ－２５Ｓ４５０－Ｎ
 41
0.4999999999999989
100
AcDbText
  0
TEXT
  5
C2
330
1F
100
AcDbEntity
  8
8
  6
Continuous
 62
   171
370
     9
100
AcDbText
 10
828.2667845039007
 20
291.239933699132
 30
0.0
 40
12.0
  1
ＤＲ－２５Ｓ４５０－Ｂ
 41
0.4999999999999989
100
AcDbText
  0
TEXT
  5
C3
330
1F
100
AcDbEntity
  8
8
  6
Continuous
 62
   171
370
     9
100
AcDbText
 10
828.2667845039007
 20
271.2399336991319
 30
0.0
 40
12.0
  1
ＤＲ－２５Ｓ４５０－Ｄ
 41
0.4999999999999989
100
AcDbText
  0
TEXT
  5
C4
330
1F
100
AcDbEntity
  8
8
  6
Continuous
 62
   171
370
     9
100
AcDbText
 10
828.2667845039007
 20
251.2399336991319
 30
0.0
 40
12.0
  1
ＤＲ－２５Ｓ４５０－Ｓ
 41
0.4999999999999989
100
AcDbText
  0
TEXT
  5
C5
330
1F
100
AcDbEntity
  8
8
  6
Continuous
 62
   171
370
     9
100
AcDbText
 10
930.3088585779749
 20
311.2399336991322
 30
0.0
 40
12.0
  1
ナチュラル
 41
0.5
100
AcDbText
  0
TEXT
  5
C6
330
1F
100
AcDbEntity
  8
8
  6
Continuous
 62
   171
370
     9
100
AcDbText
 10
937.5088585779749
 20
271.239933699132
 30
0.0
 40
12.0
  1
ダーク
 41
0.4999999999999979
100
AcDbText
  0
TEXT
  5
C7
330
1F
100
AcDbEntity
  8
8
  6
Continuous
 62
   171
370
     9
100
AcDbText
 10
933.9088585779748
 20
291.2399336991321
 30
0.0
 40
12.0
  1
ブラウン
 41
0.5000000000000032
100
AcDbText
  0
TEXT
  5
C8
330
1F
100
AcDbEntity
  8
8
  6
Continuous
 62
   171
370
     9
100
AcDbText
 10
933.9088585779748
 20
251.2399336991319
 30
0.0
 40
12.0
  1
ホワイト
 41
0.5000000000000032
100
AcDbText
  0
TEXT
  5
C9
330
1F
100
AcDbEntity
  8
8
  6
Continuous
 62
   171
370
     9
100
AcDbText
 10
772.3999999999999
 20
56.0
 30
0.0
 40
16.0
  1
色については品番表参照のこと
 41
0.5000000000000004
100
AcDbText
  0
TEXT
  5
CA
330
1F
100
AcDbEntity
  8
8
  6
Continuous
 62
   171
370
     9
100
AcDbText
 10
955.1999999999998
 20
94.0
 30
0.0
 40
16.0
  1
１：４
 41
0.5833333333333397
100
AcDbText
  0
LINE
  5
CB
330
1F
100
AcDbEntity
  8
1
  6
DASHDOT
 62
    45
370
     9
100
AcDbLine
 10
346.0510300350854
 20
221.2467476109618
 30
0.0
 11
369.4116500350854
 21
221.2467476109618
 31
0.0
  0
LINE
  5
CC
330
1F
100
AcDbEntity
  8
1
  6
HIDDEN
 62
    45
370
     9
100
AcDbLine
 10
366.0510300350853
 20
723.815212620024
 30
0.0
 11
366.0510300350853
 21
115.7752126200274
 31
0.0
  0
LINE
  5
CD
330
1F
100
AcDbEntity
  8
1
  6
HIDDEN
 62
    45
370
     9
100
AcDbLine
 10
406.0510300350853
 20
723.815212620024
 30
0.0
 11
406.0510300350853
 21
115.7752126200274
 31
0.0
  0
LINE
  5
CE
330
1F
100
AcDbEntity
  8
1
  6
Continuous
 62
    45
370
     9
100
AcDbLine
 10
351.5510300350853
 20
224.4459476109618
 30
0.0
 11
351.5510300350853
 21
218.0475476109617
 31
0.0
  0
LINE
  5
CF
330
1F
100
AcDbEntity
  8
1
  6
Continuous
 62
    45
370
     9
100
AcDbLine
 10
423.5510300350853
 20
217.2477476109616
 30
0.0
 11
352.3508300350853
 21
217.2477476109617
 31
0.0
  0
LINE
  5
D0
330
1F
100
AcDbEntity
  8
1
  6
Continuous
 62
    45
370
     9
100
AcDbLine
 10
352.3508300350853
 20
225.2457476109618
 30
0.0
 11
423.5510300350853
 21
225.2457476109616
 31
0.0
  0
LINE
  5
D1
330
1F
100
AcDbEntity
  8
1
  6
Continuous
 62
    45
370
     9
100
AcDbLine
 10
423.5510300350853
 20
218.0475476109616
 30
0.0
 11
351.5510300350853
 21
218.0475476109617
 31
0.0
  0
LINE
  5
D2
330
1F
100
AcDbEntity
  8
1
  6
Continuous
 62
    45
370
     9
100
AcDbLine
 10
423.5510300350853
 20
224.4459476109616
 30
0.0
 11
351.5510300350853
 21
224.4459476109618
 31
0.0
  0
LINE
  5
D3
330
1F
100
AcDbEntity
  8
1
  6
Continuous
 62
    45
370
     9
100
AcDbLine
 10
351.5510300350853
 20
218.0475476109617
 30
0.0
 11
352.3508300350853
 21
217.2477476109617
 31
0.0
  0
LINE
  5
D4
330
1F
100
AcDbEntity
  8
1
  6
Continuous
 62
    45
370
     9
100
AcDbLine
 10
351.5510300350853
 20
224.4459476109618
 30
0.0
 11
352.3508300350853
 21
225.2457476109618
 31
0.0
  0
LINE
  5
D5
330
1F
100
AcDbEntity
  8
1
  6
Continuous
 62
    45
370
     9
100
AcDbLine
 10
352.3508300350853
 20
225.2457476109618
 30
0.0
 11
352.3508300350853
 21
217.2477476109617
 31
0.0
  0
ARC
  5
D6
330
1F
100
AcDbEntity
  8
1
  6
DASHDOT
 62
    45
370
     9
100
AcDbCircle
 10
428.5510300350854
 20
258.7467476109616
 30
0.0
 40
37.5
100
AcDbArc
 50
269.9999999999995
 51
359.9999999999995
  0
LINE
  5
D7
330
1F
100
AcDbEntity
  8
1
  6
DASHDOT
 62
    45
370
     9
100
AcDbLine
 10
466.0510300350857
 20
433.7467476109615
 30
0.0
 11
466.0510300350854
 21
258.7467476109615
 31
0.0
  0
LINE
  5
D8
330
1F
100
AcDbEntity
  8
1
  6
DASHDOT
 62
    45
370
     9
100
AcDbLine
 10
466.0510300350857
 20
433.7467476109615
 30
0.0
 11
466.051030035086
 21
608.7467476109615
 31
0.0
  0
ARC
  5
D9
330
1F
100
AcDbEntity
  8
1
  6
DASHDOT
 62
    45
370
     9
100
AcDbCircle
 10
428.551030035086
 20
608.7467476109616
 30
0.0
 40
37.5
100
AcDbArc
 50
359.9999999999995
 51
89.99999999999991
  0
LINE
  5
DA
330
1F
100
AcDbEntity
  8
1
  6
Continuous
 62
    45
370
     9
100
AcDbLine
 10
416.5510300350853
 20
226.2467476109616
 30
0.0
 11
420.5510300350853
 21
226.2467476109616
 31
0.0
  0
LINE
  5
DB
330
1F
100
AcDbEntity
  8
1
  6
Continuous
 62
    45
370
     9
100
AcDbLine
 10
408.5510300350853
 20
214.2467476109616
 30
0.0
 11
416.5510300350853
 21
214.2467476109616
 31
0.0
  0
LINE
  5
DC
330
1F
100
AcDbEntity
  8
1
  6
Continuous
 62
    45
370
     9
100
AcDbLine
 10
420.5510300350853
 20
214.2467476109616
 30
0.0
 11
423.5510300350853
 21
214.2467476109616
 31
0.0
  0
LINE
  5
DD
330
1F
100
AcDbEntity
  8
1
  6
Continuous
 62
    45
370
     9
100
AcDbLine
 10
408.5510300350853
 20
228.2467476109616
 30
0.0
 11
416.5510300350853
 21
228.2467476109616
 31
0.0
  0
LINE
  5
DE
330
1F
100
AcDbEntity
  8
1
  6
Continuous
 62
    45
370
     9
100
AcDbLine
 10
420.5510300350853
 20
228.2467476109616
 30
0.0
 11
423.5510300350853
 21
228.2467476109616
 31
0.0
  0
LINE
  5
DF
330
1F
100
AcDbEntity
  8
1
  6
Continuous
 62
    45
370
     9
100
AcDbLine
 10
428.5510300350853
 20
230.2467476109616
 30
0.0
 11
428.5510300350853
 21
212.2467476109616
 31
0.0
  0
LINE
  5
E0
330
1F
100
AcDbEntity
  8
1
  6
Continuous
 62
    45
370
     9
100
AcDbLine
 10
428.5510300350853
 20
213.7467476109616
 30
0.0
 11
408.5510300350853
 21
213.7467476109616
 31
0.0
  0
LINE
  5
E1
330
1F
100
AcDbEntity
  8
1
  6
Continuous
 62
    45
370
     9
100
AcDbLine
 10
422.5510300350853
 20
212.8467476109618
 30
0.0
 11
422.5510300350853
 21
212.2467476109616
 31
0.0
  0
LINE
  5
E2
330
1F
100
AcDbEntity
  8
1
  6
Continuous
 62
    45
370
     9
100
AcDbLine
 10
428.5510300350853
 20
212.2467476109616
 30
0.0
 11
424.5510300350853
 21
212.2467476109616
 31
0.0
  0
LINE
  5
E3
330
1F
100
AcDbEntity
  8
1
  6
Continuous
 62
    45
370
     9
100
AcDbLine
 10
424.5510300350853
 20
212.8467476109618
 30
0.0
 11
424.5510300350853
 21
212.2467476109616
 31
0.0
  0
LINE
  5
E4
330
1F
100
AcDbEntity
  8
1
  6
Continuous
 62
    45
370
     9
100
AcDbLine
 10
424.5510300350853
 20
212.8467476109618
 30
0.0
 11
422.5510300350853
 21
212.8467476109618
 31
0.0
  0
LINE
  5
E5
330
1F
100
AcDbEntity
  8
1
  6
Continuous
 62
    45
370
     9
100
AcDbLine
 10
414.5510300350853
 20
212.8467476109618
 30
0.0
 11
412.5510300350853
 21
212.8467476109618
 31
0.0
  0
LINE
  5
E6
330
1F
100
AcDbEntity
  8
1
  6
Continuous
 62
    45
370
     9
100
AcDbLine
 10
422.5510300350853
 20
212.2467476109616
 30
0.0
 11
414.5510300350853
 21
212.2467476109616
 31
0.0
  0
LINE
  5
E7
330
1F
100
AcDbEntity
  8
1
  6
Continuous
 62
    45
370
     9
100
AcDbLine
 10
412.5510300350853
 20
212.8467476109618
 30
0.0
 11
412.5510300350853
 21
212.2467476109616
 31
0.0
  0
LINE
  5
E8
330
1F
100
AcDbEntity
  8
1
  6
Continuous
 62
    45
370
     9
100
AcDbLine
 10
412.5510300350853
 20
212.2467476109616
 30
0.0
 11
408.5510300350853
 21
212.2467476109616
 31
0.0
  0
LINE
  5
E9
330
1F
100
AcDbEntity
  8
1
  6
Continuous
 62
    45
370
     9
100
AcDbLine
 10
414.5510300350853
 20
212.8467476109618
 30
0.0
 11
414.5510300350853
 21
212.2467476109616
 31
0.0
  0
LINE
  5
EA
330
1F
100
AcDbEntity
  8
1
  6
Continuous
 62
    45
370
     9
100
AcDbLine
 10
412.5510300350853
 20
230.2467476109616
 30
0.0
 11
412.5510300350853
 21
229.6467476109617
 31
0.0
  0
LINE
  5
EB
330
1F
100
AcDbEntity
  8
1
  6
Continuous
 62
    45
370
     9
100
AcDbLine
 10
414.5510300350853
 20
230.2467476109616
 30
0.0
 11
414.5510300350853
 21
229.6467476109617
 31
0.0
  0
LINE
  5
EC
330
1F
100
AcDbEntity
  8
1
  6
Continuous
 62
    45
370
     9
100
AcDbLine
 10
414.5510300350853
 20
229.6467476109617
 30
0.0
 11
412.5510300350853
 21
229.6467476109617
 31
0.0
  0
LINE
  5
ED
330
1F
100
AcDbEntity
  8
1
  6
Continuous
 62
    45
370
     9
100
AcDbLine
 10
412.5510300350853
 20
230.2467476109616
 30
0.0
 11
408.5510300350853
 21
230.2467476109616
 31
0.0
  0
LINE
  5
EE
330
1F
100
AcDbEntity
  8
1
  6
Continuous
 62
    45
370
     9
100
AcDbLine
 10
422.5510300350853
 20
230.2467476109616
 30
0.0
 11
414.5510300350853
 21
230.2467476109616
 31
0.0
  0
LINE
  5
EF
330
1F
100
AcDbEntity
  8
1
  6
Continuous
 62
    45
370
     9
100
AcDbLine
 10
422.5510300350853
 20
230.2467476109616
 30
0.0
 11
422.5510300350853
 21
229.6467476109617
 31
0.0
  0
LINE
  5
F0
330
1F
100
AcDbEntity
  8
1
  6
Continuous
 62
    45
370
     9
100
AcDbLine
 10
424.5510300350853
 20
230.2467476109616
 30
0.0
 11
424.5510300350853
 21
229.6467476109617
 31
0.0
  0
LINE
  5
F1
330
1F
100
AcDbEntity
  8
1
  6
Continuous
 62
    45
370
     9
100
AcDbLine
 10
428.5510300350853
 20
230.2467476109616
 30
0.0
 11
424.5510300350853
 21
230.2467476109616
 31
0.0
  0
LINE
  5
F2
330
1F
100
AcDbEntity
  8
1
  6
Continuous
 62
    45
370
     9
100
AcDbLine
 10
428.5510300350853
 20
228.7467476109616
 30
0.0
 11
408.5510300350853
 21
228.7467476109616
 31
0.0
  0
LINE
  5
F3
330
1F
100
AcDbEntity
  8
1
  6
Continuous
 62
    45
370
     9
100
AcDbLine
 10
420.5510300350853
 20
228.2467476109616
 30
0.0
 11
420.5510300350853
 21
226.2467476109616
 31
0.0
  0
LINE
  5
F4
330
1F
100
AcDbEntity
  8
1
  6
HIDDEN
 62
    45
370
     9
100
AcDbLine
 10
428.5510300350853
 20
225.4967476109616
 30
0.0
 11
428.5510300350853
 21
225.9967476109616
 31
0.0
  0
LINE
  5
F5
330
1F
100
AcDbEntity
  8
1
  6
HIDDEN
 62
    45
370
     9
100
AcDbLine
 10
428.5510300350853
 20
216.9967476109616
 30
0.0
 11
428.5510300350853
 21
216.4967476109616
 31
0.0
  0
CIRCLE
  5
F6
330
1F
100
AcDbEntity
  8
1
  6
HIDDEN
 62
    45
370
     9
100
AcDbCircle
 10
418.5510300350853
 20
221.2467476109616
 30
0.0
 40
2.0
  0
LINE
  5
F7
330
1F
100
AcDbEntity
  8
1
  6
Continuous
 62
    45
370
     9
100
AcDbLine
 10
423.5510300350853
 20
228.2467476109616
 30
0.0
 11
423.5510300350853
 21
214.2467476109616
 31
0.0
  0
LINE
  5
F8
330
1F
100
AcDbEntity
  8
1
  6
Continuous
 62
    45
370
     9
100
AcDbLine
 10
428.5510300350853
 20
212.4333316109617
 30
0.0
 11
428.3644480350853
 21
212.2467476109616
 31
0.0
  0
LINE
  5
F9
330
1F
100
AcDbEntity
  8
1
  6
Continuous
 62
    45
370
     9
100
AcDbLine
 10
428.4502340350853
 20
213.7467476109616
 30
0.0
 11
426.9502340350853
 21
212.2467476109616
 31
0.0
  0
LINE
  5
FA
330
1F
100
AcDbEntity
  8
1
  6
Continuous
 62
    45
370
     9
100
AcDbLine
 10
427.0360200350854
 20
213.7467476109616
 30
0.0
 11
425.5360200350854
 21
212.2467476109616
 31
0.0
  0
LINE
  5
FB
330
1F
100
AcDbEntity
  8
1
  6
Continuous
 62
    45
370
     9
100
AcDbLine
 10
425.6218080350853
 20
213.7467476109616
 30
0.0
 11
424.5510300350853
 21
212.6759716109616
 31
0.0
  0
LINE
  5
FC
330
1F
100
AcDbEntity
  8
1
  6
Continuous
 62
    45
370
     9
100
AcDbLine
 10
424.2075940350853
 20
213.7467476109616
 30
0.0
 11
423.3075940350853
 21
212.8467476109618
 31
0.0
  0
LINE
  5
FD
330
1F
100
AcDbEntity
  8
1
  6
Continuous
 62
    45
370
     9
100
AcDbLine
 10
422.7933800350853
 20
213.7467476109616
 30
0.0
 11
421.2933800350853
 21
212.2467476109616
 31
0.0
  0
LINE
  5
FE
330
1F
100
AcDbEntity
  8
1
  6
Continuous
 62
    45
370
     9
100
AcDbLine
 10
421.3791660350853
 20
213.7467476109616
 30
0.0
 11
419.8791660350853
 21
212.2467476109616
 31
0.0
  0
LINE
  5
FF
330
1F
100
AcDbEntity
  8
1
  6
Continuous
 62
    45
370
     9
100
AcDbLine
 10
419.9649520350853
 20
213.7467476109616
 30
0.0
 11
418.4649520350853
 21
212.2467476109616
 31
0.0
  0
LINE
  5
100
330
1F
100
AcDbEntity
  8
1
  6
Continuous
 62
    45
370
     9
100
AcDbLine
 10
418.5507400350853
 20
213.7467476109616
 30
0.0
 11
417.0507400350853
 21
212.2467476109616
 31
0.0
  0
LINE
  5
101
330
1F
100
AcDbEntity
  8
1
  6
Continuous
 62
    45
370
     9
100
AcDbLine
 10
417.1365260350854
 20
213.7467476109616
 30
0.0
 11
415.6365260350854
 21
212.2467476109616
 31
0.0
  0
LINE
  5
102
330
1F
100
AcDbEntity
  8
1
  6
Continuous
 62
    45
370
     9
100
AcDbLine
 10
415.7223120350853
 20
213.7467476109616
 30
0.0
 11
414.5510300350853
 21
212.5754656109616
 31
0.0
  0
LINE
  5
103
330
1F
100
AcDbEntity
  8
1
  6
Continuous
 62
    45
370
     9
100
AcDbLine
 10
414.3080980350853
 20
213.7467476109616
 30
0.0
 11
413.4080980350853
 21
212.8467476109618
 31
0.0
  0
LINE
  5
104
330
1F
100
AcDbEntity
  8
1
  6
Continuous
 62
    45
370
     9
100
AcDbLine
 10
412.8938860350853
 20
213.7467476109616
 30
0.0
 11
411.3938860350853
 21
212.2467476109616
 31
0.0
  0
LINE
  5
105
330
1F
100
AcDbEntity
  8
1
  6
Continuous
 62
    45
370
     9
100
AcDbLine
 10
411.4796720350853
 20
213.7467476109616
 30
0.0
 11
409.9796720350853
 21
212.2467476109616
 31
0.0
  0
LINE
  5
106
330
1F
100
AcDbEntity
  8
1
  6
Continuous
 62
    45
370
     9
100
AcDbLine
 10
410.0654580350853
 20
213.7467476109616
 30
0.0
 11
408.5654580350853
 21
212.2467476109616
 31
0.0
  0
LINE
  5
107
330
1F
100
AcDbEntity
  8
1
  6
Continuous
 62
    45
370
     9
100
AcDbLine
 10
408.6512440350853
 20
213.7467476109616
 30
0.0
 11
408.5510300350853
 21
213.6465336109616
 31
0.0
  0
LINE
  5
108
330
1F
100
AcDbEntity
  8
1
  6
Continuous
 62
    45
370
     9
100
AcDbLine
 10
428.5510300350853
 20
229.4038936109616
 30
0.0
 11
427.8938860350854
 21
228.7467476109616
 31
0.0
  0
LINE
  5
109
330
1F
100
AcDbEntity
  8
1
  6
Continuous
 62
    45
370
     9
100
AcDbLine
 10
427.9796720350853
 20
230.2467476109616
 30
0.0
 11
426.4796720350853
 21
228.7467476109616
 31
0.0
  0
LINE
  5
10A
330
1F
100
AcDbEntity
  8
1
  6
Continuous
 62
    45
370
     9
100
AcDbLine
 10
426.5654580350853
 20
230.2467476109616
 30
0.0
 11
425.0654580350853
 21
228.7467476109616
 31
0.0
  0
LINE
  5
10B
330
1F
100
AcDbEntity
  8
1
  6
Continuous
 62
    45
370
     9
100
AcDbLine
 10
425.1512440350853
 20
230.2467476109616
 30
0.0
 11
423.6512440350853
 21
228.7467476109616
 31
0.0
  0
LINE
  5
10C
330
1F
100
AcDbEntity
  8
1
  6
Continuous
 62
    45
370
     9
100
AcDbLine
 10
423.1370300350853
 20
229.6467476109617
 30
0.0
 11
422.2370300350854
 21
228.7467476109616
 31
0.0
  0
LINE
  5
10D
330
1F
100
AcDbEntity
  8
1
  6
Continuous
 62
    45
370
     9
100
AcDbLine
 10
422.3228180350853
 20
230.2467476109616
 30
0.0
 11
420.8228180350853
 21
228.7467476109616
 31
0.0
  0
LINE
  5
10E
330
1F
100
AcDbEntity
  8
1
  6
Continuous
 62
    45
370
     9
100
AcDbLine
 10
420.9086040350853
 20
230.2467476109616
 30
0.0
 11
419.4086040350853
 21
228.7467476109616
 31
0.0
  0
LINE
  5
10F
330
1F
100
AcDbEntity
  8
1
  6
Continuous
 62
    45
370
     9
100
AcDbLine
 10
419.4943900350854
 20
230.2467476109616
 30
0.0
 11
417.9943900350854
 21
228.7467476109616
 31
0.0
  0
LINE
  5
110
330
1F
100
AcDbEntity
  8
1
  6
Continuous
 62
    45
370
     9
100
AcDbLine
 10
418.0801760350853
 20
230.2467476109616
 30
0.0
 11
416.5801760350853
 21
228.7467476109616
 31
0.0
  0
LINE
  5
111
330
1F
100
AcDbEntity
  8
1
  6
Continuous
 62
    45
370
     9
100
AcDbLine
 10
416.6659640350853
 20
230.2467476109616
 30
0.0
 11
415.1659640350853
 21
228.7467476109616
 31
0.0
  0
LINE
  5
112
330
1F
100
AcDbEntity
  8
1
  6
Continuous
 62
    45
370
     9
100
AcDbLine
 10
415.2517500350853
 20
230.2467476109616
 30
0.0
 11
413.7517500350853
 21
228.7467476109616
 31
0.0
  0
LINE
  5
113
330
1F
100
AcDbEntity
  8
1
  6
Continuous
 62
    45
370
     9
100
AcDbLine
 10
413.2375360350853
 20
229.6467476109617
 30
0.0
 11
412.3375360350853
 21
228.7467476109616
 31
0.0
  0
LINE
  5
114
330
1F
100
AcDbEntity
  8
1
  6
Continuous
 62
    45
370
     9
100
AcDbLine
 10
412.4233220350853
 20
230.2467476109616
 30
0.0
 11
410.9233220350853
 21
228.7467476109616
 31
0.0
  0
LINE
  5
115
330
1F
100
AcDbEntity
  8
1
  6
Continuous
 62
    45
370
     9
100
AcDbLine
 10
411.0091080350853
 20
230.2467476109616
 30
0.0
 11
409.5091080350853
 21
228.7467476109616
 31
0.0
  0
LINE
  5
116
330
1F
100
AcDbEntity
  8
1
  6
Continuous
 62
    45
370
     9
100
AcDbLine
 10
409.5948960350854
 20
230.2467476109616
 30
0.0
 11
408.5510300350853
 21
229.2028836109616
 31
0.0
  0
LINE
  5
117
330
1F
100
AcDbEntity
  8
1
  6
Continuous
 62
    45
370
     9
100
AcDbLine
 10
424.5510300350853
 20
229.6467476109617
 30
0.0
 11
422.5510300350853
 21
229.6467476109617
 31
0.0
  0
ARC
  5
118
330
1F
100
AcDbEntity
  8
1
  6
Continuous
 62
    45
370
     9
100
AcDbCircle
 10
426.0510300350853
 20
225.4967476109616
 30
0.0
 40
2.5
100
AcDbArc
 50
0.0
 51
89.99999999999991
  0
LINE
  5
119
330
1F
100
AcDbEntity
  8
1
  6
Continuous
 62
    45
370
     9
100
AcDbLine
 10
426.0510300350853
 20
227.9967476109616
 30
0.0
 11
423.5510300350853
 21
227.9967476109616
 31
0.0
  0
LINE
  5
11A
330
1F
100
AcDbEntity
  8
1
  6
Continuous
 62
    45
370
     9
100
AcDbLine
 10
426.0510300350853
 20
214.4967476109616
 30
0.0
 11
423.5510300350853
 21
214.4967476109616
 31
0.0
  0
ARC
  5
11B
330
1F
100
AcDbEntity
  8
1
  6
Continuous
 62
    45
370
     9
100
AcDbCircle
 10
426.0510300350853
 20
216.9967476109616
 30
0.0
 40
2.5
100
AcDbArc
 50
269.9999999999998
 51
0.0
  0
POLYLINE
  5
11C
330
1F
100
AcDbEntity
  8
1
  6
Continuous
 62
    45
370
     9
100
AcDb2dPolyline
 66
     1
 10
0.0
 20
0.0
 30
0.0
  0
VERTEX
  5
11E
330
11C
100
AcDbEntity
  8
1
  6
Continuous
 62
    45
370
     9
100
AcDbVertex
100
AcDb2dVertex
 10
441.8726920350853
 20
237.5918656109616
 30
0.0
  0
VERTEX
  5
11F
330
11C
100
AcDbEntity
  8
1
  6
Continuous
 62
    45
370
     9
100
AcDbVertex
100
AcDb2dVertex
 10
442.0980340350853
 20
231.6779416109616
 30
0.0
  0
VERTEX
  5
120
330
11C
100
AcDbEntity
  8
1
  6
Continuous
 62
    45
370
     9
100
AcDbVertex
100
AcDb2dVertex
 10
444.4733920350853
 20
227.7634076109616
 30
0.0
  0
VERTEX
  5
121
330
11C
100
AcDbEntity
  8
1
  6
Continuous
 62
    45
370
     9
100
AcDbVertex
100
AcDb2dVertex
 10
449.8210280350853
 20
226.4336516109618
 30
0.0
  0
VERTEX
  5
122
330
11C
100
AcDbEntity
  8
1
  6
Continuous
 62
    45
370
     9
100
AcDbVertex
100
AcDb2dVertex
 10
455.0006860350853
 20
224.9782336109618
 30
0.0
  0
VERTEX
  5
123
330
11C
100
AcDbEntity
  8
1
  6
Continuous
 62
    45
370
     9
100
AcDbVertex
100
AcDb2dVertex
 10
456.7540760350853
 20
221.9899356109618
 30
0.0
  0
VERTEX
  5
124
330
11C
100
AcDbEntity
  8
1
  6
Continuous
 62
    45
370
     9
100
AcDbVertex
100
AcDb2dVertex
 10
457.0361480350853
 20
217.6546316109616
 30
0.0
  0
SEQEND
  5
11D
330
11C
100
AcDbEntity
  8
1
  6
Continuous
370
     9
  0
LINE
  5
125
330
1F
100
AcDbEntity
  8
1
  6
Continuous
 62
    45
370
     9
100
AcDbLine
 10
416.5510300350853
 20
228.2467476109616
 30
0.0
 11
416.5510300350853
 21
226.2467476109616
 31
0.0
  0
LINE
  5
126
330
1F
100
AcDbEntity
  8
1
  6
Continuous
 62
    45
370
     9
100
AcDbLine
 10
416.5510300350853
 20
216.2467476109616
 30
0.0
 11
420.5510300350853
 21
216.2467476109616
 31
0.0
  0
LINE
  5
127
330
1F
100
AcDbEntity
  8
1
  6
Continuous
 62
    45
370
     9
100
AcDbLine
 10
420.5510300350853
 20
214.2467476109616
 30
0.0
 11
420.5510300350853
 21
216.2467476109616
 31
0.0
  0
LINE
  5
128
330
1F
100
AcDbEntity
  8
1
  6
Continuous
 62
    45
370
     9
100
AcDbLine
 10
416.5510300350853
 20
214.2467476109616
 30
0.0
 11
416.5510300350853
 21
216.2467476109616
 31
0.0
  0
LINE
  5
129
330
1F
100
AcDbEntity
  8
1
  6
Continuous
 62
    45
370
     9
100
AcDbLine
 10
423.5510300350853
 20
215.1178496109617
 30
0.0
 11
422.6799300350854
 21
214.2467476109616
 31
0.0
  0
LINE
  5
12A
330
1F
100
AcDbEntity
  8
1
  6
Continuous
 62
    45
370
     9
100
AcDbLine
 10
423.5510300350853
 20
216.5320636109616
 30
0.0
 11
421.2657160350853
 21
214.2467476109616
 31
0.0
  0
LINE
  5
12B
330
1F
100
AcDbEntity
  8
1
  6
Continuous
 62
    45
370
     9
100
AcDbLine
 10
422.8525020350853
 20
217.2477476109616
 30
0.0
 11
420.5510300350853
 21
214.9462756109617
 31
0.0
  0
LINE
  5
12C
330
1F
100
AcDbEntity
  8
1
  6
Continuous
 62
    45
370
     9
100
AcDbLine
 10
421.4382880350853
 20
217.2477476109616
 30
0.0
 11
420.4372880350853
 21
216.2467476109616
 31
0.0
  0
LINE
  5
12D
330
1F
100
AcDbEntity
  8
1
  6
Continuous
 62
    45
370
     9
100
AcDbLine
 10
420.0240760350853
 20
217.2477476109616
 30
0.0
 11
419.0230760350853
 21
216.2467476109616
 31
0.0
  0
LINE
  5
12E
330
1F
100
AcDbEntity
  8
1
  6
Continuous
 62
    45
370
     9
100
AcDbLine
 10
418.6098620350853
 20
217.2477476109616
 30
0.0
 11
417.6088620350853
 21
216.2467476109616
 31
0.0
  0
LINE
  5
12F
330
1F
100
AcDbEntity
  8
1
  6
Continuous
 62
    45
370
     9
100
AcDbLine
 10
416.5510300350853
 20
215.1889176109617
 30
0.0
 11
415.6088620350853
 21
214.2467476109616
 31
0.0
  0
LINE
  5
130
330
1F
100
AcDbEntity
  8
1
  6
Continuous
 62
    45
370
     9
100
AcDbLine
 10
417.1956480350854
 20
217.2477476109616
 30
0.0
 11
414.1946480350853
 21
214.2467476109616
 31
0.0
  0
LINE
  5
131
330
1F
100
AcDbEntity
  8
1
  6
Continuous
 62
    45
370
     9
100
AcDbLine
 10
415.7814340350853
 20
217.2477476109616
 30
0.0
 11
412.7804340350854
 21
214.2467476109616
 31
0.0
  0
LINE
  5
132
330
1F
100
AcDbEntity
  8
1
  6
Continuous
 62
    45
370
     9
100
AcDbLine
 10
414.3672200350853
 20
217.2477476109616
 30
0.0
 11
411.3662200350853
 21
214.2467476109616
 31
0.0
  0
LINE
  5
133
330
1F
100
AcDbEntity
  8
1
  6
Continuous
 62
    45
370
     9
100
AcDbLine
 10
412.9530080350853
 20
217.2477476109616
 30
0.0
 11
409.9520080350853
 21
214.2467476109616
 31
0.0
  0
LINE
  5
134
330
1F
100
AcDbEntity
  8
1
  6
Continuous
 62
    45
370
     9
100
AcDbLine
 10
411.5387940350853
 20
217.2477476109616
 30
0.0
 11
408.5510300350853
 21
214.2599856109616
 31
0.0
  0
LINE
  5
135
330
1F
100
AcDbEntity
  8
1
  6
Continuous
 62
    45
370
     9
100
AcDbLine
 10
410.1245800350853
 20
217.2477476109616
 30
0.0
 11
408.5510300350853
 21
215.6741976109618
 31
0.0
  0
LINE
  5
136
330
1F
100
AcDbEntity
  8
1
  6
Continuous
 62
    45
370
     9
100
AcDbLine
 10
408.7103660350853
 20
217.2477476109616
 30
0.0
 11
408.5510300350853
 21
217.0884116109617
 31
0.0
  0
LINE
  5
137
330
1F
100
AcDbEntity
  8
1
  6
Continuous
 62
    45
370
     9
100
AcDbLine
 10
423.5510300350853
 20
226.4315576109616
 30
0.0
 11
422.3652200350853
 21
225.2457476109616
 31
0.0
  0
LINE
  5
138
330
1F
100
AcDbEntity
  8
1
  6
Continuous
 62
    45
370
     9
100
AcDbLine
 10
423.5510300350853
 20
227.8457716109617
 30
0.0
 11
420.9510080350854
 21
225.2457476109616
 31
0.0
  0
LINE
  5
139
330
1F
100
AcDbEntity
  8
1
  6
Continuous
 62
    45
370
     9
100
AcDbLine
 10
422.5377940350853
 20
228.2467476109616
 30
0.0
 11
420.5510300350853
 21
226.2599856109616
 31
0.0
  0
LINE
  5
13A
330
1F
100
AcDbEntity
  8
1
  6
Continuous
 62
    45
370
     9
100
AcDbLine
 10
420.5377940350853
 20
226.2467476109616
 30
0.0
 11
419.5367940350853
 21
225.2457476109616
 31
0.0
  0
LINE
  5
13B
330
1F
100
AcDbEntity
  8
1
  6
Continuous
 62
    45
370
     9
100
AcDbLine
 10
421.1235800350854
 20
228.2467476109616
 30
0.0
 11
420.5510300350853
 21
227.6741976109618
 31
0.0
  0
LINE
  5
13C
330
1F
100
AcDbEntity
  8
1
  6
Continuous
 62
    45
370
     9
100
AcDbLine
 10
419.1235800350854
 20
226.2467476109616
 30
0.0
 11
418.1225800350853
 21
225.2457476109616
 31
0.0
  0
LINE
  5
13D
330
1F
100
AcDbEntity
  8
1
  6
Continuous
 62
    45
370
     9
100
AcDbLine
 10
417.7093660350853
 20
226.2467476109616
 30
0.0
 11
416.7083660350854
 21
225.2457476109616
 31
0.0
  0
LINE
  5
13E
330
1F
100
AcDbEntity
  8
1
  6
Continuous
 62
    45
370
     9
100
AcDbLine
 10
416.5510300350853
 20
226.5026256109616
 30
0.0
 11
415.2941540350853
 21
225.2457476109616
 31
0.0
  0
LINE
  5
13F
330
1F
100
AcDbEntity
  8
1
  6
Continuous
 62
    45
370
     9
100
AcDbLine
 10
416.5510300350853
 20
227.9168396109617
 30
0.0
 11
413.8799400350853
 21
225.2457476109616
 31
0.0
  0
LINE
  5
140
330
1F
100
AcDbEntity
  8
1
  6
Continuous
 62
    45
370
     9
100
AcDbLine
 10
415.4667260350853
 20
228.2467476109616
 30
0.0
 11
412.4657260350853
 21
225.2457476109616
 31
0.0
  0
LINE
  5
141
330
1F
100
AcDbEntity
  8
1
  6
Continuous
 62
    45
370
     9
100
AcDbLine
 10
414.0525120350853
 20
228.2467476109616
 30
0.0
 11
411.0515120350854
 21
225.2457476109616
 31
0.0
  0
LINE
  5
142
330
1F
100
AcDbEntity
  8
1
  6
Continuous
 62
    45
370
     9
100
AcDbLine
 10
412.6382980350853
 20
228.2467476109616
 30
0.0
 11
409.6372980350853
 21
225.2457476109616
 31
0.0
  0
LINE
  5
143
330
1F
100
AcDbEntity
  8
1
  6
Continuous
 62
    45
370
     9
100
AcDbLine
 10
411.2240860350853
 20
228.2467476109616
 30
0.0
 11
408.5510300350853
 21
225.5736936109618
 31
0.0
  0
LINE
  5
144
330
1F
100
AcDbEntity
  8
1
  6
Continuous
 62
    45
370
     9
100
AcDbLine
 10
409.8098720350853
 20
228.2467476109616
 30
0.0
 11
408.5510300350853
 21
226.9879076109617
 31
0.0
  0
LINE
  5
145
330
1F
100
AcDbEntity
  8
2
  6
Continuous
 62
    90
370
    30
100
AcDbLine
 10
408.5510300350853
 20
217.2477476109616
 30
0.0
 11
408.5510300350853
 21
208.7467476109616
 31
0.0
  0
LINE
  5
146
330
1F
100
AcDbEntity
  8
2
  6
Continuous
 62
    90
370
    30
100
AcDbLine
 10
408.5510300350853
 20
233.7467476109616
 30
0.0
 11
408.5510300350853
 21
225.2457476109616
 31
0.0
  0
LINE
  5
147
330
1F
100
AcDbEntity
  8
2
  6
Continuous
 62
    90
370
    30
100
AcDbLine
 10
408.5510300350853
 20
208.7467476109616
 30
0.0
 11
428.5510300350853
 21
208.7467476109616
 31
0.0
  0
LINE
  5
148
330
1F
100
AcDbEntity
  8
2
  6
Continuous
 62
    90
370
    30
100
AcDbLine
 10
408.5510300350853
 20
233.7467476109616
 30
0.0
 11
428.5510300350853
 21
233.7467476109616
 31
0.0
  0
ARC
  5
149
330
1F
100
AcDbEntity
  8
2
  6
Continuous
 62
    90
370
    30
100
AcDbCircle
 10
428.5510300350854
 20
258.7467476109616
 30
0.0
 40
25.0
100
AcDbArc
 50
269.9999999999995
 51
0.0
  0
ARC
  5
14A
330
1F
100
AcDbEntity
  8
2
  6
Continuous
 62
    90
370
    30
100
AcDbCircle
 10
428.5510300350854
 20
258.7467476109616
 30
0.0
 40
50.0
100
AcDbArc
 50
269.9999999999995
 51
359.9999999999995
  0
LINE
  5
14B
330
1F
100
AcDbEntity
  8
2
  6
Continuous
 62
    90
370
    30
100
AcDbLine
 10
408.551030035086
 20
633.7467476109616
 30
0.0
 11
408.5510300350861
 21
658.7467476109616
 31
0.0
  0
LINE
  5
14C
330
1F
100
AcDbEntity
  8
2
  6
Continuous
 62
    90
370
    30
100
AcDbLine
 10
408.551030035086
 20
633.7467476109616
 30
0.0
 11
428.551030035086
 21
633.7467476109616
 31
0.0
  0
LINE
  5
14D
330
1F
100
AcDbEntity
  8
2
  6
Continuous
 62
    90
370
    30
100
AcDbLine
 10
408.5510300350861
 20
658.7467476109616
 30
0.0
 11
428.5510300350861
 21
658.7467476109616
 31
0.0
  0
ARC
  5
14E
330
1F
100
AcDbEntity
  8
2
  6
Continuous
 62
    90
370
    30
100
AcDbCircle
 10
428.551030035086
 20
608.7467476109616
 30
0.0
 40
50.0
100
AcDbArc
 50
359.9999999999995
 51
89.99999999999994
  0
ARC
  5
14F
330
1F
100
AcDbEntity
  8
2
  6
Continuous
 62
    90
370
    30
100
AcDbCircle
 10
428.551030035086
 20
608.7467476109616
 30
0.0
 40
25.0
100
AcDbArc
 50
0.0
 51
89.99999999999991
  0
LINE
  5
150
330
1F
100
AcDbEntity
  8
2
  6
Continuous
 62
    90
370
    30
100
AcDbLine
 10
453.551030035086
 20
608.7467476109616
 30
0.0
 11
453.5510300350854
 21
258.7467476109616
 31
0.0
  0
LINE
  5
151
330
1F
100
AcDbEntity
  8
2
  6
Continuous
 62
    90
370
    30
100
AcDbLine
 10
478.551030035086
 20
608.7467476109615
 30
0.0
 11
478.5510300350854
 21
258.7467476109615
 31
0.0
  0
LINE
  5
152
330
1F
100
AcDbEntity
  8
1
  6
Continuous
 62
    45
370
     9
100
AcDbLine
 10
408.5510300350853
 20
661.2467476109616
 30
0.0
 11
406.0510300350853
 21
661.2467476109616
 31
0.0
  0
LINE
  5
153
330
1F
100
AcDbEntity
  8
1
  6
Continuous
 62
    45
370
     9
100
AcDbLine
 10
408.5510300350853
 20
631.2467476109616
 30
0.0
 11
406.0510300350853
 21
631.2467476109616
 31
0.0
  0
LINE
  5
154
330
1F
100
AcDbEntity
  8
1
  6
Continuous
 62
    45
370
     9
100
AcDbLine
 10
408.5510300350853
 20
661.2467476109616
 30
0.0
 11
408.5510300350853
 21
631.2467476109616
 31
0.0
  0
LINE
  5
155
330
1F
100
AcDbEntity
  8
1
  6
Continuous
 62
    45
370
     9
100
AcDbLine
 10
406.0510300350853
 20
661.2467476109616
 30
0.0
 11
406.0510300350853
 21
631.2467476109616
 31
0.0
  0
LINE
  5
156
330
1F
100
AcDbEntity
  8
1
  6
Continuous
 62
    45
370
     9
100
AcDbLine
 10
342.7613960350853
 20
215.487337610962
 30
0.0
 11
342.9447740350853
 21
214.6272916109619
 31
0.0
  0
LINE
  5
157
330
1F
100
AcDbEntity
  8
1
  6
Continuous
 62
    45
370
     9
100
AcDbLine
 10
342.9447740350853
 20
214.6272916109619
 30
0.0
 11
343.1876960350853
 21
215.4724496109618
 31
0.0
  0
LINE
  5
158
330
1F
100
AcDbEntity
  8
1
  6
Continuous
 62
    45
370
     9
100
AcDbLine
 10
345.9586480350853
 20
215.3756856109619
 30
0.0
 11
346.1420240350853
 21
214.5156416109619
 31
0.0
  0
LINE
  5
159
330
1F
100
AcDbEntity
  8
1
  6
Continuous
 62
    45
370
     9
100
AcDbLine
 10
346.1420240350853
 20
214.5156416109619
 30
0.0
 11
346.3849480350854
 21
215.360799610962
 31
0.0
  0
LINE
  5
15A
330
1F
100
AcDbEntity
  8
1
  6
Continuous
 62
    45
370
     9
100
AcDbLine
 10
349.1559000350853
 20
215.2640356109619
 30
0.0
 11
349.3392760350853
 21
214.4039916109618
 31
0.0
  0
LINE
  5
15B
330
1F
100
AcDbEntity
  8
1
  6
Continuous
 62
    45
370
     9
100
AcDbLine
 10
349.3392760350853
 20
214.4039916109618
 30
0.0
 11
349.5821980350853
 21
215.2491496109619
 31
0.0
  0
LINE
  5
15C
330
1F
100
AcDbEntity
  8
1
  6
Continuous
 62
    45
370
     9
100
AcDbLine
 10
352.3531500350854
 20
215.1523856109618
 30
0.0
 11
352.5365280350853
 21
214.2923416109618
 31
0.0
  0
LINE
  5
15D
330
1F
100
AcDbEntity
  8
1
  6
Continuous
 62
    45
370
     9
100
AcDbLine
 10
352.5365280350853
 20
214.2923416109618
 30
0.0
 11
352.7794500350853
 21
215.1374976109619
 31
0.0
  0
LINE
  5
15E
330
1F
100
AcDbEntity
  8
1
  6
Continuous
 62
    45
370
     9
100
AcDbLine
 10
355.5504020350853
 20
215.040733610962
 30
0.0
 11
355.7337780350853
 21
214.180689610962
 31
0.0
  0
LINE
  5
15F
330
1F
100
AcDbEntity
  8
1
  6
Continuous
 62
    45
370
     9
100
AcDbLine
 10
355.7337780350853
 20
214.180689610962
 30
0.0
 11
355.9767020350853
 21
215.0258476109618
 31
0.0
  0
LINE
  5
160
330
1F
100
AcDbEntity
  8
1
  6
Continuous
 62
    45
370
     9
100
AcDbLine
 10
358.7476540350854
 20
214.9290836109619
 30
0.0
 11
358.9310280350853
 21
214.0690396109619
 31
0.0
  0
LINE
  5
161
330
1F
100
AcDbEntity
  8
1
  6
Continuous
 62
    45
370
     9
100
AcDbLine
 10
358.9310280350853
 20
214.0690396109619
 30
0.0
 11
359.1739520350853
 21
214.914197610962
 31
0.0
  0
LINE
  5
162
330
1F
100
AcDbEntity
  8
1
  6
Continuous
 62
    45
370
     9
100
AcDbLine
 10
363.0178300350854
 20
214.8483476109618
 30
0.0
 11
337.4239060350853
 21
215.5559096109619
 31
0.0
  0
LINE
  5
163
330
1F
100
AcDbEntity
  8
1
  6
Continuous
 62
    45
370
     9
100
AcDbLine
 10
363.5510300350853
 20
213.7819476109619
 30
0.0
 11
363.0178300350854
 21
214.8483476109618
 31
0.0
  0
LINE
  5
164
330
1F
100
AcDbEntity
  8
1
  6
Continuous
 62
    45
370
     9
100
AcDbLine
 10
337.4239060350853
 20
215.5559096109619
 30
0.0
 11
336.8910320350853
 21
216.1273476109618
 31
0.0
  0
LINE
  5
165
330
1F
100
AcDbEntity
  8
1
  6
Continuous
 62
    45
370
     9
100
AcDbLine
 10
336.8910320350853
 20
216.1273476109618
 30
0.0
 11
336.8910320350853
 21
226.3857596109619
 31
0.0
  0
LINE
  5
166
330
1F
100
AcDbEntity
  8
1
  6
Continuous
 62
    45
370
     9
100
AcDbLine
 10
358.9310280350853
 20
214.0690396109619
 30
0.0
 11
357.3448040350854
 21
228.3751496109619
 31
0.0
  0
LINE
  5
167
330
1F
100
AcDbEntity
  8
1
  6
Continuous
 62
    45
370
     9
100
AcDbLine
 10
355.7337780350853
 20
214.180689610962
 30
0.0
 11
354.1468500350853
 21
228.2858216109619
 31
0.0
  0
LINE
  5
168
330
1F
100
AcDbEntity
  8
1
  6
Continuous
 62
    45
370
     9
100
AcDbLine
 10
352.5365280350853
 20
214.2923416109618
 30
0.0
 11
350.9488980350853
 21
228.1964956109618
 31
0.0
  0
LINE
  5
169
330
1F
100
AcDbEntity
  8
1
  6
Continuous
 62
    45
370
     9
100
AcDbLine
 10
349.3392760350853
 20
214.4039916109618
 30
0.0
 11
347.7509440350854
 21
228.1071676109618
 31
0.0
  0
LINE
  5
16A
330
1F
100
AcDbEntity
  8
1
  6
Continuous
 62
    45
370
     9
100
AcDbLine
 10
346.1420240350853
 20
214.5156416109619
 30
0.0
 11
344.5529920350854
 21
228.0178416109618
 31
0.0
  0
LINE
  5
16B
330
1F
100
AcDbEntity
  8
1
  6
Continuous
 62
    45
370
     9
100
AcDbLine
 10
342.9447740350853
 20
214.6272916109619
 30
0.0
 11
341.3550400350853
 21
227.928513610962
 31
0.0
  0
LINE
  5
16C
330
1F
100
AcDbEntity
  8
1
  6
Continuous
 62
    45
370
     9
100
AcDbLine
 10
363.2844300350853
 20
216.714541610962
 30
0.0
 11
336.8910320350853
 21
216.714541610962
 31
0.0
  0
LINE
  5
16D
330
1F
100
AcDbEntity
  8
1
  6
Continuous
 62
    45
370
     9
100
AcDbLine
 10
362.4846300350853
 20
217.514341610962
 30
0.0
 11
336.8910320350853
 21
217.514341610962
 31
0.0
  0
LINE
  5
16E
330
1F
100
AcDbEntity
  8
1
  6
Continuous
 62
    45
370
     9
100
AcDbLine
 10
362.4846300350853
 20
217.514341610962
 30
0.0
 11
363.5510300350853
 21
216.4479416109618
 31
0.0
  0
LINE
  5
16F
330
1F
100
AcDbEntity
  8
1
  6
Continuous
 62
    45
370
     9
100
AcDbLine
 10
341.1656620350853
 20
227.0697716109619
 30
0.0
 11
341.3550400350853
 21
227.928513610962
 31
0.0
  0
LINE
  5
170
330
1F
100
AcDbEntity
  8
1
  6
Continuous
 62
    45
370
     9
100
AcDbLine
 10
341.3550400350853
 20
227.928513610962
 30
0.0
 11
341.5920560350854
 21
227.0816816109618
 31
0.0
  0
LINE
  5
171
330
1F
100
AcDbEntity
  8
1
  6
Continuous
 62
    45
370
     9
100
AcDbLine
 10
344.3636160350853
 20
227.1590976109619
 30
0.0
 11
344.5529920350854
 21
228.0178416109618
 31
0.0
  0
LINE
  5
172
330
1F
100
AcDbEntity
  8
1
  6
Continuous
 62
    45
370
     9
100
AcDbLine
 10
344.5529920350854
 20
228.0178416109618
 30
0.0
 11
344.7900100350853
 21
227.1710096109618
 31
0.0
  0
LINE
  5
173
330
1F
100
AcDbEntity
  8
1
  6
Continuous
 62
    45
370
     9
100
AcDbLine
 10
347.5615680350854
 20
227.2484256109619
 30
0.0
 11
347.7509440350854
 21
228.1071676109618
 31
0.0
  0
LINE
  5
174
330
1F
100
AcDbEntity
  8
1
  6
Continuous
 62
    45
370
     9
100
AcDbLine
 10
347.7509440350854
 20
228.1071676109618
 30
0.0
 11
347.9879620350853
 21
227.2603356109619
 31
0.0
  0
LINE
  5
175
330
1F
100
AcDbEntity
  8
1
  6
Continuous
 62
    45
370
     9
100
AcDbLine
 10
350.7595200350854
 20
227.337751610962
 30
0.0
 11
350.9488980350853
 21
228.1964956109618
 31
0.0
  0
LINE
  5
176
330
1F
100
AcDbEntity
  8
1
  6
Continuous
 62
    45
370
     9
100
AcDbLine
 10
350.9488980350853
 20
228.1964956109618
 30
0.0
 11
351.1859140350854
 21
227.3496616109619
 31
0.0
  0
LINE
  5
177
330
1F
100
AcDbEntity
  8
1
  6
Continuous
 62
    45
370
     9
100
AcDbLine
 10
353.9574740350853
 20
227.427079610962
 30
0.0
 11
354.1468500350853
 21
228.2858216109619
 31
0.0
  0
LINE
  5
178
330
1F
100
AcDbEntity
  8
1
  6
Continuous
 62
    45
370
     9
100
AcDbLine
 10
354.1468500350853
 20
228.2858216109619
 30
0.0
 11
354.3838660350854
 21
227.4389896109619
 31
0.0
  0
LINE
  5
179
330
1F
100
AcDbEntity
  8
1
  6
Continuous
 62
    45
370
     9
100
AcDbLine
 10
357.1554260350853
 20
227.5164056109618
 30
0.0
 11
357.3448040350854
 21
228.3751496109619
 31
0.0
  0
LINE
  5
17A
330
1F
100
AcDbEntity
  8
1
  6
Continuous
 62
    45
370
     9
100
AcDbLine
 10
357.3448040350854
 20
228.3751496109619
 30
0.0
 11
357.5818200350853
 21
227.528315610962
 31
0.0
  0
LINE
  5
17B
330
1F
100
AcDbEntity
  8
1
  6
Continuous
 62
    45
370
     9
100
AcDbLine
 10
336.8910320350853
 20
226.3857596109619
 30
0.0
 11
337.4435240350854
 21
226.938253610962
 31
0.0
  0
LINE
  5
17C
330
1F
100
AcDbEntity
  8
1
  6
Continuous
 62
    45
370
     9
100
AcDbLine
 10
363.0178300350854
 20
227.6451316109619
 30
0.0
 11
337.4435240350854
 21
226.938253610962
 31
0.0
  0
LINE
  5
17D
330
1F
100
AcDbEntity
  8
1
  6
Continuous
 62
    45
370
     9
100
AcDbLine
 10
363.2844320350853
 20
225.7789476109619
 30
0.0
 11
336.8910320350853
 21
225.7789476109619
 31
0.0
  0
LINE
  5
17E
330
1F
100
AcDbEntity
  8
1
  6
Continuous
 62
    45
370
     9
100
AcDbLine
 10
362.4846320350853
 20
224.9791476109619
 30
0.0
 11
336.8910320350853
 21
224.9791476109619
 31
0.0
  0
LINE
  5
17F
330
1F
100
AcDbEntity
  8
1
  6
Continuous
 62
    45
370
     9
100
AcDbLine
 10
362.4846320350853
 20
224.9791476109619
 30
0.0
 11
363.5510320350854
 21
226.0455476109619
 31
0.0
  0
LINE
  5
180
330
1F
100
AcDbEntity
  8
1
  6
Continuous
 62
    45
370
     9
100
AcDbLine
 10
363.0178300350854
 20
227.6451316109619
 30
0.0
 11
363.5510300350854
 21
228.7115316109619
 31
0.0
  0
LINE
  5
181
330
1F
100
AcDbEntity
  8
1
  6
DASHDOT
 62
    45
370
     9
100
AcDbLine
 10
306.0510300350857
 20
433.7467476109618
 30
0.0
 11
306.0510300350854
 21
258.7467476109618
 31
0.0
  0
LINE
  5
182
330
1F
100
AcDbEntity
  8
1
  6
DASHDOT
 62
    45
370
     9
100
AcDbLine
 10
306.0510300350857
 20
433.7467476109618
 30
0.0
 11
306.0510300350861
 21
608.7467476109618
 31
0.0
  0
ARC
  5
183
330
1F
100
AcDbEntity
  8
1
  6
DASHDOT
 62
    45
370
     9
100
AcDbCircle
 10
343.5510300350861
 20
608.7467476109618
 30
0.0
 40
37.5
100
AcDbArc
 50
89.99999999999991
 51
179.9999999999998
  0
ARC
  5
184
330
1F
100
AcDbEntity
  8
1
  6
DASHDOT
 62
    45
370
     9
100
AcDbCircle
 10
343.5510300350854
 20
258.7467476109618
 30
0.0
 40
37.5
100
AcDbArc
 50
179.9999999999998
 51
269.9999999999995
  0
LINE
  5
185
330
1F
100
AcDbEntity
  8
2
  6
Continuous
 62
    90
370
    30
100
AcDbLine
 10
363.5510300350861
 20
658.7467476109618
 30
0.0
 11
343.5510300350861
 21
658.7467476109618
 31
0.0
  0
LINE
  5
186
330
1F
100
AcDbEntity
  8
2
  6
Continuous
 62
    90
370
    30
100
AcDbLine
 10
363.5510300350861
 20
633.7467476109618
 30
0.0
 11
343.5510300350861
 21
633.7467476109618
 31
0.0
  0
ARC
  5
187
330
1F
100
AcDbEntity
  8
2
  6
Continuous
 62
    90
370
    30
100
AcDbCircle
 10
343.5510300350861
 20
608.7467476109618
 30
0.0
 40
50.0
100
AcDbArc
 50
89.99999999999994
 51
179.9999999999998
  0
ARC
  5
188
330
1F
100
AcDbEntity
  8
2
  6
Continuous
 62
    90
370
    30
100
AcDbCircle
 10
343.5510300350861
 20
608.7467476109618
 30
0.0
 40
25.0
100
AcDbArc
 50
89.99999999999991
 51
179.9999999999998
  0
ARC
  5
189
330
1F
100
AcDbEntity
  8
2
  6
Continuous
 62
    90
370
    30
100
AcDbCircle
 10
343.5510300350854
 20
258.7467476109618
 30
0.0
 40
50.0
100
AcDbArc
 50
179.9999999999998
 51
269.9999999999995
  0
ARC
  5
18A
330
1F
100
AcDbEntity
  8
2
  6
Continuous
 62
    90
370
    30
100
AcDbCircle
 10
343.5510300350854
 20
258.7467476109618
 30
0.0
 40
25.0
100
AcDbArc
 50
179.9999999999998
 51
269.9999999999995
  0
LINE
  5
18B
330
1F
100
AcDbEntity
  8
2
  6
Continuous
 62
    90
370
    30
100
AcDbLine
 10
363.5510300350854
 20
233.7467476109618
 30
0.0
 11
343.5510300350854
 21
233.7467476109618
 31
0.0
  0
LINE
  5
18C
330
1F
100
AcDbEntity
  8
2
  6
Continuous
 62
    90
370
    30
100
AcDbLine
 10
363.5510300350853
 20
208.7467476109618
 30
0.0
 11
343.5510300350853
 21
208.7467476109618
 31
0.0
  0
LINE
  5
18D
330
1F
100
AcDbEntity
  8
2
  6
Continuous
 62
    90
370
    30
100
AcDbLine
 10
363.5510300350861
 20
633.7467476109618
 30
0.0
 11
363.5510300350861
 21
658.7467476109618
 31
0.0
  0
LINE
  5
18E
330
1F
100
AcDbEntity
  8
2
  6
Continuous
 62
    90
370
    30
100
AcDbLine
 10
363.5510300350854
 20
233.7467476109618
 30
0.0
 11
363.5510300350853
 21
208.7467476109618
 31
0.0
  0
LINE
  5
18F
330
1F
100
AcDbEntity
  8
2
  6
Continuous
 62
    90
370
    30
100
AcDbLine
 10
318.5510300350861
 20
608.7467476109618
 30
0.0
 11
318.5510300350854
 21
258.7467476109618
 31
0.0
  0
LINE
  5
190
330
1F
100
AcDbEntity
  8
2
  6
Continuous
 62
    90
370
    30
100
AcDbLine
 10
293.5510300350861
 20
608.7467476109618
 30
0.0
 11
293.5510300350854
 21
258.7467476109618
 31
0.0
  0
LINE
  5
191
330
1F
100
AcDbEntity
  8
1
  6
DASHDOT
 62
    45
370
     9
100
AcDbLine
 10
428.5510300350862
 20
646.2467476109616
 30
0.0
 11
343.5510300350862
 21
646.2467476109616
 31
0.0
  0
LINE
  5
192
330
1F
100
AcDbEntity
  8
1
  6
DASHDOT
 62
    45
370
     9
100
AcDbLine
 10
351.5510220350853
 20
221.2467476109617
 30
0.0
 11
428.5510300350854
 21
221.2467476109617
 31
0.0
  0
LINE
  5
193
330
1F
100
AcDbEntity
  8
1
  6
Continuous
 62
    45
370
     9
100
AcDbLine
 10
363.551030035086
 20
661.2467476109616
 30
0.0
 11
366.051030035086
 21
661.2467476109616
 31
0.0
  0
LINE
  5
194
330
1F
100
AcDbEntity
  8
1
  6
Continuous
 62
    45
370
     9
100
AcDbLine
 10
363.551030035086
 20
631.2467476109616
 30
0.0
 11
366.051030035086
 21
631.2467476109616
 31
0.0
  0
LINE
  5
195
330
1F
100
AcDbEntity
  8
1
  6
Continuous
 62
    45
370
     9
100
AcDbLine
 10
363.551030035086
 20
661.2467476109616
 30
0.0
 11
363.551030035086
 21
631.2467476109616
 31
0.0
  0
LINE
  5
196
330
1F
100
AcDbEntity
  8
1
  6
Continuous
 62
    45
370
     9
100
AcDbLine
 10
366.051030035086
 20
661.2467476109616
 30
0.0
 11
366.051030035086
 21
631.2467476109616
 31
0.0
  0
LINE
  5
197
330
1F
100
AcDbEntity
  8
1
  6
Continuous
 62
    45
370
     9
100
AcDbLine
 10
408.5510300350853
 20
236.2467476109617
 30
0.0
 11
406.0510300350853
 21
236.2467476109617
 31
0.0
  0
LINE
  5
198
330
1F
100
AcDbEntity
  8
1
  6
Continuous
 62
    45
370
     9
100
AcDbLine
 10
408.5510300350853
 20
206.2467476109617
 30
0.0
 11
406.0510300350853
 21
206.2467476109617
 31
0.0
  0
LINE
  5
199
330
1F
100
AcDbEntity
  8
1
  6
Continuous
 62
    45
370
     9
100
AcDbLine
 10
363.551030035086
 20
236.2467476109617
 30
0.0
 11
366.051030035086
 21
236.2467476109617
 31
0.0
  0
LINE
  5
19A
330
1F
100
AcDbEntity
  8
1
  6
Continuous
 62
    45
370
     9
100
AcDbLine
 10
363.551030035086
 20
206.2467476109617
 30
0.0
 11
366.051030035086
 21
206.2467476109617
 31
0.0
  0
LINE
  5
19B
330
1F
100
AcDbEntity
  8
1
  6
Continuous
 62
    45
370
     9
100
AcDbLine
 10
406.0510300350853
 20
236.2467476109617
 30
0.0
 11
406.0510300350853
 21
225.2457476109616
 31
0.0
  0
LINE
  5
19C
330
1F
100
AcDbEntity
  8
1
  6
Continuous
 62
    45
370
     9
100
AcDbLine
 10
406.0510300350853
 20
217.2477476109616
 30
0.0
 11
406.0510300350853
 21
206.2467476109617
 31
0.0
  0
LINE
  5
19D
330
1F
100
AcDbEntity
  8
1
  6
Continuous
 62
    45
370
     9
100
AcDbLine
 10
408.5510300350853
 20
236.2467476109617
 30
0.0
 11
408.5510300350853
 21
225.2457476109616
 31
0.0
  0
LINE
  5
19E
330
1F
100
AcDbEntity
  8
1
  6
Continuous
 62
    45
370
     9
100
AcDbLine
 10
408.5510300350853
 20
217.2477476109616
 30
0.0
 11
408.5510300350853
 21
206.2467476109617
 31
0.0
  0
LINE
  5
19F
330
1F
100
AcDbEntity
  8
1
  6
Continuous
 62
    45
370
     9
100
AcDbLine
 10
366.051030035086
 20
236.2467476109617
 30
0.0
 11
366.051030035086
 21
225.2457476109617
 31
0.0
  0
LINE
  5
1A0
330
1F
100
AcDbEntity
  8
1
  6
Continuous
 62
    45
370
     9
100
AcDbLine
 10
366.051030035086
 20
217.2477476109617
 30
0.0
 11
366.051030035086
 21
206.2467476109617
 31
0.0
  0
LINE
  5
1A1
330
1F
100
AcDbEntity
  8
1
  6
Continuous
 62
    45
370
     9
100
AcDbLine
 10
363.551030035086
 20
236.2467476109617
 30
0.0
 11
363.551030035086
 21
225.2457476109618
 31
0.0
  0
LINE
  5
1A2
330
1F
100
AcDbEntity
  8
1
  6
Continuous
 62
    45
370
     9
100
AcDbLine
 10
363.551030035086
 20
217.2477476109617
 30
0.0
 11
363.551030035086
 21
206.2467476109617
 31
0.0
  0
LINE
  5
1A3
330
1F
100
AcDbEntity
  8
1
  6
Continuous
 62
    45
370
     9
100
AcDbLine
 10
366.0510300350853
 20
650.2457476109618
 30
0.0
 11
406.0510300350853
 21
650.2457476109618
 31
0.0
  0
LINE
  5
1A4
330
1F
100
AcDbEntity
  8
1
  6
Continuous
 62
    45
370
     9
100
AcDbLine
 10
406.0510300350853
 20
649.4459476109616
 30
0.0
 11
366.0510300350853
 21
649.4459476109618
 31
0.0
  0
LINE
  5
1A5
330
1F
100
AcDbEntity
  8
1
  6
Continuous
 62
    45
370
     9
100
AcDbLine
 10
406.0510300350853
 20
643.0475476109618
 30
0.0
 11
366.0510300350853
 21
643.0475476109618
 31
0.0
  0
LINE
  5
1A6
330
1F
100
AcDbEntity
  8
1
  6
Continuous
 62
    45
370
     9
100
AcDbLine
 10
406.0510300350853
 20
642.2477476109618
 30
0.0
 11
366.0510300350853
 21
642.2477476109618
 31
0.0
  0
DIMENSION
  5
1B2
330
1F
100
AcDbEntity
  8
6
  6
Continuous
 62
     7
370
     9
100
AcDbDimension
  2
Dim1
 10
293.5510300350862
 20
698.7467476109616
 30
0.0
 11
329.8010300350857
 21
704.7467476109616
 31
0.0
 70
   160
  1
70
 71
     5
 42
-1.0
  3
Standard
100
AcDbAlignedDimension
 13
293.5510300350861
 23
608.746747610962
 33
0.0
 14
366.0510300350853
 24
661.2467476109616
 34
0.0
100
AcDbRotatedDimension
1001
ACAD
1000
DSTYLE
1002
{
1070
   344
1005
3C
1070
   343
1005
3C
1070
   173
1070
     1
1070
   289
1070
     2
1070
   279
1070
     2
1070
   288
1070
     1
1070
    77
1070
     3
1070
   172
1070
     1
1070
   174
1070
     0
1070
    74
1070
     0
1070
    73
1070
     0
1070
   284
1070
     8
1070
    78
1070
     8
1070
   140
1040
3.0
1070
    40
1040
4.0
1070
    42
1040
2.0
1070
    44
1040
1.0
1070
    43
1040
10.0
1070
   271
1070
     2
1070
    41
1040
2.0
1002
}
  0
DIMENSION
  5
1BD
330
1F
100
AcDbEntity
  8
6
  6
Continuous
 62
     7
370
     9
100
AcDbDimension
  2
Dim2
 10
366.0510300350854
 20
698.7467476109616
 30
0.0
 11
386.0510300350854
 21
704.7467476109616
 31
0.0
 70
   160
  1
28～40
 71
     5
 42
-1.0
  3
Standard
100
AcDbAlignedDimension
 13
366.0510300350853
 23
661.2467476109616
 33
0.0
 14
406.0510300350853
 24
661.2467476109616
 34
0.0
100
AcDbRotatedDimension
1001
ACAD
1000
DSTYLE
1002
{
1070
   344
1005
3C
1070
   343
1005
3C
1070
   173
1070
     1
1070
   289
1070
     2
1070
   279
1070
     2
1070
   288
1070
     1
1070
    77
1070
     3
1070
   172
1070
     1
1070
   174
1070
     0
1070
    74
1070
     0
1070
    73
1070
     0
1070
   284
1070
     8
1070
    78
1070
     8
1070
   140
1040
3.0
1070
    40
1040
4.0
1070
    42
1040
2.0
1070
    44
1040
1.0
1070
    43
1040
10.0
1070
   271
1070
     2
1070
    41
1040
2.0
1002
}
  0
DIMENSION
  5
1C8
330
1F
100
AcDbEntity
  8
6
  6
Continuous
 62
     7
370
     9
100
AcDbDimension
  2
Dim3
 10
406.0510300350854
 20
698.7467476109616
 30
0.0
 11
442.3010300350857
 21
704.7467476109616
 31
0.0
 70
   160
  1
70
 71
     5
 42
-1.0
  3
Standard
100
AcDbAlignedDimension
 13
406.0510300350853
 23
661.2467476109616
 33
0.0
 14
478.551030035086
 24
608.7467476109615
 34
0.0
100
AcDbRotatedDimension
1001
ACAD
1000
DSTYLE
1002
{
1070
   344
1005
3C
1070
   343
1005
3C
1070
   173
1070
     1
1070
   289
1070
     2
1070
   279
1070
     2
1070
   288
1070
     1
1070
    77
1070
     3
1070
   172
1070
     1
1070
   174
1070
     0
1070
    74
1070
     0
1070
    73
1070
     0
1070
   284
1070
     8
1070
    78
1070
     8
1070
   140
1040
3.0
1070
    40
1040
4.0
1070
    42
1040
2.0
1070
    44
1040
1.0
1070
    43
1040
10.0
1070
   271
1070
     2
1070
    41
1040
2.0
1002
}
  0
DIMENSION
  5
1D4
330
1F
100
AcDbEntity
  8
6
  6
Continuous
 62
     7
370
     9
100
AcDbDimension
  2
Dim4
 10
253.5510300350848
 20
658.7467476109622
 30
0.0
 11
247.5510300350852
 21
433.7467476109622
 31
0.0
 70
   160
  1
<>
 71
     5
 42
-1.0
  3
Standard
100
AcDbAlignedDimension
 13
343.5510300350862
 23
658.7467476109618
 33
0.0
 14
343.5510300350862
 24
208.7467476109618
 34
0.0
 50
89.99999999999991
100
AcDbRotatedDimension
1001
ACAD
1000
DSTYLE
1002
{
1070
   344
1005
3C
1070
   343
1005
3C
1070
   173
1070
     1
1070
   289
1070
     2
1070
   279
1070
     2
1070
   288
1070
     1
1070
    77
1070
     3
1070
   172
1070
     1
1070
   174
1070
     0
1070
    74
1070
     0
1070
    73
1070
     0
1070
   284
1070
     8
1070
    78
1070
     8
1070
   140
1040
3.0
1070
    40
1040
4.0
1070
    42
1040
2.0
1070
    44
1040
1.0
1070
    43
1040
10.0
1070
   271
1070
     2
1070
    41
1040
2.0
1002
}
  0
DIMENSION
  5
1E0
330
1F
100
AcDbEntity
  8
6
  6
Continuous
 62
     7
370
     9
100
AcDbDimension
  2
Dim5
 10
518.551030035085
 20
646.2467476109606
 30
0.0
 11
512.5510300350853
 21
433.7467476109607
 31
0.0
 70
   160
  1
<>
 71
     5
 42
-1.0
  3
Standard
100
AcDbAlignedDimension
 13
428.5510300350861
 23
646.2467476109615
 33
0.0
 14
428.5510300350861
 24
221.2467476109616
 34
0.0
 50
89.99999999999991
100
AcDbRotatedDimension
1001
ACAD
1000
DSTYLE
1002
{
1070
   344
1005
3C
1070
   343
1005
3C
1070
   173
1070
     1
1070
   289
1070
     2
1070
   279
1070
     2
1070
   288
1070
     1
1070
    77
1070
     3
1070
   172
1070
     1
1070
   174
1070
     0
1070
    74
1070
     0
1070
    73
1070
     0
1070
   284
1070
     8
1070
    78
1070
     8
1070
   140
1040
3.0
1070
    40
1040
4.0
1070
    42
1040
2.0
1070
    44
1040
1.0
1070
    43
1040
10.0
1070
   271
1070
     2
1070
    41
1040
2.0
1002
}
  0
DIMENSION
  5
1EA
330
1F
100
AcDbEntity
  8
6
  6
Continuous
 62
     7
370
     9
100
AcDbDimension
  2
Dim6
 10
293.5510300350861
 20
465.8399999999999
 30
0.0
 11
276.0400000000001
 21
471.8399999999999
 31
0.0
 70
   160
  1
<>
 71
     5
 42
-1.0
  3
Standard
100
AcDbAlignedDimension
 13
293.5510300350861
 23
465.8399999999999
 33
0.0
 14
318.5510300350861
 24
465.8399999999999
 34
0.0
100
AcDbRotatedDimension
1001
ACAD
1000
DSTYLE
1002
{
1070
   344
1005
3C
1070
   343
1005
3C
1070
   173
1070
     1
1070
   289
1070
     2
1070
   279
1070
     2
1070
   288
1070
     1
1070
    77
1070
     3
1070
   172
1070
     1
1070
   174
1070
     0
1070
    74
1070
     0
1070
    73
1070
     0
1070
   284
1070
     8
1070
    78
1070
     8
1070
   140
1040
3.0
1070
    40
1040
4.0
1070
    42
1040
2.0
1070
    44
1040
1.0
1070
    43
1040
10.0
1070
   271
1070
     2
1070
    41
1040
2.0
1002
}
  0
DIMENSION
  5
1F4
330
1F
100
AcDbEntity
  8
6
  6
Continuous
 62
     7
370
     9
100
AcDbDimension
  2
Dim7
 10
478.5510300350853
 20
465.8399999999999
 30
0.0
 11
496.0620600701713
 21
471.8399999999999
 31
0.0
 70
   160
  1
<>
 71
     5
 42
-1.0
  3
Standard
100
AcDbAlignedDimension
 13
478.5510300350853
 23
465.8399999999999
 33
0.0
 14
453.5510300350853
 24
465.8399999999999
 34
0.0
 50
359.9999999999997
100
AcDbRotatedDimension
1001
ACAD
1000
DSTYLE
1002
{
1070
   344
1005
3C
1070
   343
1005
3C
1070
   173
1070
     1
1070
   289
1070
     2
1070
   279
1070
     2
1070
   288
1070
     1
1070
    77
1070
     3
1070
   172
1070
     1
1070
   174
1070
     0
1070
    74
1070
     0
1070
    73
1070
     0
1070
   284
1070
     8
1070
    78
1070
     8
1070
   140
1040
3.0
1070
    40
1040
4.0
1070
    42
1040
2.0
1070
    44
1040
1.0
1070
    43
1040
10.0
1070
   271
1070
     2
1070
    41
1040
2.0
1002
}
  0
DIMENSION
  5
1FE
330
1F
100
AcDbEntity
  8
6
  6
Continuous
 62
     7
370
     9
100
AcDbDimension
  2
Dim8
 10
318.5510300350858
 20
465.84
 30
0.0
 11
342.3010300350855
 21
471.84
 31
0.0
 70
   160
  1
(45)
 71
     5
 42
-1.0
  3
Standard
100
AcDbAlignedDimension
 13
318.5510300350858
 23
465.8399999999999
 33
0.0
 14
366.0510300350853
 24
465.8399999999999
 34
0.0
100
AcDbRotatedDimension
1001
ACAD
1000
DSTYLE
1002
{
1070
   344
1005
3C
1070
   343
1005
3C
1070
   173
1070
     1
1070
   289
1070
     2
1070
   279
1070
     2
1070
   288
1070
     1
1070
    77
1070
     3
1070
   172
1070
     1
1070
   174
1070
     0
1070
    74
1070
     0
1070
    73
1070
     0
1070
   284
1070
     8
1070
    78
1070
     8
1070
   140
1040
3.0
1070
    40
1040
4.0
1070
    42
1040
2.0
1070
    44
1040
1.0
1070
    43
1040
10.0
1070
   271
1070
     2
1070
    41
1040
2.0
1002
}
  0
CIRCLE
  5
1FF
330
1F
100
AcDbEntity
  8
1
  6
Continuous
 62
    45
370
     9
100
AcDbCircle
 10
418.5510300350853
 20
646.2467476109616
 30
0.0
 40
2.0
  0
DIMENSION
  5
207
330
1F
100
AcDbEntity
  8
6
  6
Continuous
 62
     7
370
     9
100
AcDbDimension
  2
Dim9
 10
343.5510300350861
 20
608.7467476109618
 30
0.0
 11
344.640603584218
 21
616.1424554360685
 31
0.0
 70
   164
  1
<>
 71
     5
 42
-1.0
  3
Standard
100
AcDbRadialDimension
 15
325.8733605054226
 25
626.4244171406258
 35
0.0
 40
0.0
1001
ACAD
1000
DSTYLE
1002
{
1070
   344
1005
3C
1070
   343
1005
65
1070
   173
1070
     1
1070
   289
1070
     2
1070
   279
1070
     2
1070
   288
1070
     1
1070
    77
1070
     3
1070
   172
1070
     1
1070
   174
1070
     0
1070
    74
1070
     0
1070
    73
1070
     0
1070
   284
1070
     8
1070
    78
1070
     8
1070
   140
1040
3.0
1070
    40
1040
4.0
1070
    42
1040
0.0
1070
    44
1040
0.0
1070
    43
1040
10.0
1070
   271
1070
     2
1070
    41
1040
2.0
1002
}
  0
LINE
  5
208
330
1F
100
AcDbEntity
  8
6
  6
Continuous
 62
     7
370
     9
100
AcDbLine
 10
391.6652149062645
 20
219.1451063100131
 30
0.0
 11
395.6652149062644
 21
212.2169030797376
 31
0.0
  0
LINE
  5
209
330
1F
100
AcDbEntity
  8
6
  6
Continuous
 62
     7
370
     9
100
AcDbLine
 10
391.6652149062645
 20
219.1451063100131
 30
0.0
 11
391.6652149062644
 21
211.1451063100131
 31
0.0
  0
POLYLINE
  5
20A
330
1F
100
AcDbEntity
  8
6
  6
Continuous
 62
     7
370
     9
100
AcDb2dPolyline
 66
     1
 10
0.0
 20
0.0
 30
0.0
  0
VERTEX
  5
20C
330
20A
100
AcDbEntity
  8
6
  6
Continuous
 62
     7
370
     9
100
AcDbVertex
100
AcDb2dVertex
 10
391.6652149062645
 20
219.1451063100131
 30
0.0
  0
VERTEX
  5
20D
330
20A
100
AcDbEntity
  8
6
  6
Continuous
 62
     7
370
     9
100
AcDbVertex
100
AcDb2dVertex
 10
422.7258852928796
 20
103.2251063100128
 30
0.0
  0
VERTEX
  5
20E
330
20A
100
AcDbEntity
  8
6
  6
Continuous
 62
     7
370
     9
100
AcDbVertex
100
AcDb2dVertex
 10
494.7258852928796
 20
103.2251063100128
 30
0.0
  0
SEQEND
  5
20B
330
20A
100
AcDbEntity
  8
6
  6
Continuous
370
     9
  0
TEXT
  5
20F
330
1F
100
AcDbEntity
  8
6
  6
Continuous
 62
     7
370
     9
100
AcDbText
 10
422.7258852928796
 20
103.2251063100128
 30
0.0
 40
12.0
  1
取付ボルトM8
 41
0.75
100
AcDbText
  0
LINE
  5
210
330
1F
100
AcDbEntity
  8
6
  6
Continuous
 62
     7
370
     9
100
AcDbLine
 10
414.7728143575675
 20
215.6490294924548
 30
0.0
 11
418.7728143575675
 21
208.7208262621792
 31
0.0
  0
LINE
  5
211
330
1F
100
AcDbEntity
  8
6
  6
Continuous
 62
     7
370
     9
100
AcDbLine
 10
414.7728143575675
 20
215.6490294924548
 30
0.0
 11
414.7728143575675
 21
207.6490294924548
 31
0.0
  0
POLYLINE
  5
212
330
1F
100
AcDbEntity
  8
6
  6
Continuous
 62
     7
370
     9
100
AcDb2dPolyline
 66
     1
 10
0.0
 20
0.0
 30
0.0
  0
VERTEX
  5
214
330
212
100
AcDbEntity
  8
6
  6
Continuous
 62
     7
370
     9
100
AcDbVertex
100
AcDb2dVertex
 10
414.7728143575675
 20
215.6490294924548
 30
0.0
  0
VERTEX
  5
215
330
212
100
AcDbEntity
  8
6
  6
Continuous
 62
     7
370
     9
100
AcDbVertex
100
AcDb2dVertex
 10
433.2411223943706
 20
146.724365569272
 30
0.0
  0
VERTEX
  5
216
330
212
100
AcDbEntity
  8
6
  6
Continuous
 62
     7
370
     9
100
AcDbVertex
100
AcDb2dVertex
 10
505.2411223943706
 20
146.724365569272
 30
0.0
  0
SEQEND
  5
213
330
212
100
AcDbEntity
  8
6
  6
Continuous
370
     9
  0
TEXT
  5
217
330
1F
100
AcDbEntity
  8
6
  6
Continuous
 62
     7
370
     9
100
AcDbText
 10
433.2411223943706
 20
146.724365569272
 30
0.0
 40
12.0
  1
キャッチコマ
 41
0.8333333333333334
100
AcDbText
  0
LINE
  5
218
330
1F
100
AcDbEntity
  8
1
  6
Continuous
 62
    45
370
     9
100
AcDbLine
 10
365.051030035086
 20
661.2467476109616
 30
0.0
 11
365.051030035086
 21
631.2467476109616
 31
0.0
  0
LINE
  5
219
330
1F
100
AcDbEntity
  8
1
  6
Continuous
 62
    45
370
     9
100
AcDbLine
 10
365.051030035086
 20
236.2467476109617
 30
0.0
 11
365.051030035086
 21
225.2457476109618
 31
0.0
  0
LINE
  5
21A
330
1F
100
AcDbEntity
  8
1
  6
Continuous
 62
    45
370
     9
100
AcDbLine
 10
365.051030035086
 20
217.2477476109617
 30
0.0
 11
365.051030035086
 21
206.2467476109617
 31
0.0
  0
LINE
  5
21B
330
1F
100
AcDbEntity
  8
1
  6
Continuous
 62
    45
370
     9
100
AcDbLine
 10
407.0510300350853
 20
661.2467476109616
 30
0.0
 11
407.0510300350853
 21
631.2467476109616
 31
0.0
  0
LINE
  5
21C
330
1F
100
AcDbEntity
  8
1
  6
Continuous
 62
    45
370
     9
100
AcDbLine
 10
407.0510300350853
 20
236.2467476109617
 30
0.0
 11
407.0510300350853
 21
225.2457476109616
 31
0.0
  0
LINE
  5
21D
330
1F
100
AcDbEntity
  8
1
  6
Continuous
 62
    45
370
     9
100
AcDbLine
 10
407.0510300350853
 20
217.2477476109616
 30
0.0
 11
407.0510300350853
 21
206.2467476109617
 31
0.0
  0
LINE
  5
21E
330
1F
100
AcDbEntity
  8
6
  6
Continuous
 62
     7
370
     9
100
AcDbLine
 10
364.191683813442
 20
206.9150571559218
 30
0.0
 11
364.191683813442
 21
198.9150571559218
 31
0.0
  0
LINE
  5
21F
330
1F
100
AcDbEntity
  8
6
  6
Continuous
 62
     7
370
     9
100
AcDbLine
 10
364.191683813442
 20
206.9150571559218
 30
0.0
 11
360.191683813442
 21
199.9868539256463
 31
0.0
  0
POLYLINE
  5
220
330
1F
100
AcDbEntity
  8
6
  6
Continuous
 62
     7
370
     9
100
AcDb2dPolyline
 66
     1
 10
0.0
 20
0.0
 30
0.0
  0
VERTEX
  5
222
330
220
100
AcDbEntity
  8
6
  6
Continuous
 62
     7
370
     9
100
AcDbVertex
100
AcDb2dVertex
 10
364.191683813442
 20
206.9150571559218
 30
0.0
  0
VERTEX
  5
223
330
220
100
AcDbEntity
  8
6
  6
Continuous
 62
     7
370
     9
100
AcDbVertex
100
AcDb2dVertex
 10
348.0432791495925
 20
146.6483904892547
 30
0.0
  0
VERTEX
  5
224
330
220
100
AcDbEntity
  8
6
  6
Continuous
 62
     7
370
     9
100
AcDbVertex
100
AcDb2dVertex
 10
300.0432791495925
 20
146.6483904892547
 30
0.0
  0
SEQEND
  5
221
330
220
100
AcDbEntity
  8
6
  6
Continuous
370
     9
  0
TEXT
  5
225
330
1F
100
AcDbEntity
  8
6
  6
Continuous
 62
     7
370
     9
100
AcDbText
 10
300.0432791495925
 20
146.6483904892547
 30
0.0
 40
12.0
  1
ワッシャ
 41
0.8333333333333334
100
AcDbText
  0
INSERT
  5
22C
330
1F
100
AcDbEntity
  8
0
100
AcDbBlockReference
  2
*G22
 10
0.0
 20
0.0
 30
0.0
  0
TEXT
  5
22D
330
1F
100
AcDbEntity
  8
6
  6
Continuous
 62
     7
370
     9
100
AcDbText
 10
300.0432791495925
 20
134.6483904892547
 30
0.0
 40
12.0
  1
SUS+ｺﾞﾑ
 41
0.5
100
AcDbText
  0
LINE
  5
22E
330
1F
100
AcDbEntity
  8
6
  6
Continuous
 62
     7
370
     9
100
AcDbLine
 10
471.3934945130322
 20
605.7898719707398
 30
0.0
 11
473.4640468738523
 21
613.5172785810523
 31
0.0
  0
LINE
  5
22F
330
1F
100
AcDbEntity
  8
6
  6
Continuous
 62
     7
370
     9
100
AcDbLine
 10
471.3934945130322
 20
605.7898719707398
 30
0.0
 11
477.0503487625245
 21
611.4467262202322
 31
0.0
  0
POLYLINE
  5
230
330
1F
100
AcDbEntity
  8
6
  6
Continuous
 62
     7
370
     9
100
AcDb2dPolyline
 66
     1
 10
0.0
 20
0.0
 30
0.0
  0
VERTEX
  5
232
330
230
100
AcDbEntity
  8
6
  6
Continuous
 62
     7
370
     9
100
AcDbVertex
100
AcDb2dVertex
 10
471.3934945130322
 20
605.7898719707398
 30
0.0
  0
VERTEX
  5
233
330
230
100
AcDbEntity
  8
6
  6
Continuous
 62
     7
370
     9
100
AcDbVertex
100
AcDb2dVertex
 10
519.4059428988418
 20
688.9498719707401
 30
0.0
  0
VERTEX
  5
234
330
230
100
AcDbEntity
  8
6
  6
Continuous
 62
     7
370
     9
100
AcDbVertex
100
AcDb2dVertex
 10
555.4059428988419
 20
688.9498719707401
 30
0.0
  0
SEQEND
  5
231
330
230
100
AcDbEntity
  8
6
  6
Continuous
370
     9
  0
TEXT
  5
235
330
1F
100
AcDbEntity
  8
6
  6
Continuous
 62
     7
370
     9
100
AcDbText
 10
519.4059428988418
 20
688.9498719707401
 30
0.0
 40
12.0
  1
内部用
 41
0.8333333333333335
100
AcDbText
  0
LINE
  5
236
330
1F
100
AcDbEntity
  8
6
  6
Continuous
 62
     7
370
     9
100
AcDbLine
 10
300.7085655571391
 20
605.7898719707398
 30
0.0
 11
295.0517113076468
 21
611.4467262202322
 31
0.0
  0
LINE
  5
237
330
1F
100
AcDbEntity
  8
6
  6
Continuous
 62
     7
370
     9
100
AcDbLine
 10
300.7085655571391
 20
605.7898719707398
 30
0.0
 11
298.638013196319
 21
613.5172785810523
 31
0.0
  0
POLYLINE
  5
238
330
1F
100
AcDbEntity
  8
6
  6
Continuous
 62
     7
370
     9
100
AcDb2dPolyline
 66
     1
 10
0.0
 20
0.0
 30
0.0
  0
VERTEX
  5
23A
330
238
100
AcDbEntity
  8
6
  6
Continuous
 62
     7
370
     9
100
AcDbVertex
100
AcDb2dVertex
 10
300.7085655571391
 20
605.7898719707398
 30
0.0
  0
VERTEX
  5
23B
330
238
100
AcDbEntity
  8
6
  6
Continuous
 62
     7
370
     9
100
AcDbVertex
100
AcDb2dVertex
 10
252.6961171713295
 20
688.9498719707401
 30
0.0
  0
VERTEX
  5
23C
330
238
100
AcDbEntity
  8
6
  6
Continuous
 62
     7
370
     9
100
AcDbVertex
100
AcDb2dVertex
 10
216.6961171713295
 20
688.9498719707401
 30
0.0
  0
SEQEND
  5
239
330
238
100
AcDbEntity
  8
6
  6
Continuous
370
     9
  0
TEXT
  5
23D
330
1F
100
AcDbEntity
  8
6
  6
Continuous
 62
     7
370
     9
100
AcDbText
 10
216.6961171713295
 20
688.9498719707401
 30
0.0
 40
12.0
  1
外部用
 50
0.0000000000000509
 41
0.8333333333333335
100
AcDbText
  0
VIEWPORT
  5
2A
330
1B
100
AcDbEntity
 67
     1
  8
0
100
AcDbViewport
 10
594.0
 20
420.0
 30
0.0
 40
1188.0
 41
840.0
 68
     1
 69
     1
 12
594.0
 22
420.0
 13
0.0
 23
0.0
 14
0.5
 24
0.5
 15
0.5
 25
0.5
 16
0.0
 26
0.0
 36
1.0
 17
0.0
 27
0.0
 37
0.0
 42
50.0
 43
0.0
 44
0.0
 45
9.0
 50
0.0
 51
0.0
 72
   100
 90
    32800
  1

281
     0
 71
     1
 74
     0
110
0.0
120
0.0
130
0.0
111
1.0
121
0.0
131
0.0
112
0.0
122
1.0
132
0.0
 79
     0
146
0.0
  0
ENDSEC
  0
SECTION
  2
OBJECTS
  0
DICTIONARY
  5
C
330
0
100
AcDbDictionary
281
     1
  3
ACAD_GROUP
350
D
  3
ACAD_LAYOUT
350
1A
  3
ACAD_MLINESTYLE
350
17
  3
ACAD_PLOTSETTINGS
350
19
  3
ACAD_PLOTSTYLENAME
350
E
  3
AcDbVariableDictionary
350
23E
  0
DICTIONARY
  5
D
102
{ACAD_REACTORS
330
C
102
}
330
C
100
AcDbDictionary
281
     1
  0
DICTIONARY
  5
1A
102
{ACAD_REACTORS
330
C
102
}
330
C
100
AcDbDictionary
281
     1
  3
Layout1
350
1E
  3
Layout2
350
26
  3
Model
350
22
  0
DICTIONARY
  5
17
102
{ACAD_REACTORS
330
C
102
}
330
C
100
AcDbDictionary
281
     1
  3
Standard
350
18
  0
DICTIONARY
  5
19
102
{ACAD_REACTORS
330
C
102
}
330
C
100
AcDbDictionary
281
     1
  0
ACDBDICTIONARYWDFLT
  5
E
102
{ACAD_REACTORS
330
C
102
}
330
C
100
AcDbDictionary
281
     1
  3
Normal
350
F
100
AcDbDictionaryWithDefault
340
F
  0
DICTIONARY
  5
23E
102
{ACAD_REACTORS
330
C
102
}
330
C
100
AcDbDictionary
281
     1
  3
DIMASSOC
350
23F
  0
LAYOUT
  5
1E
102
{ACAD_REACTORS
330
1A
102
}
330
1A
100
AcDbPlotSettings
  1

  2

  4

  6

 40
0.0
 41
0.0
 42
0.0
 43
0.0
 44
0.0
 45
0.0
 46
0.0
 47
0.0
 48
0.0
 49
0.0
140
0.0
141
0.0
142
1.0
143
1.0
 70
   688
 72
     0
 73
     0
 74
     5
  7

 75
    16
147
1.0
148
0.0
149
0.0
100
AcDbLayout
  1
Layout1
 70
     1
 71
     1
 10
0.0
 20
0.0
 11
297.0
 21
210.0
 12
0.0
 22
0.0
 32
0.0
 14
0.0
 24
0.0
 34
0.0
 15
297.0
 25
210.0
 35
0.0
146
0.0
 13
0.0
 23
0.0
 33
0.0
 16
1.0
 26
0.0
 36
0.0
 17
0.0
 27
1.0
 37
0.0
 76
     0
330
1B
331
2A
  0
LAYOUT
  5
26
102
{ACAD_REACTORS
330
1A
102
}
330
1A
100
AcDbPlotSettings
  1

  2

  4

  6

 40
0.0
 41
0.0
 42
0.0
 43
0.0
 44
0.0
 45
0.0
 46
0.0
 47
0.0
 48
0.0
 49
0.0
140
0.0
141
0.0
142
1.0
143
1.0
 70
   688
 72
     0
 73
     0
 74
     5
  7

 75
    16
147
1.0
148
0.0
149
0.0
100
AcDbLayout
  1
Layout2
 70
     1
 71
     2
 10
0.0
 20
0.0
 11
0.0
 21
0.0
 12
0.0
 22
0.0
 32
0.0
 14
0.0
 24
0.0
 34
0.0
 15
0.0
 25
0.0
 35
0.0
146
0.0
 13
0.0
 23
0.0
 33
0.0
 16
1.0
 26
0.0
 36
0.0
 17
0.0
 27
1.0
 37
0.0
 76
     0
330
23
  0
LAYOUT
  5
22
102
{ACAD_REACTORS
330
1A
102
}
330
1A
100
AcDbPlotSettings
  1

  2

  4

  6

 40
0.0
 41
0.0
 42
0.0
 43
0.0
 44
0.0
 45
0.0
 46
0.0
 47
0.0
 48
0.0
 49
0.0
140
0.0
141
0.0
142
1.0
143
1.0
 70
  1712
 72
     0
 73
     0
 74
     0
  7

 75
     0
147
1.0
148
0.0
149
0.0
100
AcDbLayout
  1
Model
 70
     1
 71
     0
 10
0.0
 20
0.0
 11
1188.0
 21
840.0
 12
0.0
 22
0.0
 32
0.0
 14
0.0
 24
0.0
 34
0.0
 15
1188.0
 25
840.0
 35
0.0
146
0.0
 13
0.0
 23
0.0
 33
0.0
 16
1.0
 26
0.0
 36
0.0
 17
0.0
 27
1.0
 37
0.0
 76
     0
330
1F
  0
MLINESTYLE
  5
18
102
{ACAD_REACTORS
330
17
102
}
330
17
100
AcDbMlineStyle
  2
Standard
 70
     0
  3

 62
   256
 51
90.0
 52
90.0
 71
     2
 49
0.5
 62
   256
  6
BYLAYER
 49
-0.5
 62
   256
  6
BYLAYER
  0
ACDBPLACEHOLDER
  5
F
102
{ACAD_REACTORS
330
E
102
}
330
E
  0
DICTIONARYVAR
  5
23F
102
{ACAD_REACTORS
330
23E
102
}
330
23E
100
DictionaryVariables
280
     0
  1
1
  0
ENDSEC
  0
EOF
