  0
SECTION
  2
HEADER
  9
$ACADVER
  1
AC1015
  9
$ACADMAINTVER
 70
     6
  9
$DWGCODEPAGE
  3
ANSI_932
  9
$INSBASE
 10
0.0
 20
0.0
 30
0.0
  9
$EXTMIN
 10
0.0
 20
0.0
 30
0.0
  9
$EXTMAX
 10
1782.0
 20
1260.0
 30
0.0
  9
$LIMMIN
 10
0.0
 20
0.0
  9
$LIMMAX
 10
1782.0
 20
1260.0
  9
$ORTHOMODE
 70
     0
  9
$REGENMODE
 70
     1
  9
$FILLMODE
 70
     1
  9
$QTEXTMODE
 70
     0
  9
$MIRRTEXT
 70
     1
  9
$LTSCALE
 40
1.5
  9
$ATTMODE
 70
     1
  9
$TEXTSIZE
 40
18.0
  9
$TRACEWID
 40
0.05
  9
$TEXTSTYLE
  7
Standard
  9
$CLAYER
  8
0
  9
$CELTYPE
  6
ByLayer
  9
$CECOLOR
 62
   256
  9
$CELTSCALE
 40
1.0
  9
$DISPSILH
 70
     0
  9
$DIMSCALE
 40
6.0
  9
$DIMASZ
 40
2.0
  9
$DIMEXO
 40
2.0
  9
$DIMDLI
 40
10.0
  9
$DIMRND
 40
0.0
  9
$DIMDLE
 40
0.0
  9
$DIMEXE
 40
1.0
  9
$DIMTP
 40
0.0
  9
$DIMTM
 40
0.0
  9
$DIMTXT
 40
3.0
  9
$DIMCEN
 40
0.09
  9
$DIMTSZ
 40
0.0
  9
$DIMTOL
 70
     0
  9
$DIMLIM
 70
     0
  9
$DIMTIH
 70
     0
  9
$DIMTOH
 70
     0
  9
$DIMSE1
 70
     0
  9
$DIMSE2
 70
     0
  9
$DIMTAD
 70
     3
  9
$DIMZIN
 70
     8
  9
$DIMBLK
  1

  9
$DIMASO
 70
     1
  9
$DIMSHO
 70
     1
  9
$DIMPOST
  1

  9
$DIMAPOST
  1

  9
$DIMALT
 70
     0
  9
$DIMALTD
 70
     2
  9
$DIMALTF
 40
25.4
  9
$DIMLFAC
 40
1.0
  9
$DIMTOFL
 70
     1
  9
$DIMTVP
 40
0.7
  9
$DIMTIX
 70
     0
  9
$DIMSOXD
 70
     0
  9
$DIMSAH
 70
     0
  9
$DIMBLK1
  1

  9
$DIMBLK2
  1

  9
$DIMSTYLE
  2
Standard
  9
$DIMCLRD
 70
     0
  9
$DIMCLRE
 70
     0
  9
$DIMCLRT
 70
     0
  9
$DIMTFAC
 40
0.5
  9
$DIMGAP
 40
0.09
  9
$DIMJUST
 70
     0
  9
$DIMSD1
 70
     0
  9
$DIMSD2
 70
     0
  9
$DIMTOLJ
 70
     1
  9
$DIMTZIN
 70
     8
  9
$DIMALTZ
 70
     0
  9
$DIMALTTZ
 70
     0
  9
$DIMUPT
 70
     1
  9
$DIMDEC
 70
     2
  9
$DIMTDEC
 70
     4
  9
$DIMALTU
 70
     2
  9
$DIMALTTD
 70
     2
  9
$DIMTXSTY
  7
Standard
  9
$DIMAUNIT
 70
     0
  9
$DIMADEC
 70
     0
  9
$DIMALTRND
 40
0.0
  9
$DIMAZIN
 70
     0
  9
$DIMDSEP
 70
    46
  9
$DIMATFIT
 70
     2
  9
$DIMFRAC
 70
     0
  9
$DIMLDRBLK
  1

  9
$DIMLUNIT
 70
     2
  9
$DIMLWD
 70
    -2
  9
$DIMLWE
 70
    -2
  9
$DIMTMOVE
 70
     2
  9
$LUNITS
 70
     2
  9
$LUPREC
 70
     4
  9
$SKETCHINC
 40
0.1
  9
$FILLETRAD
 40
0.5
  9
$AUNITS
 70
     0
  9
$AUPREC
 70
     0
  9
$MENU
  1
.
  9
$ELEVATION
 40
0.0
  9
$PELEVATION
 40
0.0
  9
$THICKNESS
 40
0.0
  9
$LIMCHECK
 70
     0
  9
$CHAMFERA
 40
0.5
  9
$CHAMFERB
 40
0.5
  9
$CHAMFERC
 40
1.0
  9
$CHAMFERD
 40
0.0
  9
$SKPOLY
 70
     0
  9
$TDCREATE
 40
2456430.821377315
  9
$TDUCREATE
 40
2456430.446377315
  9
$TDUPDATE
 40
2456430.821377315
  9
$TDUUPDATE
 40
2456430.446377315
  9
$TDINDWG
 40
0.0000000116
  9
$TDUSRTIMER
 40
0.0000000116
  9
$USRTIMER
 70
     1
  9
$ANGBASE
 50
0.0
  9
$ANGDIR
 70
     0
  9
$PDMODE
 70
     0
  9
$PDSIZE
 40
0.0
  9
$PLINEWID
 40
0.0
  9
$SPLFRAME
 70
     0
  9
$SPLINETYPE
 70
     6
  9
$SPLINESEGS
 70
     8
  9
$HANDSEED
  5
3A9
  9
$SURFTAB1
 70
     6
  9
$SURFTAB2
 70
     6
  9
$SURFTYPE
 70
     6
  9
$SURFU
 70
     6
  9
$SURFV
 70
     6
  9
$UCSBASE
  2

  9
$UCSNAME
  2

  9
$UCSORG
 10
0.0
 20
0.0
 30
0.0
  9
$UCSXDIR
 10
1.0
 20
0.0
 30
0.0
  9
$UCSYDIR
 10
0.0
 20
1.0
 30
0.0
  9
$UCSORTHOREF
  2

  9
$UCSORTHOVIEW
 70
     0
  9
$UCSORGTOP
 10
0.0
 20
0.0
 30
0.0
  9
$UCSORGBOTTOM
 10
0.0
 20
0.0
 30
0.0
  9
$UCSORGLEFT
 10
0.0
 20
0.0
 30
0.0
  9
$UCSORGRIGHT
 10
0.0
 20
0.0
 30
0.0
  9
$UCSORGFRONT
 10
0.0
 20
0.0
 30
0.0
  9
$UCSORGBACK
 10
0.0
 20
0.0
 30
0.0
  9
$PUCSBASE
  2

  9
$PUCSNAME
  2

  9
$PUCSORG
 10
0.0
 20
0.0
 30
0.0
  9
$PUCSXDIR
 10
1.0
 20
0.0
 30
0.0
  9
$PUCSYDIR
 10
0.0
 20
1.0
 30
0.0
  9
$PUCSORTHOREF
  2

  9
$PUCSORTHOVIEW
 70
     0
  9
$PUCSORGTOP
 10
0.0
 20
0.0
 30
0.0
  9
$PUCSORGBOTTOM
 10
0.0
 20
0.0
 30
0.0
  9
$PUCSORGLEFT
 10
0.0
 20
0.0
 30
0.0
  9
$PUCSORGRIGHT
 10
0.0
 20
0.0
 30
0.0
  9
$PUCSORGFRONT
 10
0.0
 20
0.0
 30
0.0
  9
$PUCSORGBACK
 10
0.0
 20
0.0
 30
0.0
  9
$USERI1
 70
     0
  9
$USERI2
 70
     0
  9
$USERI3
 70
     0
  9
$USERI4
 70
     0
  9
$USERI5
 70
     0
  9
$USERR1
 40
0.0
  9
$USERR2
 40
0.0
  9
$USERR3
 40
0.0
  9
$USERR4
 40
0.0
  9
$USERR5
 40
0.0
  9
$WORLDVIEW
 70
     1
  9
$SHADEDGE
 70
     3
  9
$SHADEDIF
 70
    70
  9
$TILEMODE
 70
     1
  9
$MAXACTVP
 70
    64
  9
$PINSBASE
 10
0.0
 20
0.0
 30
0.0
  9
$PLIMCHECK
 70
     0
  9
$PEXTMIN
 10
0.0
 20
0.0
 30
0.0
  9
$PEXTMAX
 10
297.0
 20
210.0
 30
0.0
  9
$PLIMMIN
 10
0.0
 20
0.0
  9
$PLIMMAX
 10
297.0
 20
210.0
  9
$UNITMODE
 70
     0
  9
$VISRETAIN
 70
     1
  9
$PLINEGEN
 70
     0
  9
$PSLTSCALE
 70
     1
  9
$TREEDEPTH
 70
  3020
  9
$CMLSTYLE
  2
Standard
  9
$CMLJUST
 70
     0
  9
$CMLSCALE
 40
1.0
  9
$PROXYGRAPHICS
 70
     1
  9
$MEASUREMENT
 70
     1
  9
$CELWEIGHT
370
    -1
  9
$ENDCAPS
280
     0
  9
$JOINSTYLE
280
     0
  9
$LWDISPLAY
290
     0
  9
$INSUNITS
 70
     4
  9
$HYPERLINKBASE
  1

  9
$STYLESHEET
  1

  9
$XEDIT
290
     1
  9
$CEPSNTYPE
380
     0
  9
$PSTYLEMODE
290
     1
  9
$FINGERPRINTGUID
  2
{EEB3D81D-7A2A-4FD6-A056-B6A06056CE0A}
  9
$VERSIONGUID
  2
{FAEB1C32-E019-11D5-929B-00C0DF256EC4}
  9
$EXTNAMES
290
     1
  9
$PSVPSCALE
 40
0.0
  9
$OLESTARTUP
290
     0
  0
ENDSEC
  0
SECTION
  2
CLASSES
  0
CLASS
  1
ACDBDICTIONARYWDFLT
  2
AcDbDictionaryWithDefault
  3
ObjectDBX Classes
 90
        0
280
     0
281
     0
  0
CLASS
  1
DICTIONARYVAR
  2
AcDbDictionaryVar
  3
ObjectDBX Classes
 90
        0
280
     0
281
     0
  0
CLASS
  1
ACDBPLACEHOLDER
  2
AcDbPlaceHolder
  3
ObjectDBX Classes
 90
        0
280
     0
281
     0
  0
CLASS
  1
LAYOUT
  2
AcDbLayout
  3
ObjectDBX Classes
 90
        0
280
     0
281
     0
  0
ENDSEC
  0
SECTION
  2
TABLES
  0
TABLE
  2
VPORT
  5
8
330
0
100
AcDbSymbolTable
 70
     1
  0
VPORT
  5
29
330
8
100
AcDbSymbolTableRecord
100
AcDbViewportTableRecord
  2
*Active
 70
     0
 10
0.0
 20
0.0
 11
1.0
 21
1.0
 12
10.42990654205607
 22
4.5
 13
0.0
 23
0.0
 14
0.5
 24
0.5
 15
0.5
 25
0.5
 16
0.0
 26
0.0
 36
1.0
 17
0.0
 27
0.0
 37
0.0
 40
9.0
 41
1.972972972850329
 42
50.0
 43
0.0
 44
0.0
 50
0.0
 51
0.0
 71
     0
 72
   100
 73
     1
 74
     3
 75
     0
 76
     0
 77
     0
 78
     0
281
     0
 65
     1
110
0.0
120
0.0
130
0.0
111
1.0
121
0.0
131
0.0
112
0.0
122
1.0
132
0.0
 79
     0
146
0.0
  0
ENDTAB
  0
TABLE
  2
LTYPE
  5
5
330
0
100
AcDbSymbolTable
 70
     9
  0
LTYPE
  5
14
330
5
100
AcDbSymbolTableRecord
100
AcDbLinetypeTableRecord
  2
ByBlock
 70
     0
  3

 72
    65
 73
     0
 40
0.0
  0
LTYPE
  5
15
330
5
100
AcDbSymbolTableRecord
100
AcDbLinetypeTableRecord
  2
ByLayer
 70
     0
  3

 72
    65
 73
     0
 40
0.0
  0
LTYPE
  5
16
330
5
100
AcDbSymbolTableRecord
100
AcDbLinetypeTableRecord
  2
Continuous
 70
     0
  3
Solid line
 72
    65
 73
     0
 40
0.0
  0
LTYPE
  5
68
330
5
100
AcDbSymbolTableRecord
100
AcDbLinetypeTableRecord
  2
DOT
 70
     0
  3
DOT
 72
    65
 73
     2
 40
4.0
 49
6.0
 74
     0
 49
-2.0
 74
     0
  0
LTYPE
  5
69
330
5
100
AcDbSymbolTableRecord
100
AcDbLinetypeTableRecord
  2
HIDDEN
 70
     0
  3
HIDDEN
 72
    65
 73
     2
 40
4.2
 49
8.4
 74
     0
 49
-4.2
 74
     0
  0
LTYPE
  5
6A
330
5
100
AcDbSymbolTableRecord
100
AcDbLinetypeTableRecord
  2
DASHDOT
 70
     0
  3
DASHDOT
 72
    65
 73
     4
 40
14.5
 49
30.0
 74
     0
 49
-9.0
 74
     0
 49
2.5
 74
     0
 49
-9.0
 74
     0
  0
LTYPE
  5
6B
330
5
100
AcDbSymbolTableRecord
100
AcDbLinetypeTableRecord
  2
PHANTOM
 70
     0
  3
PHANTOM
 72
    65
 73
     6
 40
12.0
 49
30.0
 74
     0
 49
-9.0
 74
     0
 49
2.5
 74
     0
 49
-5.0
 74
     0
 49
2.5
 74
     0
 49
-9.0
 74
     0
  0
LTYPE
  5
6C
330
5
100
AcDbSymbolTableRecord
100
AcDbLinetypeTableRecord
  2
ACAD_ISO14W100
 70
     0
  3
ACAD_ISO14W100
 72
    65
 73
     8
 40
1.5
 49
12.0
 74
     0
 49
-3.0
 74
     0
 49
0.5
 74
     0
 49
-3.0
 74
     0
 49
0.5
 74
     0
 49
-3.0
 74
     0
 49
0.5
 74
     0
 49
-3.0
 74
     0
  0
LTYPE
  5
6D
330
5
100
AcDbSymbolTableRecord
100
AcDbLinetypeTableRecord
  2
ACAD_ISO06W100
 70
     0
  3
ACAD_ISO06W100
 72
    65
 73
     8
 40
13.5
 49
24.0
 74
     0
 49
-3.0
 74
     0
 49
0.5
 74
     0
 49
-3.0
 74
     0
 49
0.5
 74
     0
 49
-3.0
 74
     0
 49
0.5
 74
     0
 49
-3.0
 74
     0
  0
LTYPE
  5
6E
330
5
100
AcDbSymbolTableRecord
100
AcDbLinetypeTableRecord
  2
ACAD_ISO11W100
 70
     0
  3
ACAD_ISO11W100
 72
    65
 73
     6
 40
15.5
 49
12.0
 74
     0
 49
-3.0
 74
     0
 49
12.0
 74
     0
 49
-3.0
 74
     0
 49
0.5
 74
     0
 49
-3.0
 74
     0
  0
LTYPE
  5
6F
330
5
100
AcDbSymbolTableRecord
100
AcDbLinetypeTableRecord
  2
ACAD_ISO13W100
 70
     0
  3
ACAD_ISO13W100
 72
    65
 73
     8
 40
13.0
 49
12.0
 74
     0
 49
-3.0
 74
     0
 49
12.0
 74
     0
 49
-3.0
 74
     0
 49
0.5
 74
     0
 49
-3.0
 74
     0
 49
0.5
 74
     0
 49
-3.0
 74
     0
  0
ENDTAB
  0
TABLE
  2
LAYER
  5
2
330
0
100
AcDbSymbolTable
 70
    37
  0
LAYER
  5
10
330
2
100
AcDbSymbolTableRecord
100
AcDbLayerTableRecord
  2
0
 70
     0
 62
     7
  6
Continuous
370
    -3
390
F
  0
LAYER
  5
70
330
2
100
AcDbSymbolTableRecord
100
AcDbLayerTableRecord
  2
1
 70
     0
 62
    45
  6
Continuous
370
    -3
390
F
  0
LAYER
  5
71
330
2
100
AcDbSymbolTableRecord
100
AcDbLayerTableRecord
  2
2
 70
     0
 62
    90
  6
Continuous
370
    -3
390
F
  0
LAYER
  5
72
330
2
100
AcDbSymbolTableRecord
100
AcDbLayerTableRecord
  2
3
 70
     0
 62
     6
  6
Continuous
370
    -3
390
F
  0
LAYER
  5
73
330
2
100
AcDbSymbolTableRecord
100
AcDbLayerTableRecord
  2
4
 70
     0
 62
    30
  6
Continuous
370
    -3
390
F
  0
LAYER
  5
74
330
2
100
AcDbSymbolTableRecord
100
AcDbLayerTableRecord
  2
5
 70
     0
 62
     2
  6
Continuous
370
    -3
390
F
  0
LAYER
  5
75
330
2
100
AcDbSymbolTableRecord
100
AcDbLayerTableRecord
  2
6
 70
     0
 62
     7
  6
Continuous
370
    -3
390
F
  0
LAYER
  5
76
330
2
100
AcDbSymbolTableRecord
100
AcDbLayerTableRecord
  2
7
 70
     0
 62
   132
  6
Continuous
370
    -3
390
F
  0
LAYER
  5
77
330
2
100
AcDbSymbolTableRecord
100
AcDbLayerTableRecord
  2
8
 70
     0
 62
   171
  6
Continuous
370
    -3
390
F
  0
LAYER
  5
78
330
2
100
AcDbSymbolTableRecord
100
AcDbLayerTableRecord
  2
9
 70
     0
 62
   170
  6
Continuous
370
    -3
390
F
  0
LAYER
  5
79
330
2
100
AcDbSymbolTableRecord
100
AcDbLayerTableRecord
  2
10
 70
     0
 62
   172
  6
Continuous
370
    -3
390
F
  0
LAYER
  5
7A
330
2
100
AcDbSymbolTableRecord
100
AcDbLayerTableRecord
  2
11
 70
     0
 62
    16
  6
Continuous
370
    -3
390
F
  0
LAYER
  5
7B
330
2
100
AcDbSymbolTableRecord
100
AcDbLayerTableRecord
  2
12
 70
     0
 62
   136
  6
Continuous
370
    -3
390
F
  0
LAYER
  5
7C
330
2
100
AcDbSymbolTableRecord
100
AcDbLayerTableRecord
  2
13
 70
     0
 62
   216
  6
Continuous
370
    -3
390
F
  0
LAYER
  5
7D
330
2
100
AcDbSymbolTableRecord
100
AcDbLayerTableRecord
  2
14
 70
     0
 62
     7
  6
Continuous
370
    -3
390
F
  0
LAYER
  5
7E
330
2
100
AcDbSymbolTableRecord
100
AcDbLayerTableRecord
  2
15
 70
     0
 62
    14
  6
Continuous
370
    -3
390
F
  0
LAYER
  5
7F
330
2
100
AcDbSymbolTableRecord
100
AcDbLayerTableRecord
  2
16
 70
     0
 62
    94
  6
Continuous
370
    -3
390
F
  0
LAYER
  5
80
330
2
100
AcDbSymbolTableRecord
100
AcDbLayerTableRecord
  2
17
 70
     0
 62
   230
  6
Continuous
370
    -3
390
F
  0
LAYER
  5
81
330
2
100
AcDbSymbolTableRecord
100
AcDbLayerTableRecord
  2
18
 70
     0
 62
     7
  6
Continuous
370
    -3
390
F
  0
LAYER
  5
82
330
2
100
AcDbSymbolTableRecord
100
AcDbLayerTableRecord
  2
19
 70
     0
 62
    52
  6
Continuous
370
    -3
390
F
  0
LAYER
  5
83
330
2
100
AcDbSymbolTableRecord
100
AcDbLayerTableRecord
  2
20
 70
     0
 62
   134
  6
Continuous
370
    -3
390
F
  0
LAYER
  5
84
330
2
100
AcDbSymbolTableRecord
100
AcDbLayerTableRecord
  2
21
 70
     0
 62
   214
  6
Continuous
370
    -3
390
F
  0
LAYER
  5
85
330
2
100
AcDbSymbolTableRecord
100
AcDbLayerTableRecord
  2
22
 70
     0
 62
     7
  6
Continuous
370
    -3
390
F
  0
LAYER
  5
86
330
2
100
AcDbSymbolTableRecord
100
AcDbLayerTableRecord
  2
128
 70
     0
 62
     7
  6
Continuous
370
    -3
390
F
  0
LAYER
  5
87
330
2
100
AcDbSymbolTableRecord
100
AcDbLayerTableRecord
  2
129
 70
     0
 62
     7
  6
Continuous
370
    -3
390
F
  0
LAYER
  5
88
330
2
100
AcDbSymbolTableRecord
100
AcDbLayerTableRecord
  2
130
 70
     0
 62
     7
  6
Continuous
370
    -3
390
F
  0
LAYER
  5
89
330
2
100
AcDbSymbolTableRecord
100
AcDbLayerTableRecord
  2
131
 70
     0
 62
     3
  6
Continuous
370
    -3
390
F
  0
LAYER
  5
8A
330
2
100
AcDbSymbolTableRecord
100
AcDbLayerTableRecord
  2
132
 70
     0
 62
     7
  6
Continuous
370
    -3
390
F
  0
LAYER
  5
8B
330
2
100
AcDbSymbolTableRecord
100
AcDbLayerTableRecord
  2
133
 70
     0
 62
     7
  6
Continuous
370
    -3
390
F
  0
LAYER
  5
8C
330
2
100
AcDbSymbolTableRecord
100
AcDbLayerTableRecord
  2
134
 70
     0
 62
     1
  6
Continuous
370
    -3
390
F
  0
LAYER
  5
8D
330
2
100
AcDbSymbolTableRecord
100
AcDbLayerTableRecord
  2
135
 70
     0
 62
     4
  6
Continuous
370
    -3
390
F
  0
LAYER
  5
8E
330
2
100
AcDbSymbolTableRecord
100
AcDbLayerTableRecord
  2
136
 70
     0
 62
     7
  6
Continuous
370
    -3
390
F
  0
LAYER
  5
8F
330
2
100
AcDbSymbolTableRecord
100
AcDbLayerTableRecord
  2
137
 70
     0
 62
     7
  6
Continuous
370
    -3
390
F
  0
LAYER
  5
90
330
2
100
AcDbSymbolTableRecord
100
AcDbLayerTableRecord
  2
138
 70
     0
 62
     4
  6
Continuous
370
    -3
390
F
  0
LAYER
  5
91
330
2
100
AcDbSymbolTableRecord
100
AcDbLayerTableRecord
  2
139
 70
     0
 62
     7
  6
Continuous
370
    -3
390
F
  0
LAYER
  5
92
330
2
100
AcDbSymbolTableRecord
100
AcDbLayerTableRecord
  2
140
 70
     0
 62
   171
  6
Continuous
370
    -3
390
F
  0
LAYER
  5
93
330
2
100
AcDbSymbolTableRecord
100
AcDbLayerTableRecord
  2
141
 70
     0
 62
     5
  6
Continuous
370
    -3
390
F
  0
ENDTAB
  0
TABLE
  2
STYLE
  5
3
330
0
100
AcDbSymbolTable
 70
     2
  0
STYLE
  5
11
330
3
100
AcDbSymbolTableRecord
100
AcDbTextStyleTableRecord
  2
Standard
 70
     0
 40
0.0
 41
1.0
 50
0.0
 71
     0
 42
0.2
  3
txt
  4
bigfont
  0
STYLE
  5
2C
330
3
100
AcDbSymbolTableRecord
100
AcDbTextStyleTableRecord
  2
T_STANDARD
 70
     4
 40
10.0
 41
1.0
 50
0.0
 71
     0
 42
10.0
  3
txt
  4
bigfont
  0
ENDTAB
  0
TABLE
  2
VIEW
  5
6
330
0
100
AcDbSymbolTable
 70
     0
  0
ENDTAB
  0
TABLE
  2
UCS
  5
7
330
0
100
AcDbSymbolTable
 70
     0
  0
ENDTAB
  0
TABLE
  2
APPID
  5
9
330
0
100
AcDbSymbolTable
 70
     2
  0
APPID
  5
12
330
9
100
AcDbSymbolTableRecord
100
AcDbRegAppTableRecord
  2
ACAD
 70
     0
  0
APPID
  5
2B
330
9
100
AcDbSymbolTableRecord
100
AcDbRegAppTableRecord
  2
ODA
 70
     0
  0
ENDTAB
  0
TABLE
  2
DIMSTYLE
  5
A
330
0
100
AcDbSymbolTable
 70
     1
100
AcDbDimStyleTable
  0
DIMSTYLE
105
27
102
{ACAD_REACTORS
330
227
330
255
330
298
330
2C6
330
2D5
330
2E4
330
2F1
330
325
330
32F
330
339
330
36E
330
379
330
384
330
38E
102
}
330
A
100
AcDbSymbolTableRecord
100
AcDbDimStyleTableRecord
  2
Standard
 70
     0
340
11
  0
ENDTAB
  0
TABLE
  2
BLOCK_RECORD
  5
1
330
0
100
AcDbSymbolTable
 70
    42
  0
BLOCK_RECORD
  5
1F
330
1
100
AcDbSymbolTableRecord
100
AcDbBlockTableRecord
  2
*Model_Space
340
22
  0
BLOCK_RECORD
  5
1B
330
1
100
AcDbSymbolTableRecord
100
AcDbBlockTableRecord
  2
*Paper_Space
340
1E
  0
BLOCK_RECORD
  5
23
330
1
100
AcDbSymbolTableRecord
100
AcDbBlockTableRecord
  2
*Paper_Space0
340
26
  0
BLOCK_RECORD
  5
2D
330
1
100
AcDbSymbolTableRecord
100
AcDbBlockTableRecord
  2
_ORIGIN
340
0
  0
BLOCK_RECORD
  5
32
330
1
100
AcDbSymbolTableRecord
100
AcDbBlockTableRecord
  2
_DOTBLANK
340
0
  0
BLOCK_RECORD
  5
37
330
1
100
AcDbSymbolTableRecord
100
AcDbBlockTableRecord
  2
_DOT
340
0
  0
BLOCK_RECORD
  5
3C
330
1
100
AcDbSymbolTableRecord
100
AcDbBlockTableRecord
  2
_OPEN
340
0
  0
BLOCK_RECORD
  5
42
330
1
100
AcDbSymbolTableRecord
100
AcDbBlockTableRecord
  2
_CLOSED
340
0
  0
BLOCK_RECORD
  5
49
330
1
100
AcDbSymbolTableRecord
100
AcDbBlockTableRecord
  2
_CLOSEDBLANK
340
0
  0
BLOCK_RECORD
  5
4F
330
1
100
AcDbSymbolTableRecord
100
AcDbBlockTableRecord
  2
_BOXBLANK
340
0
  0
BLOCK_RECORD
  5
57
330
1
100
AcDbSymbolTableRecord
100
AcDbBlockTableRecord
  2
_BOXFILLED
340
0
  0
BLOCK_RECORD
  5
5C
330
1
100
AcDbSymbolTableRecord
100
AcDbBlockTableRecord
  2
_INTEGRAL
340
0
  0
BLOCK_RECORD
  5
61
330
1
100
AcDbSymbolTableRecord
100
AcDbBlockTableRecord
  2
_OBLIQUE
340
0
  0
BLOCK_RECORD
  5
65
330
1
100
AcDbSymbolTableRecord
100
AcDbBlockTableRecord
  2
_NONE
340
0
  0
BLOCK_RECORD
  5
94
330
1
100
AcDbSymbolTableRecord
100
AcDbBlockTableRecord
  2
*G12
340
0
102
{BLKREFS
331
9B
102
}
  0
BLOCK_RECORD
  5
10B
330
1
100
AcDbSymbolTableRecord
100
AcDbBlockTableRecord
  2
*G13
340
0
102
{BLKREFS
331
12D
102
}
  0
BLOCK_RECORD
  5
10E
330
1
100
AcDbSymbolTableRecord
100
AcDbBlockTableRecord
  2
*G14
340
0
102
{BLKREFS
331
12C
102
}
  0
BLOCK_RECORD
  5
12E
330
1
100
AcDbSymbolTableRecord
100
AcDbBlockTableRecord
  2
*G15
340
0
102
{BLKREFS
331
14F
102
}
  0
BLOCK_RECORD
  5
131
330
1
100
AcDbSymbolTableRecord
100
AcDbBlockTableRecord
  2
*G16
340
0
102
{BLKREFS
331
14E
102
}
  0
BLOCK_RECORD
  5
150
330
1
100
AcDbSymbolTableRecord
100
AcDbBlockTableRecord
  2
*G17
340
0
102
{BLKREFS
331
15E
102
}
  0
BLOCK_RECORD
  5
153
330
1
100
AcDbSymbolTableRecord
100
AcDbBlockTableRecord
  2
*G18
340
0
102
{BLKREFS
331
15D
102
}
  0
BLOCK_RECORD
  5
15F
330
1
100
AcDbSymbolTableRecord
100
AcDbBlockTableRecord
  2
*G19
340
0
102
{BLKREFS
331
180
102
}
  0
BLOCK_RECORD
  5
162
330
1
100
AcDbSymbolTableRecord
100
AcDbBlockTableRecord
  2
*G20
340
0
102
{BLKREFS
331
17F
102
}
  0
BLOCK_RECORD
  5
181
330
1
100
AcDbSymbolTableRecord
100
AcDbBlockTableRecord
  2
*G21
340
0
102
{BLKREFS
331
18E
102
}
  0
BLOCK_RECORD
  5
184
330
1
100
AcDbSymbolTableRecord
100
AcDbBlockTableRecord
  2
*G22
340
0
102
{BLKREFS
331
18D
102
}
  0
BLOCK_RECORD
  5
18F
330
1
100
AcDbSymbolTableRecord
100
AcDbBlockTableRecord
  2
*G23
340
0
102
{BLKREFS
331
1B0
102
}
  0
BLOCK_RECORD
  5
192
330
1
100
AcDbSymbolTableRecord
100
AcDbBlockTableRecord
  2
*G24
340
0
102
{BLKREFS
331
1AF
102
}
  0
BLOCK_RECORD
  5
1B7
330
1
100
AcDbSymbolTableRecord
100
AcDbBlockTableRecord
  2
*G25
340
0
102
{BLKREFS
331
1DB
102
}
  0
BLOCK_RECORD
  5
1BA
330
1
100
AcDbSymbolTableRecord
100
AcDbBlockTableRecord
  2
*G26
340
0
102
{BLKREFS
331
1DA
102
}
  0
BLOCK_RECORD
  5
1DC
330
1
100
AcDbSymbolTableRecord
100
AcDbBlockTableRecord
  2
*G27
340
0
102
{BLKREFS
331
1E2
102
}
  0
BLOCK_RECORD
  5
21C
330
1
100
AcDbSymbolTableRecord
100
AcDbBlockTableRecord
  2
Dim1
340
0
  0
BLOCK_RECORD
  5
24A
330
1
100
AcDbSymbolTableRecord
100
AcDbBlockTableRecord
  2
Dim2
340
0
  0
BLOCK_RECORD
  5
28D
330
1
100
AcDbSymbolTableRecord
100
AcDbBlockTableRecord
  2
Dim3
340
0
  0
BLOCK_RECORD
  5
2BB
330
1
100
AcDbSymbolTableRecord
100
AcDbBlockTableRecord
  2
Dim4
340
0
  0
BLOCK_RECORD
  5
2CA
330
1
100
AcDbSymbolTableRecord
100
AcDbBlockTableRecord
  2
Dim5
340
0
  0
BLOCK_RECORD
  5
2D9
330
1
100
AcDbSymbolTableRecord
100
AcDbBlockTableRecord
  2
Dim6
340
0
  0
BLOCK_RECORD
  5
2E6
330
1
100
AcDbSymbolTableRecord
100
AcDbBlockTableRecord
  2
Dim7
340
0
  0
BLOCK_RECORD
  5
31C
330
1
100
AcDbSymbolTableRecord
100
AcDbBlockTableRecord
  2
Dim8
340
0
  0
BLOCK_RECORD
  5
326
330
1
100
AcDbSymbolTableRecord
100
AcDbBlockTableRecord
  2
Dim9
340
0
  0
BLOCK_RECORD
  5
330
330
1
100
AcDbSymbolTableRecord
100
AcDbBlockTableRecord
  2
Dim10
340
0
  0
BLOCK_RECORD
  5
363
330
1
100
AcDbSymbolTableRecord
100
AcDbBlockTableRecord
  2
Dim11
340
0
  0
BLOCK_RECORD
  5
36F
330
1
100
AcDbSymbolTableRecord
100
AcDbBlockTableRecord
  2
Dim12
340
0
  0
BLOCK_RECORD
  5
37A
330
1
100
AcDbSymbolTableRecord
100
AcDbBlockTableRecord
  2
Dim13
340
0
  0
BLOCK_RECORD
  5
385
330
1
100
AcDbSymbolTableRecord
100
AcDbBlockTableRecord
  2
Dim14
340
0
  0
ENDTAB
  0
ENDSEC
  0
SECTION
  2
BLOCKS
  0
BLOCK
  5
20
330
1F
100
AcDbEntity
  8
0
100
AcDbBlockBegin
  2
*Model_Space
 70
     0
 71
     0
 10
0.0
 20
0.0
 30
0.0
  3
*Model_Space
  1

  0
ENDBLK
  5
21
330
1F
100
AcDbEntity
  8
0
100
AcDbBlockEnd
  0
BLOCK
  5
1C
330
1B
100
AcDbEntity
 67
     1
  8
0
100
AcDbBlockBegin
  2
*Paper_Space
 70
     0
 71
     0
 10
0.0
 20
0.0
 30
0.0
  3
*Paper_Space
  1

  0
ENDBLK
  5
1D
330
1B
100
AcDbEntity
 67
     1
  8
0
100
AcDbBlockEnd
  0
BLOCK
  5
24
330
23
100
AcDbEntity
  8
0
100
AcDbBlockBegin
  2
*Paper_Space0
 70
     0
 71
     0
 10
0.0
 20
0.0
 30
0.0
  3
*Paper_Space0
  1

  0
ENDBLK
  5
25
330
23
100
AcDbEntity
  8
0
100
AcDbBlockEnd
  0
BLOCK
  5
30
330
2D
100
AcDbEntity
  8
0
100
AcDbBlockBegin
  2
_ORIGIN
 70
     0
 71
     0
 10
0.0
 20
0.0
 30
0.0
  3
_ORIGIN
  1

  0
CIRCLE
  5
2E
330
2D
100
AcDbEntity
  8
0
100
AcDbCircle
 10
0.0
 20
0.0
 30
0.0
 40
0.5
  0
LINE
  5
2F
330
2D
100
AcDbEntity
  8
0
100
AcDbLine
 10
0.0
 20
0.0
 30
0.0
 11
-1.0
 21
0.0
 31
0.0
  0
ENDBLK
  5
31
330
2D
100
AcDbEntity
  8
0
100
AcDbBlockEnd
  0
BLOCK
  5
35
330
32
100
AcDbEntity
  8
0
100
AcDbBlockBegin
  2
_DOTBLANK
 70
     0
 71
     0
 10
0.0
 20
0.0
 30
0.0
  3
_DOTBLANK
  1

  0
CIRCLE
  5
33
330
32
100
AcDbEntity
  8
0
100
AcDbCircle
 10
0.0
 20
0.0
 30
0.0
 40
0.5
  0
LINE
  5
34
330
32
100
AcDbEntity
  8
0
100
AcDbLine
 10
-0.5
 20
0.0
 30
0.0
 11
-1.0
 21
0.0
 31
0.0
  0
ENDBLK
  5
36
330
32
100
AcDbEntity
  8
0
100
AcDbBlockEnd
  0
BLOCK
  5
3A
330
37
100
AcDbEntity
  8
0
100
AcDbBlockBegin
  2
_DOT
 70
     0
 71
     0
 10
0.0
 20
0.0
 30
0.0
  3
_DOT
  1

  0
LWPOLYLINE
  5
38
330
37
100
AcDbEntity
  8
0
100
AcDbPolyline
 90
        2
 70
     1
 43
0.5
 10
-0.25
 20
0.0
 42
1.0
 10
0.25
 20
0.0
 42
1.0
  0
LINE
  5
39
330
37
100
AcDbEntity
  8
0
100
AcDbLine
 10
-0.5
 20
0.0
 30
0.0
 11
-1.0
 21
0.0
 31
0.0
  0
ENDBLK
  5
3B
330
37
100
AcDbEntity
  8
0
100
AcDbBlockEnd
  0
BLOCK
  5
40
330
3C
100
AcDbEntity
  8
0
100
AcDbBlockBegin
  2
_OPEN
 70
     0
 71
     0
 10
0.0
 20
0.0
 30
0.0
  3
_OPEN
  1

  0
LINE
  5
3D
330
3C
100
AcDbEntity
  8
0
100
AcDbLine
 10
-1.0
 20
0.1666666666666667
 30
0.0
 11
0.0
 21
0.0
 31
0.0
  0
LINE
  5
3E
330
3C
100
AcDbEntity
  8
0
100
AcDbLine
 10
-1.0
 20
-0.1666666666666667
 30
0.0
 11
0.0
 21
0.0
 31
0.0
  0
LINE
  5
3F
330
3C
100
AcDbEntity
  8
0
100
AcDbLine
 10
0.0
 20
0.0
 30
0.0
 11
-1.0
 21
0.0
 31
0.0
  0
ENDBLK
  5
41
330
3C
100
AcDbEntity
  8
0
100
AcDbBlockEnd
  0
BLOCK
  5
47
330
42
100
AcDbEntity
  8
0
100
AcDbBlockBegin
  2
_CLOSED
 70
     0
 71
     0
 10
0.0
 20
0.0
 30
0.0
  3
_CLOSED
  1

  0
LINE
  5
43
330
42
100
AcDbEntity
  8
0
100
AcDbLine
 10
-1.0
 20
0.1666666666666667
 30
0.0
 11
0.0
 21
0.0
 31
0.0
  0
LINE
  5
44
330
42
100
AcDbEntity
  8
0
100
AcDbLine
 10
0.0
 20
0.0
 30
0.0
 11
-1.0
 21
-0.1666666666666667
 31
0.0
  0
LINE
  5
45
330
42
100
AcDbEntity
  8
0
100
AcDbLine
 10
-1.0
 20
0.1666666666666667
 30
0.0
 11
-1.0
 21
-0.1666666666666667
 31
0.0
  0
LINE
  5
46
330
42
100
AcDbEntity
  8
0
100
AcDbLine
 10
0.0
 20
0.0
 30
0.0
 11
-1.0
 21
0.0
 31
0.0
  0
ENDBLK
  5
48
330
42
100
AcDbEntity
  8
0
100
AcDbBlockEnd
  0
BLOCK
  5
4D
330
49
100
AcDbEntity
  8
0
100
AcDbBlockBegin
  2
_CLOSEDBLANK
 70
     0
 71
     0
 10
0.0
 20
0.0
 30
0.0
  3
_CLOSEDBLANK
  1

  0
LINE
  5
4A
330
49
100
AcDbEntity
  8
0
100
AcDbLine
 10
-1.0
 20
0.1666666666666667
 30
0.0
 11
0.0
 21
0.0
 31
0.0
  0
LINE
  5
4B
330
49
100
AcDbEntity
  8
0
100
AcDbLine
 10
0.0
 20
0.0
 30
0.0
 11
-1.0
 21
-0.1666666666666667
 31
0.0
  0
LINE
  5
4C
330
49
100
AcDbEntity
  8
0
100
AcDbLine
 10
-1.0
 20
0.1666666666666667
 30
0.0
 11
-1.0
 21
-0.1666666666666667
 31
0.0
  0
ENDBLK
  5
4E
330
49
100
AcDbEntity
  8
0
100
AcDbBlockEnd
  0
BLOCK
  5
55
330
4F
100
AcDbEntity
  8
0
100
AcDbBlockBegin
  2
_BOXBLANK
 70
     0
 71
     0
 10
0.0
 20
0.0
 30
0.0
  3
_BOXBLANK
  1

  0
LINE
  5
50
330
4F
100
AcDbEntity
  8
0
100
AcDbLine
 10
-0.5
 20
-0.5
 30
0.0
 11
0.5
 21
-0.5
 31
0.0
  0
LINE
  5
51
330
4F
100
AcDbEntity
  8
0
100
AcDbLine
 10
0.5
 20
-0.5
 30
0.0
 11
0.5
 21
0.5
 31
0.0
  0
LINE
  5
52
330
4F
100
AcDbEntity
  8
0
100
AcDbLine
 10
0.5
 20
0.5
 30
0.0
 11
-0.5
 21
0.5
 31
0.0
  0
LINE
  5
53
330
4F
100
AcDbEntity
  8
0
100
AcDbLine
 10
-0.5
 20
0.5
 30
0.0
 11
-0.5
 21
-0.5
 31
0.0
  0
LINE
  5
54
330
4F
100
AcDbEntity
  8
0
100
AcDbLine
 10
-0.5
 20
0.0
 30
0.0
 11
-1.0
 21
0.0
 31
0.0
  0
ENDBLK
  5
56
330
4F
100
AcDbEntity
  8
0
100
AcDbBlockEnd
  0
BLOCK
  5
5A
330
57
100
AcDbEntity
  8
0
100
AcDbBlockBegin
  2
_BOXFILLED
 70
     0
 71
     0
 10
0.0
 20
0.0
 30
0.0
  3
_BOXFILLED
  1

  0
SOLID
  5
58
330
57
100
AcDbEntity
  8
0
100
AcDbTrace
 10
-0.5
 20
0.5
 30
0.0
 11
0.5
 21
0.5
 31
0.0
 12
-0.5
 22
-0.5
 32
0.0
 13
0.5
 23
-0.5
 33
0.0
  0
LINE
  5
59
330
57
100
AcDbEntity
  8
0
100
AcDbLine
 10
-0.5
 20
0.0
 30
0.0
 11
-1.0
 21
0.0
 31
0.0
  0
ENDBLK
  5
5B
330
57
100
AcDbEntity
  8
0
100
AcDbBlockEnd
  0
BLOCK
  5
5F
330
5C
100
AcDbEntity
  8
0
100
AcDbBlockBegin
  2
_INTEGRAL
 70
     0
 71
     0
 10
0.0
 20
0.0
 30
0.0
  3
_INTEGRAL
  1

  0
ARC
  5
5D
330
5C
100
AcDbEntity
  8
0
100
AcDbCircle
 10
0.444888
 20
-0.0913346
 30
0.0
 40
0.4541666
100
AcDbArc
 50
5844.169510334396
 51
9625.69095819783
  0
ARC
  5
5E
330
5C
100
AcDbEntity
  8
0
100
AcDbCircle
 10
-0.444888
 20
0.0913346
 30
0.0
 40
0.4541666
100
AcDbArc
 50
16157.40982268921
 51
19938.93127055265
  0
ENDBLK
  5
60
330
5C
100
AcDbEntity
  8
0
100
AcDbBlockEnd
  0
BLOCK
  5
63
330
61
100
AcDbEntity
  8
0
100
AcDbBlockBegin
  2
_OBLIQUE
 70
     0
 71
     0
 10
0.0
 20
0.0
 30
0.0
  3
_OBLIQUE
  1

  0
LINE
  5
62
330
61
100
AcDbEntity
  8
0
100
AcDbLine
 10
-0.5
 20
-0.5
 30
0.0
 11
0.5
 21
0.5
 31
0.0
  0
ENDBLK
  5
64
330
61
100
AcDbEntity
  8
0
100
AcDbBlockEnd
  0
BLOCK
  5
66
330
65
100
AcDbEntity
  8
0
100
AcDbBlockBegin
  2
_NONE
 70
     0
 71
     0
 10
0.0
 20
0.0
 30
0.0
  3
_NONE
  1

  0
ENDBLK
  5
67
330
65
100
AcDbEntity
  8
0
100
AcDbBlockEnd
  0
BLOCK
  5
95
330
94
100
AcDbEntity
  8
0
100
AcDbBlockBegin
  2
*G12
 70
     1
 71
     0
 10
0.0
 20
0.0
 30
0.0
  3
*G12
  1

  0
LINE
  5
97
330
94
100
AcDbEntity
  8
10
  6
Continuous
 62
   172
370
    70
100
AcDbLine
 10
72.0
 20
72.0
 30
0.0
 11
72.0
 21
1152.0
 31
0.0
  0
LINE
  5
98
330
94
100
AcDbEntity
  8
10
  6
Continuous
 62
   172
370
    70
100
AcDbLine
 10
72.0
 20
1152.0
 30
0.0
 11
1710.0
 21
1152.0
 31
0.0
  0
LINE
  5
99
330
94
100
AcDbEntity
  8
10
  6
Continuous
 62
   172
370
    70
100
AcDbLine
 10
1710.0
 20
1152.0
 30
0.0
 11
1710.0
 21
72.0
 31
0.0
  0
LINE
  5
9A
330
94
100
AcDbEntity
  8
10
  6
Continuous
 62
   172
370
    70
100
AcDbLine
 10
1710.0
 20
72.0
 30
0.0
 11
72.0
 21
72.0
 31
0.0
  0
ENDBLK
  5
96
330
94
100
AcDbEntity
  8
0
100
AcDbBlockEnd
  0
BLOCK
  5
10C
330
10B
100
AcDbEntity
  8
0
100
AcDbBlockBegin
  2
*G13
 70
     1
 71
     0
 10
0.0
 20
0.0
 30
0.0
  3
*G13
  1

  0
INSERT
  5
12C
330
10B
100
AcDbEntity
  8
0
100
AcDbBlockReference
  2
*G14
 10
0.0
 20
0.0
 30
0.0
  0
ENDBLK
  5
10D
330
10B
100
AcDbEntity
  8
0
100
AcDbBlockEnd
  0
BLOCK
  5
10F
330
10E
100
AcDbEntity
  8
0
100
AcDbBlockBegin
  2
*G14
 70
     1
 71
     0
 10
0.0
 20
0.0
 30
0.0
  3
*G14
  1

  0
LINE
  5
111
330
10E
100
AcDbEntity
  8
11
  6
Continuous
 62
    16
370
     9
100
AcDbLine
 10
1329.854960546789
 20
945.3117656681045
 30
0.0
 11
1331.742754266166
 21
947.1995593874815
 31
0.0
  0
LINE
  5
112
330
10E
100
AcDbEntity
  8
11
  6
Continuous
 62
    16
370
     9
100
AcDbLine
 10
1326.460847997094
 20
945.3117656681045
 30
0.0
 11
1331.742754266166
 21
950.5936719371769
 31
0.0
  0
LINE
  5
113
330
10E
100
AcDbEntity
  8
11
  6
Continuous
 62
    16
370
     9
100
AcDbLine
 10
1323.066735447399
 20
945.3117656681045
 30
0.0
 11
1331.742754266166
 21
953.9877844868723
 31
0.0
  0
LINE
  5
114
330
10E
100
AcDbEntity
  8
11
  6
Continuous
 62
    16
370
     9
100
AcDbLine
 10
1319.672622897703
 20
945.3117656681045
 30
0.0
 11
1331.742754266166
 21
957.3818970365678
 31
0.0
  0
LINE
  5
115
330
10E
100
AcDbEntity
  8
11
  6
Continuous
 62
    16
370
     9
100
AcDbLine
 10
1316.742754266166
 20
945.7760095862632
 30
0.0
 11
1331.742754266166
 21
960.7760095862632
 31
0.0
  0
LINE
  5
116
330
10E
100
AcDbEntity
  8
11
  6
Continuous
 62
    16
370
     9
100
AcDbLine
 10
1316.742754266166
 20
949.1701221359586
 30
0.0
 11
1331.742754266166
 21
964.1701221359585
 31
0.0
  0
LINE
  5
117
330
10E
100
AcDbEntity
  8
11
  6
Continuous
 62
    16
370
     9
100
AcDbLine
 10
1316.742754266166
 20
952.5642346856541
 30
0.0
 11
1331.742754266166
 21
967.564234685654
 31
0.0
  0
LINE
  5
118
330
10E
100
AcDbEntity
  8
11
  6
Continuous
 62
    16
370
     9
100
AcDbLine
 10
1316.742754266166
 20
955.9583472353495
 30
0.0
 11
1331.742754266166
 21
970.9583472353495
 31
0.0
  0
LINE
  5
119
330
10E
100
AcDbEntity
  8
11
  6
Continuous
 62
    16
370
     9
100
AcDbLine
 10
1316.742754266166
 20
959.3524597850449
 30
0.0
 11
1329.702060149226
 21
972.3117656681045
 31
0.0
  0
LINE
  5
11A
330
10E
100
AcDbEntity
  8
11
  6
Continuous
 62
    16
370
     9
100
AcDbLine
 10
1315.376786462555
 20
961.3806045311293
 30
0.0
 11
1326.307947599531
 21
972.3117656681045
 31
0.0
  0
LINE
  5
11B
330
10E
100
AcDbEntity
  8
11
  6
Continuous
 62
    16
370
     9
100
AcDbLine
 10
1312.145515955856
 20
961.5434465741255
 30
0.0
 11
1322.913835049835
 21
972.3117656681045
 31
0.0
  0
LINE
  5
11C
330
10E
100
AcDbEntity
  8
11
  6
Continuous
 62
    16
370
     9
100
AcDbLine
 10
1308.914245449157
 20
961.7062886171216
 30
0.0
 11
1319.51972250014
 21
972.3117656681045
 31
0.0
  0
LINE
  5
11D
330
10E
100
AcDbEntity
  8
11
  6
Continuous
 62
    16
370
     9
100
AcDbLine
 10
1305.682974942457
 20
961.8691306601177
 30
0.0
 11
1316.125609950444
 21
972.3117656681045
 31
0.0
  0
LINE
  5
11E
330
10E
100
AcDbEntity
  8
11
  6
Continuous
 62
    16
370
     9
100
AcDbLine
 10
1302.451704435758
 20
962.0319727031138
 30
0.0
 11
1312.731497400749
 21
972.3117656681045
 31
0.0
  0
LINE
  5
11F
330
10E
100
AcDbEntity
  8
11
  6
Continuous
 62
    16
370
     9
100
AcDbLine
 10
1299.220433929059
 20
962.1948147461098
 30
0.0
 11
1309.337384851053
 21
972.3117656681045
 31
0.0
  0
LINE
  5
120
330
10E
100
AcDbEntity
  8
11
  6
Continuous
 62
    16
370
     9
100
AcDbLine
 10
1295.989163422359
 20
962.3576567891059
 30
0.0
 11
1305.943272301358
 21
972.3117656681045
 31
0.0
  0
LINE
  5
121
330
10E
100
AcDbEntity
  8
11
  6
Continuous
 62
    16
370
     9
100
AcDbLine
 10
1292.75789291566
 20
962.520498832102
 30
0.0
 11
1302.549159751663
 21
972.3117656681045
 31
0.0
  0
LINE
  5
122
330
10E
100
AcDbEntity
  8
11
  6
Continuous
 62
    16
370
     9
100
AcDbLine
 10
1289.526622408961
 20
962.6833408750981
 30
0.0
 11
1299.155047201967
 21
972.3117656681045
 31
0.0
  0
LINE
  5
123
330
10E
100
AcDbEntity
  8
11
  6
Continuous
 62
    16
370
     9
100
AcDbLine
 10
1286.295351902261
 20
962.8461829180942
 30
0.0
 11
1295.760934652272
 21
972.3117656681045
 31
0.0
  0
LINE
  5
124
330
10E
100
AcDbEntity
  8
11
  6
Continuous
 62
    16
370
     9
100
AcDbLine
 10
1283.064081395562
 20
963.0090249610903
 30
0.0
 11
1292.366822102576
 21
972.3117656681045
 31
0.0
  0
LINE
  5
125
330
10E
100
AcDbEntity
  8
11
  6
Continuous
 62
    16
370
     9
100
AcDbLine
 10
1279.832810888863
 20
963.1718670040864
 30
0.0
 11
1288.972709552881
 21
972.3117656681046
 31
0.0
  0
LINE
  5
126
330
10E
100
AcDbEntity
  8
11
  6
Continuous
 62
    16
370
     9
100
AcDbLine
 10
1276.601540382163
 20
963.3347090470826
 30
0.0
 11
1285.578597003185
 21
972.3117656681046
 31
0.0
  0
LINE
  5
127
330
10E
100
AcDbEntity
  8
11
  6
Continuous
 62
    16
370
     9
100
AcDbLine
 10
1273.370269875464
 20
963.4975510900787
 30
0.0
 11
1282.18448445349
 21
972.3117656681046
 31
0.0
  0
LINE
  5
128
330
10E
100
AcDbEntity
  8
11
  6
Continuous
 62
    16
370
     9
100
AcDbLine
 10
1270.138999368765
 20
963.6603931330748
 30
0.0
 11
1278.790371903794
 21
972.3117656681046
 31
0.0
  0
LINE
  5
129
330
10E
100
AcDbEntity
  8
11
  6
Continuous
 62
    16
370
     9
100
AcDbLine
 10
1266.907728862065
 20
963.8232351760709
 30
0.0
 11
1275.396259354099
 21
972.3117656681046
 31
0.0
  0
LINE
  5
12A
330
10E
100
AcDbEntity
  8
11
  6
Continuous
 62
    16
370
     9
100
AcDbLine
 10
1264.380952362324
 20
964.6905712260245
 30
0.0
 11
1272.002146804404
 21
972.3117656681047
 31
0.0
  0
LINE
  5
12B
330
10E
100
AcDbEntity
  8
11
  6
Continuous
 62
    16
370
     9
100
AcDbLine
 10
1265.822912848251
 20
969.5266442616479
 30
0.0
 11
1268.608034254708
 21
972.3117656681047
 31
0.0
  0
ENDBLK
  5
110
330
10E
100
AcDbEntity
  8
0
100
AcDbBlockEnd
  0
BLOCK
  5
12F
330
12E
100
AcDbEntity
  8
0
100
AcDbBlockBegin
  2
*G15
 70
     1
 71
     0
 10
0.0
 20
0.0
 30
0.0
  3
*G15
  1

  0
INSERT
  5
14E
330
12E
100
AcDbEntity
  8
0
100
AcDbBlockReference
  2
*G16
 10
0.0
 20
0.0
 30
0.0
  0
ENDBLK
  5
130
330
12E
100
AcDbEntity
  8
0
100
AcDbBlockEnd
  0
BLOCK
  5
132
330
131
100
AcDbEntity
  8
0
100
AcDbBlockBegin
  2
*G16
 70
     1
 71
     0
 10
0.0
 20
0.0
 30
0.0
  3
*G16
  1

  0
LINE
  5
134
330
131
100
AcDbEntity
  8
11
  6
Continuous
 62
    16
370
     9
100
AcDbLine
 10
1330.237315991705
 20
897.3117656681045
 30
0.0
 11
1331.742754266166
 21
898.8172039425654
 31
0.0
  0
LINE
  5
135
330
131
100
AcDbEntity
  8
11
  6
Continuous
 62
    16
370
     9
100
AcDbLine
 10
1326.84320344201
 20
897.3117656681045
 30
0.0
 11
1331.742754266166
 21
902.2113164922607
 31
0.0
  0
LINE
  5
136
330
131
100
AcDbEntity
  8
11
  6
Continuous
 62
    16
370
     9
100
AcDbLine
 10
1323.449090892314
 20
897.3117656681045
 30
0.0
 11
1331.742754266166
 21
905.6054290419562
 31
0.0
  0
LINE
  5
137
330
131
100
AcDbEntity
  8
11
  6
Continuous
 62
    16
370
     9
100
AcDbLine
 10
1320.054978342619
 20
897.3117656681045
 30
0.0
 11
1330.554978342619
 21
907.8117656681045
 31
0.0
  0
LINE
  5
138
330
131
100
AcDbEntity
  8
11
  6
Continuous
 62
    16
370
     9
100
AcDbLine
 10
1316.660865792924
 20
897.3117656681045
 30
0.0
 11
1327.160865792924
 21
907.8117656681045
 31
0.0
  0
LINE
  5
139
330
131
100
AcDbEntity
  8
11
  6
Continuous
 62
    16
370
     9
100
AcDbLine
 10
1313.266753243228
 20
897.3117656681045
 30
0.0
 11
1321.266753243228
 21
905.3117656681045
 31
0.0
  0
LINE
  5
13A
330
131
100
AcDbEntity
  8
11
  6
Continuous
 62
    16
370
     9
100
AcDbLine
 10
1323.742754266166
 20
907.7877666910425
 30
0.0
 11
1323.766753243228
 21
907.8117656681045
 31
0.0
  0
LINE
  5
13B
330
131
100
AcDbEntity
  8
11
  6
Continuous
 62
    16
370
     9
100
AcDbLine
 10
1309.872640693533
 20
897.3117656681045
 30
0.0
 11
1316.342754266166
 21
903.7818792407379
 31
0.0
  0
LINE
  5
13C
330
131
100
AcDbEntity
  8
11
  6
Continuous
 62
    16
370
     9
100
AcDbLine
 10
1316.742754266166
 20
904.181879240738
 30
0.0
 11
1317.872640693533
 21
905.3117656681045
 31
0.0
  0
LINE
  5
13D
330
131
100
AcDbEntity
  8
11
  6
Continuous
 62
    16
370
     9
100
AcDbLine
 10
1306.478528143837
 20
897.3117656681045
 30
0.0
 11
1316.342754266166
 21
907.1759917904334
 31
0.0
  0
LINE
  5
13E
330
131
100
AcDbEntity
  8
11
  6
Continuous
 62
    16
370
     9
100
AcDbLine
 10
1303.084415594142
 20
897.3117656681045
 30
0.0
 11
1316.342754266166
 21
910.5701043401289
 31
0.0
  0
LINE
  5
13F
330
131
100
AcDbEntity
  8
11
  6
Continuous
 62
    16
370
     9
100
AcDbLine
 10
1299.690303044446
 20
897.3117656681045
 30
0.0
 11
1316.342754266166
 21
913.9642168898242
 31
0.0
  0
LINE
  5
140
330
131
100
AcDbEntity
  8
11
  6
Continuous
 62
    16
370
     9
100
AcDbLine
 10
1296.296190494751
 20
897.3117656681045
 30
0.0
 11
1314.296190494751
 21
915.3117656681045
 31
0.0
  0
LINE
  5
141
330
131
100
AcDbEntity
  8
11
  6
Continuous
 62
    16
370
     9
100
AcDbLine
 10
1292.902077945056
 20
897.3117656681045
 30
0.0
 11
1310.902077945056
 21
915.3117656681045
 31
0.0
  0
LINE
  5
142
330
131
100
AcDbEntity
  8
11
  6
Continuous
 62
    16
370
     9
100
AcDbLine
 10
1289.50796539536
 20
897.3117656681045
 30
0.0
 11
1297.50796539536
 21
905.3117656681045
 31
0.0
  0
LINE
  5
143
330
131
100
AcDbEntity
  8
11
  6
Continuous
 62
    16
370
     9
100
AcDbLine
 10
1297.742754266166
 20
905.5465545389105
 30
0.0
 11
1307.50796539536
 21
915.3117656681045
 31
0.0
  0
LINE
  5
144
330
131
100
AcDbEntity
  8
11
  6
Continuous
 62
    16
370
     9
100
AcDbLine
 10
1286.113852845665
 20
897.3117656681045
 30
0.0
 11
1294.113852845665
 21
905.3117656681045
 31
0.0
  0
LINE
  5
145
330
131
100
AcDbEntity
  8
11
  6
Continuous
 62
    16
370
     9
100
AcDbLine
 10
1297.766445274022
 20
908.9643580964616
 30
0.0
 11
1304.113852845665
 21
915.3117656681045
 31
0.0
  0
LINE
  5
146
330
131
100
AcDbEntity
  8
11
  6
Continuous
 62
    16
370
     9
100
AcDbLine
 10
1290.719740295969
 20
905.3117656681045
 30
0.0
 11
1282.719740295969
 21
897.3117656681045
 31
0.0
  0
LINE
  5
147
330
131
100
AcDbEntity
  8
11
  6
Continuous
 62
    16
370
     9
100
AcDbLine
 10
1287.325627746274
 20
905.3117656681045
 30
0.0
 11
1279.325627746274
 21
897.3117656681045
 31
0.0
  0
LINE
  5
148
330
131
100
AcDbEntity
  8
11
  6
Continuous
 62
    16
370
     9
100
AcDbLine
 10
1283.931515196578
 20
905.3117656681045
 30
0.0
 11
1275.931515196578
 21
897.3117656681045
 31
0.0
  0
LINE
  5
149
330
131
100
AcDbEntity
  8
11
  6
Continuous
 62
    16
370
     9
100
AcDbLine
 10
1280.537402646883
 20
905.3117656681044
 30
0.0
 11
1272.537402646883
 21
897.3117656681045
 31
0.0
  0
LINE
  5
14A
330
131
100
AcDbEntity
  8
11
  6
Continuous
 62
    16
370
     9
100
AcDbLine
 10
1277.143290097188
 20
905.3117656681044
 30
0.0
 11
1269.143290097188
 21
897.3117656681045
 31
0.0
  0
LINE
  5
14B
330
131
100
AcDbEntity
  8
11
  6
Continuous
 62
    16
370
     9
100
AcDbLine
 10
1273.749177547492
 20
905.3117656681044
 30
0.0
 11
1266.759673268411
 21
898.322261389023
 31
0.0
  0
LINE
  5
14C
330
131
100
AcDbEntity
  8
11
  6
Continuous
 62
    16
370
     9
100
AcDbLine
 10
1270.355064997797
 20
905.3117656681044
 30
0.0
 11
1265.90060375942
 21
900.8573044297277
 31
0.0
  0
LINE
  5
14D
330
131
100
AcDbEntity
  8
11
  6
Continuous
 62
    16
370
     9
100
AcDbLine
 10
1266.960952448101
 20
905.3117656681044
 30
0.0
 11
1265.093237351485
 21
903.4440505714886
 31
0.0
  0
ENDBLK
  5
133
330
131
100
AcDbEntity
  8
0
100
AcDbBlockEnd
  0
BLOCK
  5
151
330
150
100
AcDbEntity
  8
0
100
AcDbBlockBegin
  2
*G17
 70
     1
 71
     0
 10
0.0
 20
0.0
 30
0.0
  3
*G17
  1

  0
INSERT
  5
15D
330
150
100
AcDbEntity
  8
0
100
AcDbBlockReference
  2
*G18
 10
0.0
 20
0.0
 30
0.0
  0
ENDBLK
  5
152
330
150
100
AcDbEntity
  8
0
100
AcDbBlockEnd
  0
BLOCK
  5
154
330
153
100
AcDbEntity
  8
0
100
AcDbBlockBegin
  2
*G18
 70
     1
 71
     0
 10
0.0
 20
0.0
 30
0.0
  3
*G18
  1

  0
LINE
  5
156
330
153
100
AcDbEntity
  8
11
  6
Continuous
 62
    16
370
     9
100
AcDbLine
 10
1330.36617744575
 20
917.8117656681045
 30
0.0
 11
1331.742754266166
 21
919.188342488521
 31
0.0
  0
LINE
  5
157
330
153
100
AcDbEntity
  8
11
  6
Continuous
 62
    16
370
     9
100
AcDbLine
 10
1326.972064896054
 20
917.8117656681045
 30
0.0
 11
1331.742754266166
 21
922.5824550382165
 31
0.0
  0
LINE
  5
158
330
153
100
AcDbEntity
  8
11
  6
Continuous
 62
    16
370
     9
100
AcDbLine
 10
1331.077952346359
 20
925.3117656681045
 30
0.0
 11
1323.742754266166
 21
917.9765675879119
 31
0.0
  0
LINE
  5
159
330
153
100
AcDbEntity
  8
11
  6
Continuous
 62
    16
370
     9
100
AcDbLine
 10
1327.683839796664
 20
925.3117656681045
 30
0.0
 11
1322.683839796664
 21
920.3117656681045
 31
0.0
  0
LINE
  5
15A
330
153
100
AcDbEntity
  8
11
  6
Continuous
 62
    16
370
     9
100
AcDbLine
 10
1324.289727246968
 20
925.3117656681045
 30
0.0
 11
1319.289727246968
 21
920.3117656681045
 31
0.0
  0
LINE
  5
15B
330
153
100
AcDbEntity
  8
11
  6
Continuous
 62
    16
370
     9
100
AcDbLine
 10
1320.895614697273
 20
925.3117656681045
 30
0.0
 11
1316.742754266166
 21
921.1589052369982
 31
0.0
  0
LINE
  5
15C
330
153
100
AcDbEntity
  8
11
  6
Continuous
 62
    16
370
     9
100
AcDbLine
 10
1317.501502147577
 20
925.3117656681045
 30
0.0
 11
1316.742754266166
 21
924.5530177866935
 31
0.0
  0
ENDBLK
  5
155
330
153
100
AcDbEntity
  8
0
100
AcDbBlockEnd
  0
BLOCK
  5
160
330
15F
100
AcDbEntity
  8
0
100
AcDbBlockBegin
  2
*G19
 70
     1
 71
     0
 10
0.0
 20
0.0
 30
0.0
  3
*G19
  1

  0
INSERT
  5
17F
330
15F
100
AcDbEntity
  8
0
100
AcDbBlockReference
  2
*G20
 10
0.0
 20
0.0
 30
0.0
  0
ENDBLK
  5
161
330
15F
100
AcDbEntity
  8
0
100
AcDbBlockEnd
  0
BLOCK
  5
163
330
162
100
AcDbEntity
  8
0
100
AcDbBlockBegin
  2
*G20
 70
     1
 71
     0
 10
0.0
 20
0.0
 30
0.0
  3
*G20
  1

  0
LINE
  5
165
330
162
100
AcDbEntity
  8
11
  6
Continuous
 62
    16
370
     9
100
AcDbLine
 10
1476.211693001518
 20
963.8047859930233
 30
0.0
 11
1478.663653723812
 21
966.2567467153174
 31
0.0
  0
LINE
  5
166
330
162
100
AcDbEntity
  8
11
  6
Continuous
 62
    16
370
     9
100
AcDbLine
 10
1472.637454296597
 20
963.6246598377979
 30
0.0
 11
1477.874946282306
 21
968.8621518235065
 31
0.0
  0
LINE
  5
167
330
162
100
AcDbEntity
  8
11
  6
Continuous
 62
    16
370
     9
100
AcDbLine
 10
1469.063215591676
 20
963.4445336825725
 30
0.0
 11
1477.033850305913
 21
971.4151683968095
 31
0.0
  0
LINE
  5
168
330
162
100
AcDbEntity
  8
11
  6
Continuous
 62
    16
370
     9
100
AcDbLine
 10
1465.488976886756
 20
963.2644075273471
 30
0.0
 11
1474.536335027513
 21
972.3117656681042
 31
0.0
  0
LINE
  5
169
330
162
100
AcDbEntity
  8
11
  6
Continuous
 62
    16
370
     9
100
AcDbLine
 10
1461.914738181835
 20
963.0842813721217
 30
0.0
 11
1471.142222477817
 21
972.3117656681042
 31
0.0
  0
LINE
  5
16A
330
162
100
AcDbEntity
  8
11
  6
Continuous
 62
    16
370
     9
100
AcDbLine
 10
1458.340499476914
 20
962.9041552168962
 30
0.0
 11
1467.748109928122
 21
972.3117656681043
 31
0.0
  0
LINE
  5
16B
330
162
100
AcDbEntity
  8
11
  6
Continuous
 62
    16
370
     9
100
AcDbLine
 10
1454.766260771993
 20
962.724029061671
 30
0.0
 11
1464.353997378426
 21
972.3117656681043
 31
0.0
  0
LINE
  5
16C
330
162
100
AcDbEntity
  8
11
  6
Continuous
 62
    16
370
     9
100
AcDbLine
 10
1451.192022067072
 20
962.5439029064455
 30
0.0
 11
1460.959884828731
 21
972.3117656681043
 31
0.0
  0
LINE
  5
16D
330
162
100
AcDbEntity
  8
11
  6
Continuous
 62
    16
370
     9
100
AcDbLine
 10
1447.617783362151
 20
962.3637767512201
 30
0.0
 11
1457.565772279036
 21
972.3117656681043
 31
0.0
  0
LINE
  5
16E
330
162
100
AcDbEntity
  8
11
  6
Continuous
 62
    16
370
     9
100
AcDbLine
 10
1444.043544657231
 20
962.1836505959948
 30
0.0
 11
1454.17165972934
 21
972.3117656681043
 31
0.0
  0
LINE
  5
16F
330
162
100
AcDbEntity
  8
11
  6
Continuous
 62
    16
370
     9
100
AcDbLine
 10
1423.777547179645
 20
945.3117656681045
 30
0.0
 11
1426.742754266168
 21
948.2769727546276
 31
0.0
  0
LINE
  5
170
330
162
100
AcDbEntity
  8
11
  6
Continuous
 62
    16
370
     9
100
AcDbLine
 10
1440.46930595231
 20
962.0035244407693
 30
0.0
 11
1450.777547179645
 21
972.3117656681043
 31
0.0
  0
LINE
  5
171
330
162
100
AcDbEntity
  8
11
  6
Continuous
 62
    16
370
     9
100
AcDbLine
 10
1420.38343462995
 20
945.3117656681045
 30
0.0
 11
1426.742754266168
 21
951.671085304323
 31
0.0
  0
LINE
  5
172
330
162
100
AcDbEntity
  8
11
  6
Continuous
 62
    16
370
     9
100
AcDbLine
 10
1436.895067247389
 20
961.8233982855439
 30
0.0
 11
1447.383434629949
 21
972.3117656681043
 31
0.0
  0
LINE
  5
173
330
162
100
AcDbEntity
  8
11
  6
Continuous
 62
    16
370
     9
100
AcDbLine
 10
1416.989322080254
 20
945.3117656681045
 30
0.0
 11
1426.742754266168
 21
955.0651978540184
 31
0.0
  0
LINE
  5
174
330
162
100
AcDbEntity
  8
11
  6
Continuous
 62
    16
370
     9
100
AcDbLine
 10
1433.320828542468
 20
961.6432721303186
 30
0.0
 11
1443.989322080254
 21
972.3117656681043
 31
0.0
  0
LINE
  5
175
330
162
100
AcDbEntity
  8
11
  6
Continuous
 62
    16
370
     9
100
AcDbLine
 10
1413.595209530559
 20
945.3117656681045
 30
0.0
 11
1426.742754266168
 21
958.4593104037139
 31
0.0
  0
LINE
  5
176
330
162
100
AcDbEntity
  8
11
  6
Continuous
 62
    16
370
     9
100
AcDbLine
 10
1429.746589837547
 20
961.4631459750931
 30
0.0
 11
1440.595209530558
 21
972.3117656681043
 31
0.0
  0
LINE
  5
177
330
162
100
AcDbEntity
  8
11
  6
Continuous
 62
    16
370
     9
100
AcDbLine
 10
1411.742754266168
 20
946.8534229534093
 30
0.0
 11
1437.201096980863
 21
972.3117656681043
 31
0.0
  0
LINE
  5
178
330
162
100
AcDbEntity
  8
11
  6
Continuous
 62
    16
370
     9
100
AcDbLine
 10
1411.742754266168
 20
950.2475355031047
 30
0.0
 11
1433.806984431168
 21
972.3117656681043
 31
0.0
  0
LINE
  5
179
330
162
100
AcDbEntity
  8
11
  6
Continuous
 62
    16
370
     9
100
AcDbLine
 10
1411.742754266168
 20
953.6416480528002
 30
0.0
 11
1430.412871881472
 21
972.3117656681044
 31
0.0
  0
LINE
  5
17A
330
162
100
AcDbEntity
  8
11
  6
Continuous
 62
    16
370
     9
100
AcDbLine
 10
1411.742754266168
 20
957.0357606024957
 30
0.0
 11
1427.018759331777
 21
972.3117656681044
 31
0.0
  0
LINE
  5
17B
330
162
100
AcDbEntity
  8
11
  6
Continuous
 62
    16
370
     9
100
AcDbLine
 10
1411.742754266168
 20
960.429873152191
 30
0.0
 11
1423.624646782082
 21
972.3117656681044
 31
0.0
  0
LINE
  5
17C
330
162
100
AcDbEntity
  8
11
  6
Continuous
 62
    16
370
     9
100
AcDbLine
 10
1411.742754266168
 20
963.8239857018864
 30
0.0
 11
1420.230534232386
 21
972.3117656681044
 31
0.0
  0
LINE
  5
17D
330
162
100
AcDbEntity
  8
11
  6
Continuous
 62
    16
370
     9
100
AcDbLine
 10
1411.742754266168
 20
967.2180982515819
 30
0.0
 11
1416.836421682691
 21
972.3117656681045
 31
0.0
  0
LINE
  5
17E
330
162
100
AcDbEntity
  8
11
  6
Continuous
 62
    16
370
     9
100
AcDbLine
 10
1411.742754266168
 20
970.6122108012773
 30
0.0
 11
1413.442309132995
 21
972.3117656681045
 31
0.0
  0
ENDBLK
  5
164
330
162
100
AcDbEntity
  8
0
100
AcDbBlockEnd
  0
BLOCK
  5
182
330
181
100
AcDbEntity
  8
0
100
AcDbBlockBegin
  2
*G21
 70
     1
 71
     0
 10
0.0
 20
0.0
 30
0.0
  3
*G21
  1

  0
INSERT
  5
18D
330
181
100
AcDbEntity
  8
0
100
AcDbBlockReference
  2
*G22
 10
0.0
 20
0.0
 30
0.0
  0
ENDBLK
  5
183
330
181
100
AcDbEntity
  8
0
100
AcDbBlockEnd
  0
BLOCK
  5
185
330
184
100
AcDbEntity
  8
0
100
AcDbBlockBegin
  2
*G22
 70
     1
 71
     0
 10
0.0
 20
0.0
 30
0.0
  3
*G22
  1

  0
LINE
  5
187
330
184
100
AcDbEntity
  8
11
  6
Continuous
 62
    16
370
     9
100
AcDbLine
 10
1425.867686696292
 20
920.3117656681045
 30
0.0
 11
1426.742754266168
 21
921.1868332379801
 31
0.0
  0
LINE
  5
188
330
184
100
AcDbEntity
  8
11
  6
Continuous
 62
    16
370
     9
100
AcDbLine
 10
1422.473574146597
 20
920.3117656681045
 30
0.0
 11
1426.742754266168
 21
924.5809457876755
 31
0.0
  0
LINE
  5
189
330
184
100
AcDbEntity
  8
11
  6
Continuous
 62
    16
370
     9
100
AcDbLine
 10
1416.579461596902
 20
917.8117656681045
 30
0.0
 11
1424.079461596902
 21
925.3117656681045
 31
0.0
  0
LINE
  5
18A
330
184
100
AcDbEntity
  8
11
  6
Continuous
 62
    16
370
     9
100
AcDbLine
 10
1413.185349047206
 20
917.8117656681045
 30
0.0
 11
1420.685349047206
 21
925.3117656681045
 31
0.0
  0
LINE
  5
18B
330
184
100
AcDbEntity
  8
11
  6
Continuous
 62
    16
370
     9
100
AcDbLine
 10
1411.742754266168
 20
919.7632834367619
 30
0.0
 11
1417.291236497511
 21
925.3117656681045
 31
0.0
  0
LINE
  5
18C
330
184
100
AcDbEntity
  8
11
  6
Continuous
 62
    16
370
     9
100
AcDbLine
 10
1411.742754266168
 20
923.1573959864572
 30
0.0
 11
1413.897123947815
 21
925.3117656681045
 31
0.0
  0
ENDBLK
  5
186
330
184
100
AcDbEntity
  8
0
100
AcDbBlockEnd
  0
BLOCK
  5
190
330
18F
100
AcDbEntity
  8
0
100
AcDbBlockBegin
  2
*G23
 70
     1
 71
     0
 10
0.0
 20
0.0
 30
0.0
  3
*G23
  1

  0
INSERT
  5
1AF
330
18F
100
AcDbEntity
  8
0
100
AcDbBlockReference
  2
*G24
 10
0.0
 20
0.0
 30
0.0
  0
ENDBLK
  5
191
330
18F
100
AcDbEntity
  8
0
100
AcDbBlockEnd
  0
BLOCK
  5
193
330
192
100
AcDbEntity
  8
0
100
AcDbBlockBegin
  2
*G24
 70
     1
 71
     0
 10
0.0
 20
0.0
 30
0.0
  3
*G24
  1

  0
LINE
  5
195
330
192
100
AcDbEntity
  8
11
  6
Continuous
 62
    16
370
     9
100
AcDbLine
 10
1474.704701229164
 20
897.3117656681046
 30
0.0
 11
1477.256108111457
 21
899.8631725503974
 31
0.0
  0
LINE
  5
196
330
192
100
AcDbEntity
  8
11
  6
Continuous
 62
    16
370
     9
100
AcDbLine
 10
1471.310588679469
 20
897.3117656681046
 30
0.0
 11
1478.783801920539
 21
904.7849789091749
 31
0.0
  0
LINE
  5
197
330
192
100
AcDbEntity
  8
11
  6
Continuous
 62
    16
370
     9
100
AcDbLine
 10
1467.916476129773
 20
897.3117656681046
 30
0.0
 11
1475.916476129773
 21
905.3117656681046
 31
0.0
  0
LINE
  5
198
330
192
100
AcDbEntity
  8
11
  6
Continuous
 62
    16
370
     9
100
AcDbLine
 10
1464.522363580078
 20
897.3117656681046
 30
0.0
 11
1472.522363580078
 21
905.3117656681045
 31
0.0
  0
LINE
  5
199
330
192
100
AcDbEntity
  8
11
  6
Continuous
 62
    16
370
     9
100
AcDbLine
 10
1461.128251030382
 20
897.3117656681045
 30
0.0
 11
1469.128251030382
 21
905.3117656681045
 31
0.0
  0
LINE
  5
19A
330
192
100
AcDbEntity
  8
11
  6
Continuous
 62
    16
370
     9
100
AcDbLine
 10
1457.734138480687
 20
897.3117656681045
 30
0.0
 11
1465.734138480687
 21
905.3117656681045
 31
0.0
  0
LINE
  5
19B
330
192
100
AcDbEntity
  8
11
  6
Continuous
 62
    16
370
     9
100
AcDbLine
 10
1454.340025930991
 20
897.3117656681045
 30
0.0
 11
1462.340025930991
 21
905.3117656681045
 31
0.0
  0
LINE
  5
19C
330
192
100
AcDbEntity
  8
11
  6
Continuous
 62
    16
370
     9
100
AcDbLine
 10
1450.945913381296
 20
897.3117656681045
 30
0.0
 11
1458.945913381296
 21
905.3117656681045
 31
0.0
  0
LINE
  5
19D
330
192
100
AcDbEntity
  8
11
  6
Continuous
 62
    16
370
     9
100
AcDbLine
 10
1447.5518008316
 20
897.3117656681045
 30
0.0
 11
1455.5518008316
 21
905.3117656681045
 31
0.0
  0
LINE
  5
19E
330
192
100
AcDbEntity
  8
11
  6
Continuous
 62
    16
370
     9
100
AcDbLine
 10
1444.157688281905
 20
897.3117656681045
 30
0.0
 11
1452.157688281905
 21
905.3117656681045
 31
0.0
  0
LINE
  5
19F
330
192
100
AcDbEntity
  8
11
  6
Continuous
 62
    16
370
     9
100
AcDbLine
 10
1440.76357573221
 20
897.3117656681045
 30
0.0
 11
1448.763575732209
 21
905.3117656681045
 31
0.0
  0
LINE
  5
1A0
330
192
100
AcDbEntity
  8
11
  6
Continuous
 62
    16
370
     9
100
AcDbLine
 10
1437.369463182514
 20
897.3117656681045
 30
0.0
 11
1445.742754266168
 21
905.6850567517586
 31
0.0
  0
LINE
  5
1A1
330
192
100
AcDbEntity
  8
11
  6
Continuous
 62
    16
370
     9
100
AcDbLine
 10
1433.975350632819
 20
897.3117656681045
 30
0.0
 11
1445.712514025106
 21
909.0489290603923
 31
0.0
  0
LINE
  5
1A2
330
192
100
AcDbEntity
  8
11
  6
Continuous
 62
    16
370
     9
100
AcDbLine
 10
1430.581238083123
 20
897.3117656681045
 30
0.0
 11
1445.048189221791
 21
911.7787168067725
 31
0.0
  0
LINE
  5
1A3
330
192
100
AcDbEntity
  8
11
  6
Continuous
 62
    16
370
     9
100
AcDbLine
 10
1427.187125533428
 20
897.3117656681045
 30
0.0
 11
1443.787791148292
 21
913.9124312829683
 31
0.0
  0
LINE
  5
1A4
330
192
100
AcDbEntity
  8
11
  6
Continuous
 62
    16
370
     9
100
AcDbLine
 10
1423.793012983732
 20
897.3117656681045
 30
0.0
 11
1441.793012983732
 21
915.3117656681044
 31
0.0
  0
LINE
  5
1A5
330
192
100
AcDbEntity
  8
11
  6
Continuous
 62
    16
370
     9
100
AcDbLine
 10
1420.398900434037
 20
897.3117656681045
 30
0.0
 11
1426.742754266168
 21
903.6556195002356
 31
0.0
  0
LINE
  5
1A6
330
192
100
AcDbEntity
  8
11
  6
Continuous
 62
    16
370
     9
100
AcDbLine
 10
1427.142754266168
 20
904.0556195002355
 30
0.0
 11
1438.398900434037
 21
915.3117656681044
 31
0.0
  0
LINE
  5
1A7
330
192
100
AcDbEntity
  8
11
  6
Continuous
 62
    16
370
     9
100
AcDbLine
 10
1417.004787884342
 20
897.3117656681045
 30
0.0
 11
1425.004787884342
 21
905.3117656681045
 31
0.0
  0
LINE
  5
1A8
330
192
100
AcDbEntity
  8
11
  6
Continuous
 62
    16
370
     9
100
AcDbLine
 10
1427.142754266168
 20
907.449732049931
 30
0.0
 11
1435.004787884342
 21
915.3117656681044
 31
0.0
  0
LINE
  5
1A9
330
192
100
AcDbEntity
  8
11
  6
Continuous
 62
    16
370
     9
100
AcDbLine
 10
1413.610675334646
 20
897.3117656681045
 30
0.0
 11
1421.610675334646
 21
905.3117656681045
 31
0.0
  0
LINE
  5
1AA
330
192
100
AcDbEntity
  8
11
  6
Continuous
 62
    16
370
     9
100
AcDbLine
 10
1427.142754266168
 20
910.8438445996264
 30
0.0
 11
1431.610675334646
 21
915.3117656681045
 31
0.0
  0
LINE
  5
1AB
330
192
100
AcDbEntity
  8
11
  6
Continuous
 62
    16
370
     9
100
AcDbLine
 10
1411.742754266168
 20
898.8379571493219
 30
0.0
 11
1419.742754266168
 21
906.8379571493219
 31
0.0
  0
LINE
  5
1AC
330
192
100
AcDbEntity
  8
11
  6
Continuous
 62
    16
370
     9
100
AcDbLine
 10
1427.142754266168
 20
914.2379571493218
 30
0.0
 11
1428.216562784951
 21
915.3117656681045
 31
0.0
  0
LINE
  5
1AD
330
192
100
AcDbEntity
  8
11
  6
Continuous
 62
    16
370
     9
100
AcDbLine
 10
1411.742754266168
 20
902.2320696990173
 30
0.0
 11
1417.322450235255
 21
907.8117656681045
 31
0.0
  0
LINE
  5
1AE
330
192
100
AcDbEntity
  8
11
  6
Continuous
 62
    16
370
     9
100
AcDbLine
 10
1411.742754266168
 20
905.6261822487128
 30
0.0
 11
1413.92833768556
 21
907.8117656681045
 31
0.0
  0
ENDBLK
  5
194
330
192
100
AcDbEntity
  8
0
100
AcDbBlockEnd
  0
BLOCK
  5
1B8
330
1B7
100
AcDbEntity
  8
0
100
AcDbBlockBegin
  2
*G25
 70
     1
 71
     0
 10
0.0
 20
0.0
 30
0.0
  3
*G25
  1

  0
INSERT
  5
1DA
330
1B7
100
AcDbEntity
  8
0
100
AcDbBlockReference
  2
*G26
 10
0.0
 20
0.0
 30
0.0
  0
ENDBLK
  5
1B9
330
1B7
100
AcDbEntity
  8
0
100
AcDbBlockEnd
  0
BLOCK
  5
1BB
330
1BA
100
AcDbEntity
  8
0
100
AcDbBlockBegin
  2
*G26
 70
     1
 71
     0
 10
0.0
 20
0.0
 30
0.0
  3
*G26
  1

  0
LINE
  5
1BD
330
1BA
100
AcDbEntity
  8
11
  6
Continuous
 62
    16
370
     9
100
AcDbLine
 10
1426.742754266168
 20
932.1922316652924
 30
0.0
 11
1423.763284109904
 21
943.3117656681045
 31
0.0
  0
LINE
  5
1BE
330
1BA
100
AcDbEntity
  8
11
  6
Continuous
 62
    16
370
     9
100
AcDbLine
 10
1423.70231123108
 20
927.3117656681045
 30
0.0
 11
1419.415124152182
 21
943.3117656681045
 31
0.0
  0
LINE
  5
1BF
330
1BA
100
AcDbEntity
  8
11
  6
Continuous
 62
    16
370
     9
100
AcDbLine
 10
1419.354151273357
 20
927.3117656681045
 30
0.0
 11
1415.06696419446
 21
943.3117656681045
 31
0.0
  0
LINE
  5
1C0
330
1BA
100
AcDbEntity
  8
11
  6
Continuous
 62
    16
370
     9
100
AcDbLine
 10
1415.005991315635
 20
927.3117656681045
 30
0.0
 11
1410.718804236737
 21
943.3117656681045
 31
0.0
  0
LINE
  5
1C1
330
1BA
100
AcDbEntity
  8
11
  6
Continuous
 62
    16
370
     9
100
AcDbLine
 10
1410.657831357913
 20
927.3117656681045
 30
0.0
 11
1406.370644279015
 21
943.3117656681045
 31
0.0
  0
LINE
  5
1C2
330
1BA
100
AcDbEntity
  8
11
  6
Continuous
 62
    16
370
     9
100
AcDbLine
 10
1406.30967140019
 20
927.3117656681045
 30
0.0
 11
1402.022484321292
 21
943.3117656681045
 31
0.0
  0
LINE
  5
1C3
330
1BA
100
AcDbEntity
  8
11
  6
Continuous
 62
    16
370
     9
100
AcDbLine
 10
1401.961511442468
 20
927.3117656681045
 30
0.0
 11
1397.67432436357
 21
943.3117656681045
 31
0.0
  0
LINE
  5
1C4
330
1BA
100
AcDbEntity
  8
11
  6
Continuous
 62
    16
370
     9
100
AcDbLine
 10
1397.613351484746
 20
927.3117656681045
 30
0.0
 11
1393.326164405848
 21
943.3117656681045
 31
0.0
  0
LINE
  5
1C5
330
1BA
100
AcDbEntity
  8
11
  6
Continuous
 62
    16
370
     9
100
AcDbLine
 10
1393.265191527023
 20
927.3117656681045
 30
0.0
 11
1388.978004448125
 21
943.3117656681045
 31
0.0
  0
LINE
  5
1C6
330
1BA
100
AcDbEntity
  8
11
  6
Continuous
 62
    16
370
     9
100
AcDbLine
 10
1388.917031569301
 20
927.3117656681045
 30
0.0
 11
1384.629844490403
 21
943.3117656681045
 31
0.0
  0
LINE
  5
1C7
330
1BA
100
AcDbEntity
  8
11
  6
Continuous
 62
    16
370
     9
100
AcDbLine
 10
1384.568871611579
 20
927.3117656681045
 30
0.0
 11
1380.281684532681
 21
943.3117656681045
 31
0.0
  0
LINE
  5
1C8
330
1BA
100
AcDbEntity
  8
11
  6
Continuous
 62
    16
370
     9
100
AcDbLine
 10
1380.220711653856
 20
927.3117656681045
 30
0.0
 11
1375.933524574958
 21
943.3117656681045
 31
0.0
  0
LINE
  5
1C9
330
1BA
100
AcDbEntity
  8
11
  6
Continuous
 62
    16
370
     9
100
AcDbLine
 10
1375.872551696134
 20
927.3117656681045
 30
0.0
 11
1371.585364617236
 21
943.3117656681045
 31
0.0
  0
LINE
  5
1CA
330
1BA
100
AcDbEntity
  8
11
  6
Continuous
 62
    16
370
     9
100
AcDbLine
 10
1371.524391738412
 20
927.3117656681045
 30
0.0
 11
1367.237204659514
 21
943.3117656681045
 31
0.0
  0
LINE
  5
1CB
330
1BA
100
AcDbEntity
  8
11
  6
Continuous
 62
    16
370
     9
100
AcDbLine
 10
1367.176231780689
 20
927.3117656681045
 30
0.0
 11
1362.889044701791
 21
943.3117656681045
 31
0.0
  0
LINE
  5
1CC
330
1BA
100
AcDbEntity
  8
11
  6
Continuous
 62
    16
370
     9
100
AcDbLine
 10
1362.828071822967
 20
927.3117656681045
 30
0.0
 11
1358.540884744069
 21
943.3117656681045
 31
0.0
  0
LINE
  5
1CD
330
1BA
100
AcDbEntity
  8
11
  6
Continuous
 62
    16
370
     9
100
AcDbLine
 10
1358.479911865245
 20
927.3117656681045
 30
0.0
 11
1354.192724786347
 21
943.3117656681045
 31
0.0
  0
LINE
  5
1CE
330
1BA
100
AcDbEntity
  8
11
  6
Continuous
 62
    16
370
     9
100
AcDbLine
 10
1354.131751907522
 20
927.3117656681045
 30
0.0
 11
1349.844564828624
 21
943.3117656681045
 31
0.0
  0
LINE
  5
1CF
330
1BA
100
AcDbEntity
  8
11
  6
Continuous
 62
    16
370
     9
100
AcDbLine
 10
1349.7835919498
 20
927.3117656681045
 30
0.0
 11
1345.496404870902
 21
943.3117656681045
 31
0.0
  0
LINE
  5
1D0
330
1BA
100
AcDbEntity
  8
11
  6
Continuous
 62
    16
370
     9
100
AcDbLine
 10
1345.435431992078
 20
927.3117656681045
 30
0.0
 11
1341.148244913179
 21
943.3117656681045
 31
0.0
  0
LINE
  5
1D1
330
1BA
100
AcDbEntity
  8
11
  6
Continuous
 62
    16
370
     9
100
AcDbLine
 10
1341.087272034355
 20
927.3117656681045
 30
0.0
 11
1336.800084955457
 21
943.3117656681045
 31
0.0
  0
LINE
  5
1D2
330
1BA
100
AcDbEntity
  8
11
  6
Continuous
 62
    16
370
     9
100
AcDbLine
 10
1336.739112076633
 20
927.3117656681045
 30
0.0
 11
1332.451924997735
 21
943.3117656681045
 31
0.0
  0
LINE
  5
1D3
330
1BA
100
AcDbEntity
  8
11
  6
Continuous
 62
    16
370
     9
100
AcDbLine
 10
1332.39095211891
 20
927.3117656681045
 30
0.0
 11
1328.103765040013
 21
943.3117656681045
 31
0.0
  0
LINE
  5
1D4
330
1BA
100
AcDbEntity
  8
11
  6
Continuous
 62
    16
370
     9
100
AcDbLine
 10
1328.042792161188
 20
927.3117656681045
 30
0.0
 11
1323.75560508229
 21
943.3117656681045
 31
0.0
  0
LINE
  5
1D5
330
1BA
100
AcDbEntity
  8
11
  6
Continuous
 62
    16
370
     9
100
AcDbLine
 10
1323.694632203466
 20
927.3117656681045
 30
0.0
 11
1319.407445124568
 21
943.3117656681045
 31
0.0
  0
LINE
  5
1D6
330
1BA
100
AcDbEntity
  8
11
  6
Continuous
 62
    16
370
     9
100
AcDbLine
 10
1316.742754266166
 20
937.0289734564672
 30
0.0
 11
1319.346472245743
 21
927.3117656681045
 31
0.0
  0
LINE
  5
1D7
330
1BA
100
AcDbEntity
  8
11
  6
Continuous
 62
    16
370
     9
100
AcDbLine
 10
1299.742754266166
 20
935.5636216585125
 30
0.0
 11
1297.666645335956
 21
943.3117656681045
 31
0.0
  0
LINE
  5
1D8
330
1BA
100
AcDbEntity
  8
11
  6
Continuous
 62
    16
370
     9
100
AcDbLine
 10
1297.605672457132
 20
927.3117656681045
 30
0.0
 11
1293.318485378234
 21
943.3117656681045
 31
0.0
  0
LINE
  5
1D9
330
1BA
100
AcDbEntity
  8
11
  6
Continuous
 62
    16
370
     9
100
AcDbLine
 10
1290.742754266168
 20
936.6969711633132
 30
0.0
 11
1293.257512499409
 21
927.3117656681045
 31
0.0
  0
ENDBLK
  5
1BC
330
1BA
100
AcDbEntity
  8
0
100
AcDbBlockEnd
  0
BLOCK
  5
1DD
330
1DC
100
AcDbEntity
  8
0
100
AcDbBlockBegin
  2
*G27
 70
     1
 71
     0
 10
0.0
 20
0.0
 30
0.0
  3
*G27
  1

  0
LINE
  5
1DF
330
1DC
100
AcDbEntity
  8
14
  6
Continuous
 62
     7
370
     9
100
AcDbLine
 10
1270.266424589724
 20
798.9756851089725
 30
0.0
 11
1428.583177869227
 21
923.1756851089741
 31
0.0
  0
LINE
  5
1E0
330
1DC
100
AcDbEntity
  8
14
  6
Continuous
 62
     7
370
     9
100
AcDbLine
 10
1428.583177869227
 20
923.1756851089741
 30
0.0
 11
1421.380530061083
 21
913.5776715357479
 31
0.0
  0
LINE
  5
1E1
330
1DC
100
AcDbEntity
  8
14
  6
Continuous
 62
     7
370
     9
100
AcDbLine
 10
1428.583177869227
 20
923.1756851089741
 30
0.0
 11
1417.546495106249
 21
918.4648854327644
 31
0.0
  0
ENDBLK
  5
1DE
330
1DC
100
AcDbEntity
  8
0
100
AcDbBlockEnd
  0
BLOCK
  5
21D
330
21C
100
AcDbEntity
  8
0
100
AcDbBlockBegin
  2
Dim1
 70
     0
 71
     0
 10
0.0
 20
0.0
 30
0.0
  3
Dim1
  1

  0
LINE
  5
21F
330
21C
100
AcDbEntity
  8
6
  6
Continuous
 62
     7
370
     9
100
AcDbLine
 10
673.0652485016026
 20
920.4200321885111
 30
0.0
 11
673.0652485016028
 21
842.9200321885108
 31
0.0
  0
LINE
  5
220
330
21C
100
AcDbEntity
  8
6
  6
Continuous
 62
     7
370
     9
100
AcDbLine
 10
679.0652485016026
 20
920.4200321885111
 30
0.0
 11
622.8652485016028
 21
920.4200321885115
 31
0.0
  0
LINE
  5
221
330
21C
100
AcDbEntity
  8
6
  6
Continuous
 62
     7
370
     9
100
AcDbLine
 10
679.0652485016028
 20
842.9200321885108
 30
0.0
 11
625.0652485016027
 21
842.9200321885113
 31
0.0
  0
LINE
  5
222
330
21C
100
AcDbEntity
  8
6
  6
Continuous
 62
     7
370
     9
100
AcDbLine
 10
673.0652485016026
 20
920.4200321885111
 30
0.0
 11
676.1710770428328
 21
908.8289222730423
 31
0.0
  0
LINE
  5
223
330
21C
100
AcDbEntity
  8
6
  6
Continuous
 62
     7
370
     9
100
AcDbLine
 10
673.0652485016026
 20
920.4200321885111
 30
0.0
 11
669.9594199603723
 21
908.8289222730423
 31
0.0
  0
LINE
  5
224
330
21C
100
AcDbEntity
  8
6
  6
Continuous
 62
     7
370
     9
100
AcDbLine
 10
673.0652485016028
 20
842.9200321885108
 30
0.0
 11
669.9594199603725
 21
854.5111421039796
 31
0.0
  0
LINE
  5
225
330
21C
100
AcDbEntity
  8
6
  6
Continuous
 62
     7
370
     9
100
AcDbLine
 10
673.0652485016028
 20
842.9200321885108
 30
0.0
 11
676.1710770428331
 21
854.5111421039796
 31
0.0
  0
MTEXT
  5
226
330
21C
100
AcDbEntity
  8
6
  6
Continuous
 62
     7
370
     9
100
AcDbMText
 10
664.0652485016027
 20
881.670032188511
 30
0.0
 40
18.0
 41
0.0
 71
     8
 72
     1
  1
77.5
 11
2.832769448823990E-16
 21
1.0
 31
0.0
 73
     1
 44
1.0
  0
ENDBLK
  5
21E
330
21C
100
AcDbEntity
  8
0
100
AcDbBlockEnd
  0
BLOCK
  5
24B
330
24A
100
AcDbEntity
  8
0
100
AcDbBlockBegin
  2
Dim2
 70
     0
 71
     0
 10
0.0
 20
0.0
 30
0.0
  3
Dim2
  1

  0
LINE
  5
24D
330
24A
100
AcDbEntity
  8
6
  6
Continuous
 62
     7
370
     9
100
AcDbLine
 10
822.5602452589598
 20
920.4200324446879
 30
0.0
 11
822.5602452589598
 21
882.9200324446888
 31
0.0
  0
LINE
  5
24E
330
24A
100
AcDbEntity
  8
6
  6
Continuous
 62
     7
370
     9
100
AcDbLine
 10
816.5602452589598
 20
920.4200324446879
 30
0.0
 11
864.5602452589598
 21
920.4200324446876
 31
0.0
  0
LINE
  5
24F
330
24A
100
AcDbEntity
  8
6
  6
Continuous
 62
     7
370
     9
100
AcDbLine
 10
816.5602452589598
 20
882.9200324446888
 30
0.0
 11
862.5602452589598
 21
882.9200324446886
 31
0.0
  0
LINE
  5
250
330
24A
100
AcDbEntity
  8
6
  6
Continuous
 62
     7
370
     9
100
AcDbLine
 10
822.5602452589598
 20
920.4200324446879
 30
0.0
 11
825.6660738001899
 21
908.8289225292191
 31
0.0
  0
LINE
  5
251
330
24A
100
AcDbEntity
  8
6
  6
Continuous
 62
     7
370
     9
100
AcDbLine
 10
822.5602452589598
 20
920.4200324446879
 30
0.0
 11
819.4544167177295
 21
908.8289225292191
 31
0.0
  0
LINE
  5
252
330
24A
100
AcDbEntity
  8
6
  6
Continuous
 62
     7
370
     9
100
AcDbLine
 10
822.5602452589598
 20
882.9200324446888
 30
0.0
 11
819.4544167177295
 21
894.5111423601576
 31
0.0
  0
LINE
  5
253
330
24A
100
AcDbEntity
  8
6
  6
Continuous
 62
     7
370
     9
100
AcDbLine
 10
822.5602452589598
 20
882.9200324446888
 30
0.0
 11
825.66607380019
 21
894.5111423601576
 31
0.0
  0
MTEXT
  5
254
330
24A
100
AcDbEntity
  8
6
  6
Continuous
 62
     7
370
     9
100
AcDbMText
 10
813.5602452589598
 20
901.6700324446883
 30
0.0
 40
18.0
 41
0.0
 71
     8
 72
     1
  1
37.5
 11
1.615544574432587E-15
 21
1.0
 31
0.0
 73
     1
 44
1.0
  0
ENDBLK
  5
24C
330
24A
100
AcDbEntity
  8
0
100
AcDbBlockEnd
  0
BLOCK
  5
28E
330
28D
100
AcDbEntity
  8
0
100
AcDbBlockBegin
  2
Dim3
 70
     0
 71
     0
 10
0.0
 20
0.0
 30
0.0
  3
Dim3
  1

  0
LINE
  5
290
330
28D
100
AcDbEntity
  8
6
  6
Continuous
 62
     7
370
     9
100
AcDbLine
 10
673.0652485016026
 20
282.4200324946725
 30
0.0
 11
673.0652485016028
 21
359.9200324946727
 31
0.0
  0
LINE
  5
291
330
28D
100
AcDbEntity
  8
6
  6
Continuous
 62
     7
370
     9
100
AcDbLine
 10
679.0652485016026
 20
282.4200324946725
 30
0.0
 11
622.8652485016028
 21
282.420032494672
 31
0.0
  0
LINE
  5
292
330
28D
100
AcDbEntity
  8
6
  6
Continuous
 62
     7
370
     9
100
AcDbLine
 10
679.0652485016028
 20
359.9200324946727
 30
0.0
 11
625.0652485016027
 21
359.9200324946722
 31
0.0
  0
LINE
  5
293
330
28D
100
AcDbEntity
  8
6
  6
Continuous
 62
     7
370
     9
100
AcDbLine
 10
673.0652485016026
 20
282.4200324946725
 30
0.0
 11
669.9594199603723
 21
294.0111424101413
 31
0.0
  0
LINE
  5
294
330
28D
100
AcDbEntity
  8
6
  6
Continuous
 62
     7
370
     9
100
AcDbLine
 10
673.0652485016026
 20
282.4200324946725
 30
0.0
 11
676.1710770428328
 21
294.0111424101412
 31
0.0
  0
LINE
  5
295
330
28D
100
AcDbEntity
  8
6
  6
Continuous
 62
     7
370
     9
100
AcDbLine
 10
673.0652485016028
 20
359.9200324946727
 30
0.0
 11
676.1710770428331
 21
348.3289225792038
 31
0.0
  0
LINE
  5
296
330
28D
100
AcDbEntity
  8
6
  6
Continuous
 62
     7
370
     9
100
AcDbLine
 10
673.0652485016028
 20
359.9200324946727
 30
0.0
 11
669.9594199603725
 21
348.3289225792039
 31
0.0
  0
MTEXT
  5
297
330
28D
100
AcDbEntity
  8
6
  6
Continuous
 62
     7
370
     9
100
AcDbMText
 10
664.0652485016027
 20
321.1700324946726
 30
0.0
 40
18.0
 41
0.0
 71
     8
 72
     1
  1
77.5
 11
2.947812203982775E-15
 21
1.0
 31
0.0
 73
     1
 44
1.0
  0
ENDBLK
  5
28F
330
28D
100
AcDbEntity
  8
0
100
AcDbBlockEnd
  0
BLOCK
  5
2BC
330
2BB
100
AcDbEntity
  8
0
100
AcDbBlockBegin
  2
Dim4
 70
     0
 71
     0
 10
0.0
 20
0.0
 30
0.0
  3
Dim4
  1

  0
LINE
  5
2BE
330
2BB
100
AcDbEntity
  8
6
  6
Continuous
 62
     7
370
     9
100
AcDbLine
 10
822.5602452589598
 20
282.4200324946733
 30
0.0
 11
822.5602452589598
 21
319.9200324946723
 31
0.0
  0
LINE
  5
2BF
330
2BB
100
AcDbEntity
  8
6
  6
Continuous
 62
     7
370
     9
100
AcDbLine
 10
816.5602452589598
 20
282.4200324946733
 30
0.0
 11
864.5602452589598
 21
282.4200324946734
 31
0.0
  0
LINE
  5
2C0
330
2BB
100
AcDbEntity
  8
6
  6
Continuous
 62
     7
370
     9
100
AcDbLine
 10
816.5602452589598
 20
319.9200324946723
 30
0.0
 11
862.5602452589598
 21
319.9200324946725
 31
0.0
  0
LINE
  5
2C1
330
2BB
100
AcDbEntity
  8
6
  6
Continuous
 62
     7
370
     9
100
AcDbLine
 10
822.5602452589598
 20
282.4200324946733
 30
0.0
 11
819.4544167177295
 21
294.0111424101421
 31
0.0
  0
LINE
  5
2C2
330
2BB
100
AcDbEntity
  8
6
  6
Continuous
 62
     7
370
     9
100
AcDbLine
 10
822.5602452589598
 20
282.4200324946733
 30
0.0
 11
825.66607380019
 21
294.011142410142
 31
0.0
  0
LINE
  5
2C3
330
2BB
100
AcDbEntity
  8
6
  6
Continuous
 62
     7
370
     9
100
AcDbLine
 10
822.5602452589598
 20
319.9200324946723
 30
0.0
 11
825.66607380019
 21
308.3289225792035
 31
0.0
  0
LINE
  5
2C4
330
2BB
100
AcDbEntity
  8
6
  6
Continuous
 62
     7
370
     9
100
AcDbLine
 10
822.5602452589598
 20
319.9200324946723
 30
0.0
 11
819.4544167177295
 21
308.3289225792035
 31
0.0
  0
MTEXT
  5
2C5
330
2BB
100
AcDbEntity
  8
6
  6
Continuous
 62
     7
370
     9
100
AcDbMText
 10
813.5602452589598
 20
301.1700324946728
 30
0.0
 40
18.0
 41
0.0
 71
     8
 72
     1
  1
37.5
 11
1.615544574432587E-15
 21
1.0
 31
0.0
 73
     1
 44
1.0
  0
ENDBLK
  5
2BD
330
2BB
100
AcDbEntity
  8
0
100
AcDbBlockEnd
  0
BLOCK
  5
2CB
330
2CA
100
AcDbEntity
  8
0
100
AcDbBlockBegin
  2
Dim5
 70
     0
 71
     0
 10
0.0
 20
0.0
 30
0.0
  3
Dim5
  1

  0
LINE
  5
2CD
330
2CA
100
AcDbEntity
  8
6
  6
Continuous
 62
     7
370
     9
100
AcDbLine
 10
317.365248195453
 20
920.4200321885112
 30
0.0
 11
317.365248195453
 21
282.4200324946717
 31
0.0
  0
LINE
  5
2CE
330
2CA
100
AcDbEntity
  8
6
  6
Continuous
 62
     7
370
     9
100
AcDbLine
 10
311.365248195453
 20
920.4200321885112
 30
0.0
 11
413.3652481954557
 21
920.4200321885112
 31
0.0
  0
LINE
  5
2CF
330
2CA
100
AcDbEntity
  8
6
  6
Continuous
 62
     7
370
     9
100
AcDbLine
 10
311.365248195453
 20
282.4200324946717
 30
0.0
 11
413.3652481954557
 21
282.4200324946717
 31
0.0
  0
LINE
  5
2D0
330
2CA
100
AcDbEntity
  8
6
  6
Continuous
 62
     7
370
     9
100
AcDbLine
 10
317.365248195453
 20
920.4200321885112
 30
0.0
 11
320.4710767366832
 21
908.8289222730424
 31
0.0
  0
LINE
  5
2D1
330
2CA
100
AcDbEntity
  8
6
  6
Continuous
 62
     7
370
     9
100
AcDbLine
 10
317.365248195453
 20
920.4200321885112
 30
0.0
 11
314.2594196542228
 21
908.8289222730424
 31
0.0
  0
LINE
  5
2D2
330
2CA
100
AcDbEntity
  8
6
  6
Continuous
 62
     7
370
     9
100
AcDbLine
 10
317.365248195453
 20
282.4200324946717
 30
0.0
 11
314.2594196542228
 21
294.0111424101405
 31
0.0
  0
LINE
  5
2D3
330
2CA
100
AcDbEntity
  8
6
  6
Continuous
 62
     7
370
     9
100
AcDbLine
 10
317.365248195453
 20
282.4200324946717
 30
0.0
 11
320.4710767366832
 21
294.0111424101405
 31
0.0
  0
MTEXT
  5
2D4
330
2CA
100
AcDbEntity
  8
6
  6
Continuous
 62
     7
370
     9
100
AcDbMText
 10
308.365248195453
 20
601.4200323415914
 30
0.0
 40
18.0
 41
0.0
 71
     8
 72
     1
  1
\W1.000000;\A1;638±2
 11
1.393499969507555E-15
 21
1.0
 31
0.0
 73
     1
 44
1.0
  0
ENDBLK
  5
2CC
330
2CA
100
AcDbEntity
  8
0
100
AcDbBlockEnd
  0
BLOCK
  5
2DA
330
2D9
100
AcDbEntity
  8
0
100
AcDbBlockBegin
  2
Dim6
 70
     0
 71
     0
 10
0.0
 20
0.0
 30
0.0
  3
Dim6
  1

  0
LINE
  5
2DC
330
2D9
100
AcDbEntity
  8
6
  6
Continuous
 62
     7
370
     9
100
AcDbLine
 10
966.0602452589615
 20
301.4200324946708
 30
0.0
 11
966.0602452589615
 21
901.420032444687
 31
0.0
  0
LINE
  5
2DD
330
2D9
100
AcDbEntity
  8
6
  6
Continuous
 62
     7
370
     9
100
AcDbLine
 10
972.0602452589615
 20
301.4200324946707
 30
0.0
 11
918.8309225574588
 21
301.4200324946715
 31
0.0
  0
LINE
  5
2DE
330
2D9
100
AcDbEntity
  8
6
  6
Continuous
 62
     7
370
     9
100
AcDbLine
 10
972.0602452589615
 20
901.4200324446869
 30
0.0
 11
918.83092255746
 21
901.4200324446875
 31
0.0
  0
LINE
  5
2DF
330
2D9
100
AcDbEntity
  8
6
  6
Continuous
 62
     7
370
     9
100
AcDbLine
 10
966.0602452589615
 20
301.4200324946708
 30
0.0
 11
962.9544167177312
 21
313.0111424101397
 31
0.0
  0
LINE
  5
2E0
330
2D9
100
AcDbEntity
  8
6
  6
Continuous
 62
     7
370
     9
100
AcDbLine
 10
966.0602452589615
 20
301.4200324946708
 30
0.0
 11
969.1660738001917
 21
313.0111424101396
 31
0.0
  0
LINE
  5
2E1
330
2D9
100
AcDbEntity
  8
6
  6
Continuous
 62
     7
370
     9
100
AcDbLine
 10
966.0602452589615
 20
901.420032444687
 30
0.0
 11
969.1660738001917
 21
889.8289225292182
 31
0.0
  0
LINE
  5
2E2
330
2D9
100
AcDbEntity
  8
6
  6
Continuous
 62
     7
370
     9
100
AcDbLine
 10
966.0602452589615
 20
901.420032444687
 30
0.0
 11
962.9544167177312
 21
889.8289225292182
 31
0.0
  0
MTEXT
  5
2E3
330
2D9
100
AcDbEntity
  8
6
  6
Continuous
 62
     7
370
     9
100
AcDbMText
 10
957.0602452589615
 20
601.4200324696789
 30
0.0
 40
18.0
 41
0.0
 71
     8
 72
     1
  1
\W1.000000;\A1;600±2
 11
1.615544574432587E-15
 21
1.0
 31
0.0
 73
     1
 44
1.0
  0
ENDBLK
  5
2DB
330
2D9
100
AcDbEntity
  8
0
100
AcDbBlockEnd
  0
BLOCK
  5
2E7
330
2E6
100
AcDbEntity
  8
0
100
AcDbBlockBegin
  2
Dim7
 70
     0
 71
     0
 10
0.0
 20
0.0
 30
0.0
  3
Dim7
  1

  0
LINE
  5
2E9
330
2E6
100
AcDbEntity
  8
6
  6
Continuous
 62
     7
370
     9
100
AcDbLine
 10
365.365248195453
 20
859.4200321885138
 30
0.0
 11
365.365248195453
 21
343.4200321885138
 31
0.0
  0
LINE
  5
2EA
330
2E6
100
AcDbEntity
  8
6
  6
Continuous
 62
     7
370
     9
100
AcDbLine
 10
359.365248195453
 20
859.4200321885138
 30
0.0
 11
404.9051924321096
 21
859.4200321885136
 31
0.0
  0
LINE
  5
2EB
330
2E6
100
AcDbEntity
  8
6
  6
Continuous
 62
     7
370
     9
100
AcDbLine
 10
359.365248195453
 20
343.4200321885139
 30
0.0
 11
404.9051924321096
 21
343.4200321885135
 31
0.0
  0
LINE
  5
2EC
330
2E6
100
AcDbEntity
  8
6
  6
Continuous
 62
     7
370
     9
100
AcDbLine
 10
365.365248195453
 20
859.4200321885138
 30
0.0
 11
368.4710767366832
 21
847.828922273045
 31
0.0
  0
LINE
  5
2ED
330
2E6
100
AcDbEntity
  8
6
  6
Continuous
 62
     7
370
     9
100
AcDbLine
 10
365.365248195453
 20
859.4200321885138
 30
0.0
 11
362.2594196542228
 21
847.828922273045
 31
0.0
  0
LINE
  5
2EE
330
2E6
100
AcDbEntity
  8
6
  6
Continuous
 62
     7
370
     9
100
AcDbLine
 10
365.365248195453
 20
343.4200321885138
 30
0.0
 11
362.2594196542228
 21
355.0111421039826
 31
0.0
  0
LINE
  5
2EF
330
2E6
100
AcDbEntity
  8
6
  6
Continuous
 62
     7
370
     9
100
AcDbLine
 10
365.365248195453
 20
343.4200321885138
 30
0.0
 11
368.4710767366832
 21
355.0111421039826
 31
0.0
  0
MTEXT
  5
2F0
330
2E6
100
AcDbEntity
  8
6
  6
Continuous
 62
     7
370
     9
100
AcDbMText
 10
356.365248195453
 20
601.4200321885138
 30
0.0
 40
18.0
 41
0.0
 71
     8
 72
     1
  1
\W1.000000;\A1;516±2
 11
1.615544574432587E-15
 21
1.0
 31
0.0
 73
     1
 44
1.0
  0
ENDBLK
  5
2E8
330
2E6
100
AcDbEntity
  8
0
100
AcDbBlockEnd
  0
BLOCK
  5
31D
330
31C
100
AcDbEntity
  8
0
100
AcDbBlockBegin
  2
Dim8
 70
     0
 71
     0
 10
0.0
 20
0.0
 30
0.0
  3
Dim8
  1

  0
LINE
  5
31F
330
31C
100
AcDbEntity
  8
6
  6
Continuous
 62
     7
370
     9
100
AcDbLine
 10
551.3652485016079
 20
647.9268518518525
 30
0.0
 11
649.8571454587241
 21
647.9268518518525
 31
0.0
  0
LINE
  5
320
330
31C
100
AcDbEntity
  8
6
  6
Continuous
 62
     7
370
     9
100
AcDbLine
 10
581.3652485016079
 20
647.9268518518525
 30
0.0
 11
569.7741385861391
 21
644.8210233106223
 31
0.0
  0
LINE
  5
321
330
31C
100
AcDbEntity
  8
6
  6
Continuous
 62
     7
370
     9
100
AcDbLine
 10
581.3652485016079
 20
647.9268518518525
 30
0.0
 11
569.7741385861391
 21
651.0326803930827
 31
0.0
  0
LINE
  5
322
330
31C
100
AcDbEntity
  8
6
  6
Continuous
 62
     7
370
     9
100
AcDbLine
 10
613.3652485015987
 20
647.9268518518525
 30
0.0
 11
624.9563584170675
 21
651.0326803930826
 31
0.0
  0
LINE
  5
323
330
31C
100
AcDbEntity
  8
6
  6
Continuous
 62
     7
370
     9
100
AcDbLine
 10
613.3652485015987
 20
647.9268518518525
 30
0.0
 11
624.9563584170675
 21
644.8210233106222
 31
0.0
  0
MTEXT
  5
324
330
31C
100
AcDbEntity
  8
6
  6
Continuous
 62
     7
370
     9
100
AcDbMText
 10
631.8571454587242
 20
656.9268518518525
 30
0.0
 40
18.0
 41
0.0
 71
     8
 72
     1
  1
φ32
 73
     1
 44
1.0
  0
ENDBLK
  5
31E
330
31C
100
AcDbEntity
  8
0
100
AcDbBlockEnd
  0
BLOCK
  5
327
330
326
100
AcDbEntity
  8
0
100
AcDbBlockBegin
  2
Dim9
 70
     0
 71
     0
 10
0.0
 20
0.0
 30
0.0
  3
Dim9
  1

  0
LINE
  5
329
330
326
100
AcDbEntity
  8
6
  6
Continuous
 62
     7
370
     9
100
AcDbLine
 10
389.7106744368677
 20
511.4200324946626
 30
0.0
 11
485.865193627465
 21
511.4200324946626
 31
0.0
  0
LINE
  5
32A
330
326
100
AcDbEntity
  8
6
  6
Continuous
 62
     7
370
     9
100
AcDbLine
 10
426.8653027634364
 20
511.4200324946626
 30
0.0
 11
415.2741928479675
 21
508.3142039534324
 31
0.0
  0
LINE
  5
32B
330
326
100
AcDbEntity
  8
6
  6
Continuous
 62
     7
370
     9
100
AcDbLine
 10
426.8653027634364
 20
511.4200324946626
 30
0.0
 11
415.2741928479676
 21
514.5258610358928
 31
0.0
  0
LINE
  5
32C
330
326
100
AcDbEntity
  8
6
  6
Continuous
 62
     7
370
     9
100
AcDbLine
 10
455.865193627465
 20
511.4200324946626
 30
0.0
 11
467.4563035429339
 21
514.5258610358927
 31
0.0
  0
LINE
  5
32D
330
326
100
AcDbEntity
  8
6
  6
Continuous
 62
     7
370
     9
100
AcDbLine
 10
455.865193627465
 20
511.4200324946626
 30
0.0
 11
467.4563035429338
 21
508.3142039534322
 31
0.0
  0
MTEXT
  5
32E
330
326
100
AcDbEntity
  8
6
  6
Continuous
 62
     7
370
     9
100
AcDbMText
 10
407.7106744368677
 20
520.4200324946626
 30
0.0
 40
18.0
 41
0.0
 71
     8
 72
     1
  1
φ29
 73
     1
 44
1.0
  0
ENDBLK
  5
328
330
326
100
AcDbEntity
  8
0
100
AcDbBlockEnd
  0
BLOCK
  5
331
330
330
100
AcDbEntity
  8
0
100
AcDbBlockBegin
  2
Dim10
 70
     0
 71
     0
 10
0.0
 20
0.0
 30
0.0
  3
Dim10
  1

  0
LINE
  5
333
330
330
100
AcDbEntity
  8
6
  6
Continuous
 62
     7
370
     9
100
AcDbLine
 10
487.3652481954462
 20
647.9268518518514
 30
0.0
 11
380.6954244104973
 21
647.9268518518517
 31
0.0
  0
LINE
  5
334
330
330
100
AcDbEntity
  8
6
  6
Continuous
 62
     7
370
     9
100
AcDbLine
 10
457.3652481954462
 20
647.9268518518516
 30
0.0
 11
468.956358110915
 21
651.0326803930817
 31
0.0
  0
LINE
  5
335
330
330
100
AcDbEntity
  8
6
  6
Continuous
 62
     7
370
     9
100
AcDbLine
 10
457.3652481954462
 20
647.9268518518516
 30
0.0
 11
468.9563581109149
 21
644.8210233106213
 31
0.0
  0
LINE
  5
336
330
330
100
AcDbEntity
  8
6
  6
Continuous
 62
     7
370
     9
100
AcDbLine
 10
425.3652481954554
 20
647.9268518518516
 30
0.0
 11
413.7741382799865
 21
644.8210233106214
 31
0.0
  0
LINE
  5
337
330
330
100
AcDbEntity
  8
6
  6
Continuous
 62
     7
370
     9
100
AcDbLine
 10
425.3652481954554
 20
647.9268518518516
 30
0.0
 11
413.7741382799866
 21
651.0326803930818
 31
0.0
  0
MTEXT
  5
338
330
330
100
AcDbEntity
  8
6
  6
Continuous
 62
     7
370
     9
100
AcDbMText
 10
398.6954244104973
 20
656.9268518518516
 30
0.0
 40
18.0
 41
0.0
 71
     8
 72
     1
  1
φ32
 73
     1
 44
1.0
  0
ENDBLK
  5
332
330
330
100
AcDbEntity
  8
0
100
AcDbBlockEnd
  0
BLOCK
  5
364
330
363
100
AcDbEntity
  8
0
100
AcDbBlockBegin
  2
Dim11
 70
     0
 71
     0
 10
0.0
 20
0.0
 30
0.0
  3
Dim11
  1

  0
LINE
  5
366
330
363
100
AcDbEntity
  8
6
  6
Continuous
 62
     7
370
     9
100
AcDbLine
 10
425.3652481954557
 20
995.2402863931063
 30
0.0
 11
496.8652481954502
 21
995.2402863931063
 31
0.0
  0
LINE
  5
367
330
363
100
AcDbEntity
  8
6
  6
Continuous
 62
     7
370
     9
100
AcDbLine
 10
425.3652481954557
 20
1001.240286393106
 30
0.0
 11
425.3652481954557
 21
932.4200321885112
 31
0.0
  0
LINE
  5
368
330
363
100
AcDbEntity
  8
6
  6
Continuous
 62
     7
370
     9
100
AcDbLine
 10
496.8652481954502
 20
989.2402863931063
 30
0.0
 11
496.8652481954502
 21
986.3637231486994
 31
0.0
  0
LINE
  5
369
330
363
100
AcDbEntity
  8
6
  6
Continuous
 62
     7
370
     9
100
AcDbLine
 10
425.3652481954557
 20
995.2402863931063
 30
0.0
 11
436.9563581109245
 21
998.3461149343366
 31
0.0
  0
LINE
  5
36A
330
363
100
AcDbEntity
  8
6
  6
Continuous
 62
     7
370
     9
100
AcDbLine
 10
425.3652481954557
 20
995.2402863931063
 30
0.0
 11
436.9563581109245
 21
992.134457851876
 31
0.0
  0
LINE
  5
36B
330
363
100
AcDbEntity
  8
6
  6
Continuous
 62
     7
370
     9
100
AcDbLine
 10
496.8652481954502
 20
995.2402863931063
 30
0.0
 11
485.2741382799814
 21
992.1344578518762
 31
0.0
  0
LINE
  5
36C
330
363
100
AcDbEntity
  8
6
  6
Continuous
 62
     7
370
     9
100
AcDbLine
 10
496.8652481954502
 20
995.2402863931063
 30
0.0
 11
485.2741382799815
 21
998.3461149343366
 31
0.0
  0
MTEXT
  5
36D
330
363
100
AcDbEntity
  8
6
  6
Continuous
 62
     7
370
     9
100
AcDbMText
 10
461.1152481954532
 20
1004.240286393106
 30
0.0
 40
18.0
 41
0.0
 71
     8
 72
     1
  1
72
 73
     1
 44
1.0
  0
ENDBLK
  5
365
330
363
100
AcDbEntity
  8
0
100
AcDbBlockEnd
  0
BLOCK
  5
370
330
36F
100
AcDbEntity
  8
0
100
AcDbBlockBegin
  2
Dim12
 70
     0
 71
     0
 10
0.0
 20
0.0
 30
0.0
  3
Dim12
  1

  0
LINE
  5
372
330
36F
100
AcDbEntity
  8
6
  6
Continuous
 62
     7
370
     9
100
AcDbLine
 10
496.8652481954502
 20
995.2402863931063
 30
0.0
 11
541.8652485016028
 21
995.2402863931063
 31
0.0
  0
LINE
  5
373
330
36F
100
AcDbEntity
  8
6
  6
Continuous
 62
     7
370
     9
100
AcDbLine
 10
541.8652485016028
 20
989.2402863931063
 30
0.0
 11
541.8652485016028
 21
986.3637231486994
 31
0.0
  0
LINE
  5
374
330
36F
100
AcDbEntity
  8
6
  6
Continuous
 62
     7
370
     9
100
AcDbLine
 10
496.8652481954502
 20
995.2402863931063
 30
0.0
 11
508.456358110919
 21
998.3461149343366
 31
0.0
  0
LINE
  5
375
330
36F
100
AcDbEntity
  8
6
  6
Continuous
 62
     7
370
     9
100
AcDbLine
 10
496.8652481954502
 20
995.2402863931063
 30
0.0
 11
508.456358110919
 21
992.134457851876
 31
0.0
  0
LINE
  5
376
330
36F
100
AcDbEntity
  8
6
  6
Continuous
 62
     7
370
     9
100
AcDbLine
 10
541.8652485016028
 20
995.2402863931063
 30
0.0
 11
530.274138586134
 21
992.1344578518762
 31
0.0
  0
LINE
  5
377
330
36F
100
AcDbEntity
  8
6
  6
Continuous
 62
     7
370
     9
100
AcDbLine
 10
541.8652485016028
 20
995.2402863931063
 30
0.0
 11
530.274138586134
 21
998.3461149343366
 31
0.0
  0
MTEXT
  5
378
330
36F
100
AcDbEntity
  8
6
  6
Continuous
 62
     7
370
     9
100
AcDbMText
 10
519.3652483485265
 20
1004.240286393106
 30
0.0
 40
18.0
 41
0.0
 71
     8
 72
     1
  1
20～45
 73
     1
 44
1.0
  0
ENDBLK
  5
371
330
36F
100
AcDbEntity
  8
0
100
AcDbBlockEnd
  0
BLOCK
  5
37B
330
37A
100
AcDbEntity
  8
0
100
AcDbBlockBegin
  2
Dim13
 70
     0
 71
     0
 10
0.0
 20
0.0
 30
0.0
  3
Dim13
  1

  0
LINE
  5
37D
330
37A
100
AcDbEntity
  8
6
  6
Continuous
 62
     7
370
     9
100
AcDbLine
 10
541.8652485016028
 20
995.2402863931063
 30
0.0
 11
613.365248501599
 21
995.2402863931063
 31
0.0
  0
LINE
  5
37E
330
37A
100
AcDbEntity
  8
6
  6
Continuous
 62
     7
370
     9
100
AcDbLine
 10
613.365248501599
 20
1001.240286393106
 30
0.0
 11
613.365248501599
 21
932.4200321885112
 31
0.0
  0
LINE
  5
37F
330
37A
100
AcDbEntity
  8
6
  6
Continuous
 62
     7
370
     9
100
AcDbLine
 10
541.8652485016028
 20
995.2402863931063
 30
0.0
 11
553.4563584170716
 21
998.3461149343366
 31
0.0
  0
LINE
  5
380
330
37A
100
AcDbEntity
  8
6
  6
Continuous
 62
     7
370
     9
100
AcDbLine
 10
541.8652485016028
 20
995.2402863931063
 30
0.0
 11
553.4563584170716
 21
992.134457851876
 31
0.0
  0
LINE
  5
381
330
37A
100
AcDbEntity
  8
6
  6
Continuous
 62
     7
370
     9
100
AcDbLine
 10
613.365248501599
 20
995.2402863931063
 30
0.0
 11
601.7741385861302
 21
992.1344578518762
 31
0.0
  0
LINE
  5
382
330
37A
100
AcDbEntity
  8
6
  6
Continuous
 62
     7
370
     9
100
AcDbLine
 10
613.365248501599
 20
995.2402863931063
 30
0.0
 11
601.7741385861302
 21
998.3461149343366
 31
0.0
  0
MTEXT
  5
383
330
37A
100
AcDbEntity
  8
6
  6
Continuous
 62
     7
370
     9
100
AcDbMText
 10
577.615248501601
 20
1004.240286393106
 30
0.0
 40
18.0
 41
0.0
 71
     8
 72
     1
  1
72
 73
     1
 44
1.0
  0
ENDBLK
  5
37C
330
37A
100
AcDbEntity
  8
0
100
AcDbBlockEnd
  0
BLOCK
  5
386
330
385
100
AcDbEntity
  8
0
100
AcDbBlockBegin
  2
Dim14
 70
     0
 71
     0
 10
0.0
 20
0.0
 30
0.0
  3
Dim14
  1

  0
LINE
  5
388
330
385
100
AcDbEntity
  8
6
  6
Continuous
 62
     7
370
     9
100
AcDbLine
 10
457.3652481954462
 20
647.9268518518516
 30
0.0
 11
496.8652481954424
 21
647.9268518518516
 31
0.0
  0
LINE
  5
389
330
385
100
AcDbEntity
  8
6
  6
Continuous
 62
     7
370
     9
100
AcDbLine
 10
457.3652481954462
 20
647.9268518518516
 30
0.0
 11
468.9563581109149
 21
651.0326803930818
 31
0.0
  0
LINE
  5
38A
330
385
100
AcDbEntity
  8
6
  6
Continuous
 62
     7
370
     9
100
AcDbLine
 10
457.3652481954462
 20
647.9268518518516
 30
0.0
 11
468.9563581109149
 21
644.8210233106213
 31
0.0
  0
LINE
  5
38B
330
385
100
AcDbEntity
  8
6
  6
Continuous
 62
     7
370
     9
100
AcDbLine
 10
496.8652481954424
 20
647.9268518518516
 30
0.0
 11
485.2741382799736
 21
644.8210233106214
 31
0.0
  0
LINE
  5
38C
330
385
100
AcDbEntity
  8
6
  6
Continuous
 62
     7
370
     9
100
AcDbLine
 10
496.8652481954424
 20
647.9268518518516
 30
0.0
 11
485.2741382799736
 21
651.0326803930818
 31
0.0
  0
MTEXT
  5
38D
330
385
100
AcDbEntity
  8
6
  6
Continuous
 62
     7
370
     9
100
AcDbMText
 10
477.1152481954443
 20
656.9268518518516
 30
0.0
 40
18.0
 41
0.0
 71
     8
 72
     1
  1
(40)
 73
     1
 44
1.0
  0
ENDBLK
  5
387
330
385
100
AcDbEntity
  8
0
100
AcDbBlockEnd
  0
ENDSEC
  0
SECTION
  2
ENTITIES
  0
INSERT
  5
9B
330
1F
100
AcDbEntity
  8
0
100
AcDbBlockReference
  2
*G12
 10
0.0
 20
0.0
 30
0.0
  0
LINE
  5
9C
330
1F
100
AcDbEntity
  8
8
  6
Continuous
 62
   171
370
    18
100
AcDbLine
 10
1422.0
 20
216.0
 30
0.0
 11
1422.0
 21
120.0
 31
0.0
  0
TEXT
  5
9D
330
1F
100
AcDbEntity
  8
8
  6
Continuous
 62
   171
370
     9
100
AcDbText
 10
1125.0
 20
117.0
 30
0.0
 40
17.5
  1
備考
 50
-0.0000000000000891
  7
T_STANDARD
100
AcDbText
  0
TEXT
  5
9E
330
1F
100
AcDbEntity
  8
8
  6
Continuous
 62
   171
370
     9
100
AcDbText
 10
1125.0
 20
165.0
 30
0.0
 40
17.5
  1
品番
 50
-0.0000000000000891
  7
T_STANDARD
100
AcDbText
  0
TEXT
  5
9F
330
1F
100
AcDbEntity
  8
8
  6
Continuous
 62
   171
370
     9
100
AcDbText
 10
1125.0
 20
213.0
 30
0.0
 40
17.5
  1
品名
 50
-0.0000000000000891
  7
T_STANDARD
100
AcDbText
  0
LINE
  5
A0
330
1F
100
AcDbEntity
  8
8
  6
Continuous
 62
   171
370
    18
100
AcDbLine
 10
1422.0
 20
168.0
 30
0.0
 11
1110.0
 21
168.0
 31
0.0
  0
LINE
  5
A1
330
1F
100
AcDbEntity
  8
8
  6
Continuous
 62
   171
370
    18
100
AcDbLine
 10
1140.0
 20
216.0
 30
0.0
 11
1140.0
 21
72.0
 31
0.0
  0
LINE
  5
A2
330
1F
100
AcDbEntity
  8
9
  6
Continuous
 62
   170
370
    30
100
AcDbLine
 10
1710.0
 20
216.0
 30
0.0
 11
1110.0
 21
216.0
 31
0.0
  0
LINE
  5
A3
330
1F
100
AcDbEntity
  8
9
  6
Continuous
 62
   170
370
    30
100
AcDbLine
 10
1110.0
 20
216.0
 30
0.0
 11
1110.0
 21
72.0
 31
0.0
  0
LINE
  5
A4
330
1F
100
AcDbEntity
  8
8
  6
Continuous
 62
   171
370
    18
100
AcDbLine
 10
1494.0
 20
216.0
 30
0.0
 11
1494.0
 21
72.0
 31
0.0
  0
TEXT
  5
A5
330
1F
100
AcDbEntity
  8
8
  6
Continuous
 62
   171
370
     9
100
AcDbText
 10
1431.0
 20
192.0
 30
0.0
 40
18.0
  1
縮　尺
 41
0.8333333333333335
100
AcDbText
  0
LINE
  5
A6
330
1F
100
AcDbEntity
  8
8
  6
Continuous
 62
   171
370
    18
100
AcDbLine
 10
1422.0
 20
186.0
 30
0.0
 11
1494.0
 21
186.0
 31
0.0
  0
LINE
  5
A7
330
1F
100
AcDbEntity
  8
8
  6
Continuous
 62
   171
370
    18
100
AcDbLine
 10
1494.0
 20
120.0
 30
0.0
 11
1110.0
 21
120.0
 31
0.0
  0
LINE
  5
A8
330
1F
100
AcDbEntity
  8
8
  6
Continuous
 62
   171
370
    18
100
AcDbLine
 10
1710.0
 20
108.0
 30
0.0
 11
1494.0
 21
108.0
 31
0.0
  0
LINE
  5
A9
330
1F
100
AcDbEntity
  8
8
  6
Continuous
 62
   171
370
    18
100
AcDbLine
 10
1494.0
 20
144.0
 30
0.0
 11
1710.0
 21
144.0
 31
0.0
  0
LINE
  5
AA
330
1F
100
AcDbEntity
  8
8
  6
Continuous
 62
   171
370
    18
100
AcDbLine
 10
1710.0
 20
168.0
 30
0.0
 11
1494.0
 21
168.0
 31
0.0
  0
TEXT
  5
AB
330
1F
100
AcDbEntity
  8
8
  6
Continuous
 62
   171
370
     9
100
AcDbText
 10
1506.0
 20
177.0
 30
0.0
 40
30.0
  1
株式会社シマブン
 41
0.6666666666666666
100
AcDbText
  0
TEXT
  5
AC
330
1F
100
AcDbEntity
  8
8
  6
Continuous
 62
   171
370
     9
100
AcDbText
 10
1503.0
 20
71.99999999999996
 30
0.0
 40
18.0
  1
年月日
 41
0.8333333333333335
100
AcDbText
  0
TEXT
  5
AD
330
1F
100
AcDbEntity
  8
8
  6
Continuous
 62
   171
370
     9
100
AcDbText
 10
1503.0
 20
90.0
 30
0.0
 40
18.0
  1
作　成
 41
0.8333333333333335
100
AcDbText
  0
TEXT
  5
AE
330
1F
100
AcDbEntity
  8
8
  6
Continuous
 62
   171
370
     9
100
AcDbText
 10
1507.5
 20
147.0
 30
0.0
 40
18.0
  1
承 認
 41
0.8333333333333334
100
AcDbText
  0
LINE
  5
AF
330
1F
100
AcDbEntity
  8
8
  6
Continuous
 62
   171
370
    18
100
AcDbLine
 10
1566.0
 20
168.0
 30
0.0
 11
1566.0
 21
72.0
 31
0.0
  0
TEXT
  5
B0
330
1F
100
AcDbEntity
  8
8
  6
Continuous
 62
   171
370
     9
100
AcDbText
 10
1579.5
 20
147.0
 30
0.0
 40
18.0
  1
検 図
 41
0.8333333333333334
100
AcDbText
  0
LINE
  5
B1
330
1F
100
AcDbEntity
  8
8
  6
Continuous
 62
   171
370
    18
100
AcDbLine
 10
1638.0
 20
168.0
 30
0.0
 11
1638.0
 21
108.0
 31
0.0
  0
TEXT
  5
B2
330
1F
100
AcDbEntity
  8
8
  6
Continuous
 62
   171
370
     9
100
AcDbText
 10
1650.0
 20
114.0
 30
0.0
 40
24.0
  1
藤戸
 41
0.8333333333333334
100
AcDbText
  0
TEXT
  5
B3
330
1F
100
AcDbEntity
  8
8
  6
Continuous
 62
   171
370
     9
100
AcDbText
 10
1651.5
 20
147.0
 30
0.0
 40
18.0
  1
設 計
 41
0.8333333333333334
100
AcDbText
  0
LINE
  5
B4
330
1F
100
AcDbEntity
  8
8
  6
Continuous
 62
   171
370
    18
100
AcDbLine
 10
1710.0
 20
1131.0
 30
0.0
 11
1068.0
 21
1131.0
 31
0.0
  0
TEXT
  5
B5
330
1F
100
AcDbEntity
  8
8
  6
Continuous
 62
   171
370
     9
100
AcDbText
 10
1074.0
 20
1134.0
 30
0.0
 40
15.0
  1
記号
 41
0.8333333333333334
100
AcDbText
  0
TEXT
  5
B6
330
1F
100
AcDbEntity
  8
8
  6
Continuous
 62
   171
370
     9
100
AcDbText
 10
1196.25
 20
1134.0
 30
0.0
 40
15.0
  1
訂　 正　 記　 事
 41
0.8333333333333334
100
AcDbText
  0
TEXT
  5
B7
330
1F
100
AcDbEntity
  8
8
  6
Continuous
 62
   171
370
     9
100
AcDbText
 10
1417.5
 20
1134.0
 30
0.0
 40
15.0
  1
訂 正 年 月 日
 41
0.8333333333333335
100
AcDbText
  0
TEXT
  5
B8
330
1F
100
AcDbEntity
  8
8
  6
Continuous
 62
   171
370
     9
100
AcDbText
 10
1567.5
 20
1134.0
 30
0.0
 40
15.0
  1
備　　　　　考
 41
0.8333333333333334
100
AcDbText
  0
LINE
  5
B9
330
1F
100
AcDbEntity
  8
8
  6
Continuous
 62
   171
370
    18
100
AcDbLine
 10
1068.0
 20
1131.0
 30
0.0
 11
1068.0
 21
1151.999999999999
 31
0.0
  0
LINE
  5
BA
330
1F
100
AcDbEntity
  8
8
  6
Continuous
 62
   171
370
    18
100
AcDbLine
 10
1110.0
 20
1131.0
 30
0.0
 11
1110.0
 21
1151.999999999999
 31
0.0
  0
LINE
  5
BB
330
1F
100
AcDbEntity
  8
8
  6
Continuous
 62
   171
370
    18
100
AcDbLine
 10
1410.0
 20
1131.0
 30
0.0
 11
1410.0
 21
1151.999999999999
 31
0.0
  0
LINE
  5
BC
330
1F
100
AcDbEntity
  8
8
  6
Continuous
 62
   171
370
    18
100
AcDbLine
 10
1530.0
 20
1131.0
 30
0.0
 11
1530.0
 21
1151.999999999999
 31
0.0
  0
LINE
  5
BD
330
1F
100
AcDbEntity
  8
11
  6
Continuous
 62
    16
370
     9
100
AcDbLine
 10
1312.742754266166
 20
921.4553592075536
 30
0.0
 11
1312.742754266166
 21
949.1681721286557
 31
0.0
  0
LINE
  5
BE
330
1F
100
AcDbEntity
  8
11
  6
Continuous
 62
    16
370
     9
100
AcDbLine
 10
1299.742754266166
 20
949.1681721286557
 30
0.0
 11
1299.742754266166
 21
921.4553592075536
 31
0.0
  0
LINE
  5
BF
330
1F
100
AcDbEntity
  8
11
  6
Continuous
 62
    16
370
     9
100
AcDbLine
 10
1299.742754266166
 20
949.1681721286557
 30
0.0
 11
1312.742754266166
 21
949.1681721286557
 31
0.0
  0
LINE
  5
C0
330
1F
100
AcDbEntity
  8
11
  6
Continuous
 62
    16
370
     9
100
AcDbLine
 10
1299.742754266166
 20
921.4553592075536
 30
0.0
 11
1312.742754266166
 21
921.4553592075536
 31
0.0
  0
LINE
  5
C1
330
1F
100
AcDbEntity
  8
11
  6
Continuous
 62
    16
370
     9
100
AcDbLine
 10
1312.742754266166
 20
950.7117656681046
 30
0.0
 11
1316.742754266166
 21
950.7117656681046
 31
0.0
  0
LINE
  5
C2
330
1F
100
AcDbEntity
  8
11
  6
Continuous
 62
    16
370
     9
100
AcDbLine
 10
1312.742754266166
 20
919.9117656681046
 30
0.0
 11
1316.742754266166
 21
919.9117656681046
 31
0.0
  0
LINE
  5
C3
330
1F
100
AcDbEntity
  8
11
  6
Continuous
 62
    16
370
     9
100
AcDbLine
 10
1316.742754266166
 20
925.3117656681045
 30
0.0
 11
1316.742754266166
 21
920.3117656681045
 31
0.0
  0
LINE
  5
C4
330
1F
100
AcDbEntity
  8
11
  6
Continuous
 62
    16
370
     9
100
AcDbLine
 10
1316.742754266166
 20
961.3117656681045
 30
0.0
 11
1316.742754266166
 21
945.3117656681045
 31
0.0
  0
LINE
  5
C5
330
1F
100
AcDbEntity
  8
11
  6
Continuous
 62
    16
370
     9
100
AcDbLine
 10
1331.742754266166
 20
925.3117656681045
 30
0.0
 11
1331.742754266166
 21
917.8117656681045
 31
0.0
  0
LINE
  5
C6
330
1F
100
AcDbEntity
  8
11
  6
Continuous
 62
    16
370
     9
100
AcDbLine
 10
1331.742754266166
 20
972.3117656681045
 30
0.0
 11
1331.742754266166
 21
945.3117656681045
 31
0.0
  0
LINE
  5
C7
330
1F
100
AcDbEntity
  8
11
  6
Continuous
 62
    16
370
     9
100
AcDbLine
 10
1331.742754266166
 20
945.3117656681045
 30
0.0
 11
1316.742754266166
 21
945.3117656681045
 31
0.0
  0
LINE
  5
C8
330
1F
100
AcDbEntity
  8
11
  6
Continuous
 62
    16
370
     9
100
AcDbLine
 10
1331.742754266166
 20
925.3117656681045
 30
0.0
 11
1316.742754266166
 21
925.3117656681045
 31
0.0
  0
LINE
  5
C9
330
1F
100
AcDbEntity
  8
11
  6
Continuous
 62
    16
370
     9
100
AcDbLine
 10
1316.742754266166
 20
905.3117656681045
 30
0.0
 11
1316.742754266166
 21
901.3117656681045
 31
0.0
  0
LINE
  5
CA
330
1F
100
AcDbEntity
  8
11
  6
Continuous
 62
    16
370
     9
100
AcDbLine
 10
1331.742754266166
 20
907.8117656681045
 30
0.0
 11
1331.742754266166
 21
901.3117656681045
 31
0.0
  0
LINE
  5
CB
330
1F
100
AcDbEntity
  8
11
  6
Continuous
 62
    16
370
     9
100
AcDbLine
 10
1323.742754266166
 20
920.3117656681045
 30
0.0
 11
1323.742754266166
 21
917.8117656681045
 31
0.0
  0
LINE
  5
CC
330
1F
100
AcDbEntity
  8
11
  6
Continuous
 62
    16
370
     9
100
AcDbLine
 10
1323.742754266166
 20
920.3117656681045
 30
0.0
 11
1316.742754266166
 21
920.3117656681045
 31
0.0
  0
LINE
  5
CD
330
1F
100
AcDbEntity
  8
11
  6
Continuous
 62
    16
370
     9
100
AcDbLine
 10
1331.742754266166
 20
917.8117656681045
 30
0.0
 11
1323.742754266166
 21
917.8117656681045
 31
0.0
  0
LINE
  5
CE
330
1F
100
AcDbEntity
  8
11
  6
Continuous
 62
    16
370
     9
100
AcDbLine
 10
1323.742754266166
 20
905.3117656681045
 30
0.0
 11
1323.742754266166
 21
907.8117656681045
 31
0.0
  0
LINE
  5
CF
330
1F
100
AcDbEntity
  8
11
  6
Continuous
 62
    16
370
     9
100
AcDbLine
 10
1323.742754266166
 20
905.3117656681045
 30
0.0
 11
1316.742754266166
 21
905.3117656681045
 31
0.0
  0
LINE
  5
D0
330
1F
100
AcDbEntity
  8
11
  6
Continuous
 62
    16
370
     9
100
AcDbLine
 10
1331.742754266166
 20
907.8117656681045
 30
0.0
 11
1323.742754266166
 21
907.8117656681045
 31
0.0
  0
LINE
  5
D1
330
1F
100
AcDbEntity
  8
11
  6
Continuous
 62
    16
370
     9
100
AcDbLine
 10
1331.742754266166
 20
901.3117656681045
 30
0.0
 11
1316.742754266166
 21
901.3117656681045
 31
0.0
  0
LINE
  5
D2
330
1F
100
AcDbEntity
  8
11
  6
Continuous
 62
    16
370
     9
100
AcDbLine
 10
1331.742754266166
 20
897.3117656681045
 30
0.0
 11
1331.742754266166
 21
901.3117656681045
 31
0.0
  0
LINE
  5
D3
330
1F
100
AcDbEntity
  8
11
  6
Continuous
 62
    16
370
     9
100
AcDbLine
 10
1331.742754266166
 20
901.3117656681045
 30
0.0
 11
1316.342754266166
 21
901.3117656681045
 31
0.0
  0
LINE
  5
D4
330
1F
100
AcDbEntity
  8
11
  6
Continuous
 62
    16
370
     9
100
AcDbLine
 10
1316.342754266166
 20
901.3117656681045
 30
0.0
 11
1316.342754266166
 21
915.3117656681045
 31
0.0
  0
LINE
  5
D5
330
1F
100
AcDbEntity
  8
11
  6
Continuous
 62
    16
370
     9
100
AcDbLine
 10
1301.085900026166
 20
915.3117656681045
 30
0.0
 11
1316.342754266166
 21
915.3117656681045
 31
0.0
  0
LINE
  5
D6
330
1F
100
AcDbEntity
  8
11
  6
Continuous
 62
    16
370
     9
100
AcDbLine
 10
1297.742754266166
 20
908.3117656681045
 30
0.0
 11
1297.742754266166
 21
905.3117656681045
 31
0.0
  0
ARC
  5
D7
330
1F
100
AcDbEntity
  8
11
  6
Continuous
 62
    16
370
     9
100
AcDbCircle
 10
1306.742754266166
 20
908.3117656681045
 30
0.0
 40
9.0
100
AcDbArc
 50
128.9424412699996
 51
179.9999999999998
  0
LINE
  5
D8
330
1F
100
AcDbEntity
  8
11
  6
Continuous
 62
    16
370
     9
100
AcDbLine
 10
1312.742754266166
 20
950.7117656681046
 30
0.0
 11
1312.742754266166
 21
943.3117656681045
 31
0.0
  0
LINE
  5
D9
330
1F
100
AcDbEntity
  8
11
  6
Continuous
 62
    16
370
     9
100
AcDbLine
 10
1312.742754266166
 20
927.3117656681045
 30
0.0
 11
1312.742754266166
 21
919.9117656681046
 31
0.0
  0
LINE
  5
DA
330
1F
100
AcDbEntity
  8
11
  6
Continuous
 62
    16
370
     9
100
AcDbLine
 10
1316.742754266166
 20
950.7117656681046
 30
0.0
 11
1316.742754266166
 21
919.9117656681046
 31
0.0
  0
LINE
  5
DB
330
1F
100
AcDbEntity
  8
11
  6
Continuous
 62
    16
370
     9
100
AcDbLine
 10
1312.742754266166
 20
942.2181721286559
 30
0.0
 11
1299.742754266166
 21
942.2181721286559
 31
0.0
  0
LINE
  5
DC
330
1F
100
AcDbEntity
  8
11
  6
Continuous
 62
    16
370
     9
100
AcDbLine
 10
1312.742754266166
 20
928.4053592075536
 30
0.0
 11
1299.742754266166
 21
928.4053592075536
 31
0.0
  0
LINE
  5
DD
330
1F
100
AcDbEntity
  8
11
  6
Continuous
 62
    16
370
     9
100
AcDbLine
 10
1411.742754266168
 20
897.3117656681045
 30
0.0
 11
1411.742754266168
 21
901.3117656681045
 31
0.0
  0
LINE
  5
DE
330
1F
100
AcDbEntity
  8
11
  6
Continuous
 62
    16
370
     9
100
AcDbLine
 10
1411.742754266168
 20
901.3117656681045
 30
0.0
 11
1427.142754266168
 21
901.3117656681045
 31
0.0
  0
LINE
  5
DF
330
1F
100
AcDbEntity
  8
11
  6
Continuous
 62
    16
370
     9
100
AcDbLine
 10
1427.142754266168
 20
901.3117656681045
 30
0.0
 11
1427.142754266168
 21
915.3117656681045
 31
0.0
  0
LINE
  5
E0
330
1F
100
AcDbEntity
  8
11
  6
Continuous
 62
    16
370
     9
100
AcDbLine
 10
1442.399608506168
 20
915.3117656681045
 30
0.0
 11
1427.142754266168
 21
915.3117656681045
 31
0.0
  0
LINE
  5
E1
330
1F
100
AcDbEntity
  8
11
  6
Continuous
 62
    16
370
     9
100
AcDbLine
 10
1445.742754266168
 20
908.3117656681045
 30
0.0
 11
1445.742754266168
 21
905.3117656681045
 31
0.0
  0
ARC
  5
E2
330
1F
100
AcDbEntity
  8
11
  6
Continuous
 62
    16
370
     9
100
AcDbCircle
 10
1436.742754266168
 20
908.3117656681045
 30
0.0
 40
9.0
100
AcDbArc
 50
0.0
 51
51.05755873000155
  0
LINE
  5
E3
330
1F
100
AcDbEntity
  8
11
  6
Continuous
 62
    16
370
     9
100
AcDbLine
 10
1430.742754266168
 20
921.4553592075536
 30
0.0
 11
1430.742754266168
 21
949.1681721286557
 31
0.0
  0
LINE
  5
E4
330
1F
100
AcDbEntity
  8
11
  6
Continuous
 62
    16
370
     9
100
AcDbLine
 10
1443.742754266168
 20
949.1681721286557
 30
0.0
 11
1443.742754266168
 21
921.4553592075536
 31
0.0
  0
LINE
  5
E5
330
1F
100
AcDbEntity
  8
11
  6
Continuous
 62
    16
370
     9
100
AcDbLine
 10
1443.742754266168
 20
942.2181721286559
 30
0.0
 11
1430.742754266168
 21
942.2181721286559
 31
0.0
  0
LINE
  5
E6
330
1F
100
AcDbEntity
  8
11
  6
Continuous
 62
    16
370
     9
100
AcDbLine
 10
1443.742754266168
 20
949.1681721286557
 30
0.0
 11
1430.742754266168
 21
949.1681721286557
 31
0.0
  0
LINE
  5
E7
330
1F
100
AcDbEntity
  8
11
  6
Continuous
 62
    16
370
     9
100
AcDbLine
 10
1443.742754266168
 20
928.4053592075536
 30
0.0
 11
1430.742754266168
 21
928.4053592075536
 31
0.0
  0
LINE
  5
E8
330
1F
100
AcDbEntity
  8
11
  6
Continuous
 62
    16
370
     9
100
AcDbLine
 10
1443.742754266168
 20
921.4553592075536
 30
0.0
 11
1430.742754266168
 21
921.4553592075536
 31
0.0
  0
LINE
  5
E9
330
1F
100
AcDbEntity
  8
11
  6
Continuous
 62
    16
370
     9
100
AcDbLine
 10
1430.742754266168
 20
950.7117656681046
 30
0.0
 11
1430.742754266168
 21
919.9117656681046
 31
0.0
  0
LINE
  5
EA
330
1F
100
AcDbEntity
  8
11
  6
Continuous
 62
    16
370
     9
100
AcDbLine
 10
1430.742754266168
 20
950.7117656681046
 30
0.0
 11
1426.742754266168
 21
950.7117656681046
 31
0.0
  0
LINE
  5
EB
330
1F
100
AcDbEntity
  8
11
  6
Continuous
 62
    16
370
     9
100
AcDbLine
 10
1430.742754266168
 20
919.9117656681046
 30
0.0
 11
1426.742754266168
 21
919.9117656681046
 31
0.0
  0
LINE
  5
EC
330
1F
100
AcDbEntity
  8
11
  6
Continuous
 62
    16
370
     9
100
AcDbLine
 10
1426.742754266168
 20
925.3117656681045
 30
0.0
 11
1426.742754266168
 21
920.3117656681045
 31
0.0
  0
LINE
  5
ED
330
1F
100
AcDbEntity
  8
11
  6
Continuous
 62
    16
370
     9
100
AcDbLine
 10
1426.742754266168
 20
961.3117656681045
 30
0.0
 11
1426.742754266168
 21
945.3117656681045
 31
0.0
  0
LINE
  5
EE
330
1F
100
AcDbEntity
  8
11
  6
Continuous
 62
    16
370
     9
100
AcDbLine
 10
1411.742754266168
 20
925.3117656681045
 30
0.0
 11
1411.742754266168
 21
917.8117656681045
 31
0.0
  0
LINE
  5
EF
330
1F
100
AcDbEntity
  8
11
  6
Continuous
 62
    16
370
     9
100
AcDbLine
 10
1411.742754266168
 20
972.3117656681045
 30
0.0
 11
1411.742754266168
 21
945.3117656681045
 31
0.0
  0
LINE
  5
F0
330
1F
100
AcDbEntity
  8
11
  6
Continuous
 62
    16
370
     9
100
AcDbLine
 10
1411.742754266168
 20
945.3117656681045
 30
0.0
 11
1426.742754266168
 21
945.3117656681045
 31
0.0
  0
LINE
  5
F1
330
1F
100
AcDbEntity
  8
11
  6
Continuous
 62
    16
370
     9
100
AcDbLine
 10
1411.742754266168
 20
925.3117656681045
 30
0.0
 11
1426.742754266168
 21
925.3117656681045
 31
0.0
  0
LINE
  5
F2
330
1F
100
AcDbEntity
  8
11
  6
Continuous
 62
    16
370
     9
100
AcDbLine
 10
1426.742754266168
 20
905.3117656681045
 30
0.0
 11
1426.742754266168
 21
901.3117656681045
 31
0.0
  0
LINE
  5
F3
330
1F
100
AcDbEntity
  8
11
  6
Continuous
 62
    16
370
     9
100
AcDbLine
 10
1411.742754266168
 20
907.8117656681045
 30
0.0
 11
1411.742754266168
 21
901.3117656681045
 31
0.0
  0
LINE
  5
F4
330
1F
100
AcDbEntity
  8
11
  6
Continuous
 62
    16
370
     9
100
AcDbLine
 10
1419.742754266168
 20
920.3117656681045
 30
0.0
 11
1419.742754266168
 21
917.8117656681045
 31
0.0
  0
LINE
  5
F5
330
1F
100
AcDbEntity
  8
11
  6
Continuous
 62
    16
370
     9
100
AcDbLine
 10
1419.742754266168
 20
920.3117656681045
 30
0.0
 11
1426.742754266168
 21
920.3117656681045
 31
0.0
  0
LINE
  5
F6
330
1F
100
AcDbEntity
  8
11
  6
Continuous
 62
    16
370
     9
100
AcDbLine
 10
1411.742754266168
 20
917.8117656681045
 30
0.0
 11
1419.742754266168
 21
917.8117656681045
 31
0.0
  0
LINE
  5
F7
330
1F
100
AcDbEntity
  8
11
  6
Continuous
 62
    16
370
     9
100
AcDbLine
 10
1419.742754266168
 20
905.3117656681045
 30
0.0
 11
1419.742754266168
 21
907.8117656681045
 31
0.0
  0
LINE
  5
F8
330
1F
100
AcDbEntity
  8
11
  6
Continuous
 62
    16
370
     9
100
AcDbLine
 10
1419.742754266168
 20
905.3117656681045
 30
0.0
 11
1426.742754266168
 21
905.3117656681045
 31
0.0
  0
LINE
  5
F9
330
1F
100
AcDbEntity
  8
11
  6
Continuous
 62
    16
370
     9
100
AcDbLine
 10
1411.742754266168
 20
907.8117656681045
 30
0.0
 11
1419.742754266168
 21
907.8117656681045
 31
0.0
  0
LINE
  5
FA
330
1F
100
AcDbEntity
  8
11
  6
Continuous
 62
    16
370
     9
100
AcDbLine
 10
1411.742754266168
 20
901.3117656681045
 30
0.0
 11
1426.742754266168
 21
901.3117656681045
 31
0.0
  0
LINE
  5
FB
330
1F
100
AcDbEntity
  8
11
  6
Continuous
 62
    16
370
     9
100
AcDbLine
 10
1426.742754266168
 20
950.7117656681046
 30
0.0
 11
1426.742754266168
 21
919.9117656681046
 31
0.0
  0
CIRCLE
  5
FC
330
1F
100
AcDbEntity
  8
11
  6
Continuous
 62
    16
370
     9
100
AcDbCircle
 10
1371.742753960015
 20
935.3117656681047
 30
0.0
 40
111.308897480445
  0
LINE
  5
FD
330
1F
100
AcDbEntity
  8
11
  6
HIDDEN
 62
    16
370
     9
100
AcDbLine
 10
1331.742754266166
 20
945.3117656681045
 30
0.0
 11
1411.742754266168
 21
945.3117656681045
 31
0.0
  0
LINE
  5
FE
330
1F
100
AcDbEntity
  8
11
  6
HIDDEN
 62
    16
370
     9
100
AcDbLine
 10
1331.742754266166
 20
925.3117656681045
 30
0.0
 11
1411.742754266168
 21
925.3117656681045
 31
0.0
  0
LINE
  5
FF
330
1F
100
AcDbEntity
  8
11
  6
HIDDEN
 62
    16
370
     9
100
AcDbLine
 10
1331.742754266166
 20
945.3117656681045
 30
0.0
 11
1331.742754266166
 21
1039.185105283254
 31
0.0
  0
LINE
  5
100
330
1F
100
AcDbEntity
  8
11
  6
HIDDEN
 62
    16
370
     9
100
AcDbLine
 10
1331.742754266166
 20
925.3117656681045
 30
0.0
 11
1331.742754266166
 21
831.4384260529548
 31
0.0
  0
LINE
  5
101
330
1F
100
AcDbEntity
  8
11
  6
HIDDEN
 62
    16
370
     9
100
AcDbLine
 10
1411.742754266168
 20
945.3117656681045
 30
0.0
 11
1411.742754266168
 21
1039.185105047466
 31
0.0
  0
LINE
  5
102
330
1F
100
AcDbEntity
  8
11
  6
HIDDEN
 62
    16
370
     9
100
AcDbLine
 10
1411.742754266168
 20
925.3117656681045
 30
0.0
 11
1411.742754266168
 21
831.4384262887432
 31
0.0
  0
LINE
  5
103
330
1F
100
AcDbEntity
  8
11
  6
Continuous
 62
    16
370
     9
100
AcDbLine
 10
1476.722136022934
 20
972.3117656681045
 30
0.0
 11
1411.742754266168
 21
972.3117656681045
 31
0.0
  0
LINE
  5
104
330
1F
100
AcDbEntity
  8
11
  6
Continuous
 62
    16
370
     9
100
AcDbLine
 10
1479.301669232337
 20
963.960507416282
 30
0.0
 11
1426.742754266168
 21
961.3117656681045
 31
0.0
  0
LINE
  5
105
330
1F
100
AcDbEntity
  8
11
  6
Continuous
 62
    16
370
     9
100
AcDbLine
 10
1445.742754266168
 20
905.3117656681045
 30
0.0
 11
1478.932635284291
 21
905.3117656681045
 31
0.0
  0
LINE
  5
106
330
1F
100
AcDbEntity
  8
11
  6
Continuous
 62
    16
370
     9
100
AcDbLine
 10
1411.742754266168
 20
897.3117656681045
 30
0.0
 11
1476.364313202421
 21
897.3117656681045
 31
0.0
  0
LINE
  5
107
330
1F
100
AcDbEntity
  8
11
  6
Continuous
 62
    16
370
     9
100
AcDbLine
 10
1266.763371897097
 20
972.3117656681045
 30
0.0
 11
1331.742754266166
 21
972.3117656681045
 31
0.0
  0
LINE
  5
108
330
1F
100
AcDbEntity
  8
11
  6
Continuous
 62
    16
370
     9
100
AcDbLine
 10
1264.183838695803
 20
963.9605074467306
 30
0.0
 11
1316.742754266166
 21
961.3117656681045
 31
0.0
  0
LINE
  5
109
330
1F
100
AcDbEntity
  8
11
  6
Continuous
 62
    16
370
     9
100
AcDbLine
 10
1297.742754266166
 20
905.3117656681045
 30
0.0
 11
1264.55287263574
 21
905.3117656681045
 31
0.0
  0
LINE
  5
10A
330
1F
100
AcDbEntity
  8
11
  6
Continuous
 62
    16
370
     9
100
AcDbLine
 10
1331.742754266166
 20
897.3117656681045
 30
0.0
 11
1267.12119471761
 21
897.3117656681045
 31
0.0
  0
INSERT
  5
12D
330
1F
100
AcDbEntity
  8
0
100
AcDbBlockReference
  2
*G13
 10
0.0
 20
0.0
 30
0.0
  0
INSERT
  5
14F
330
1F
100
AcDbEntity
  8
0
100
AcDbBlockReference
  2
*G15
 10
0.0
 20
0.0
 30
0.0
  0
INSERT
  5
15E
330
1F
100
AcDbEntity
  8
0
100
AcDbBlockReference
  2
*G17
 10
0.0
 20
0.0
 30
0.0
  0
INSERT
  5
180
330
1F
100
AcDbEntity
  8
0
100
AcDbBlockReference
  2
*G19
 10
0.0
 20
0.0
 30
0.0
  0
INSERT
  5
18E
330
1F
100
AcDbEntity
  8
0
100
AcDbBlockReference
  2
*G21
 10
0.0
 20
0.0
 30
0.0
  0
INSERT
  5
1B0
330
1F
100
AcDbEntity
  8
0
100
AcDbBlockReference
  2
*G23
 10
0.0
 20
0.0
 30
0.0
  0
LINE
  5
1B1
330
1F
100
AcDbEntity
  8
11
  6
Continuous
 62
    16
370
     9
100
AcDbLine
 10
1290.742754266168
 20
943.3117656681045
 30
0.0
 11
1299.742754266166
 21
943.3117656681045
 31
0.0
  0
LINE
  5
1B2
330
1F
100
AcDbEntity
  8
11
  6
Continuous
 62
    16
370
     9
100
AcDbLine
 10
1316.742754266166
 20
943.3117656681045
 30
0.0
 11
1426.742754266168
 21
943.3117656681045
 31
0.0
  0
LINE
  5
1B3
330
1F
100
AcDbEntity
  8
11
  6
Continuous
 62
    16
370
     9
100
AcDbLine
 10
1290.742754266168
 20
927.3117656681045
 30
0.0
 11
1299.742754266166
 21
927.3117656681045
 31
0.0
  0
LINE
  5
1B4
330
1F
100
AcDbEntity
  8
11
  6
Continuous
 62
    16
370
     9
100
AcDbLine
 10
1316.742754266166
 20
927.3117656681045
 30
0.0
 11
1426.742754266168
 21
927.3117656681045
 31
0.0
  0
LINE
  5
1B5
330
1F
100
AcDbEntity
  8
11
  6
Continuous
 62
    16
370
     9
100
AcDbLine
 10
1290.742754266168
 20
943.3117656681045
 30
0.0
 11
1290.742754266168
 21
927.3117656681045
 31
0.0
  0
LINE
  5
1B6
330
1F
100
AcDbEntity
  8
11
  6
DASHDOT
 62
    16
370
     9
100
AcDbLine
 10
1446.290257948833
 20
935.3117656681045
 30
0.0
 11
1289.121198086113
 21
935.3117656681045
 31
0.0
  0
INSERT
  5
1DB
330
1F
100
AcDbEntity
  8
0
100
AcDbBlockReference
  2
*G25
 10
0.0
 20
0.0
 30
0.0
  0
INSERT
  5
1E2
330
1F
100
AcDbEntity
  8
0
100
AcDbBlockReference
  2
*G27
 10
0.0
 20
0.0
 30
0.0
  0
TEXT
  5
1E3
330
1F
100
AcDbEntity
  8
8
  6
Continuous
 62
   171
370
     9
100
AcDbText
 10
1294.475520988822
 20
735.156947046193
 30
0.0
 40
24.00000000000001
  1
Ａ　部　詳　細
 50
-0.0000000000001781
 41
0.833333333333333
100
AcDbText
  0
TEXT
  5
1E4
330
1F
100
AcDbEntity
  8
8
  6
Continuous
 62
   171
370
     9
100
AcDbText
 10
1158.6
 20
84.0
 30
0.0
 40
24.0
  1
柄については上記品番表から２種選択
 41
0.4999999999999996
100
AcDbText
  0
TEXT
  5
1E5
330
1F
100
AcDbEntity
  8
8
  6
Continuous
 62
   171
370
     9
100
AcDbText
 10
1506.0
 20
114.0
 30
0.0
 40
24.0
  1
大野
 41
0.8333333333333334
100
AcDbText
  0
TEXT
  5
1E6
330
1F
100
AcDbEntity
  8
8
  6
Continuous
 62
   171
370
     9
100
AcDbText
 10
1578.0
 20
114.0
 30
0.0
 40
24.0
  1
深川
 41
0.8333333333333334
100
AcDbText
  0
TEXT
  5
1E7
330
1F
100
AcDbEntity
  8
8
  6
Continuous
 62
   171
370
     9
100
AcDbText
 10
1572.0
 20
80.99999999999996
 30
0.0
 40
18.0
  1
２０１３年０３月０１日
 41
0.5555555555555557
100
AcDbText
  0
LINE
  5
1E8
330
1F
100
AcDbEntity
  8
1
  6
Continuous
 62
    45
370
     9
100
AcDbLine
 10
449.4081021754513
 20
918.9200321885116
 30
0.0
 11
448.8276539754513
 21
920.4200321885116
 31
0.0
  0
LINE
  5
1E9
330
1F
100
AcDbEntity
  8
1
  6
Continuous
 62
    45
370
     9
100
AcDbLine
 10
496.8652481954513
 20
918.9200321885112
 30
0.0
 11
425.8652481954513
 21
918.9200321885116
 31
0.0
  0
LINE
  5
1EA
330
1F
100
AcDbEntity
  8
1
  6
Continuous
 62
    45
370
     9
100
AcDbLine
 10
449.4081021754513
 20
918.9200321885116
 30
0.0
 11
449.4081021754513
 21
866.4200321885116
 31
0.0
  0
LINE
  5
1EB
330
1F
100
AcDbEntity
  8
1
  6
Continuous
 62
    45
370
     9
100
AcDbLine
 10
451.6557531754512
 20
882.9200321885116
 30
0.0
 11
456.8652481954513
 21
882.9200321885116
 31
0.0
  0
LINE
  5
1EC
330
1F
100
AcDbEntity
  8
1
  6
Continuous
 62
    45
370
     9
100
AcDbLine
 10
451.6557531754512
 20
882.9200321885116
 30
0.0
 11
449.4081021754512
 21
884.9200321885116
 31
0.0
  0
LINE
  5
1ED
330
1F
100
AcDbEntity
  8
1
  6
Continuous
 62
    45
370
     9
100
AcDbLine
 10
449.4081021754512
 20
884.9200321885116
 30
0.0
 11
496.8652481954513
 21
884.9200321885112
 31
0.0
  0
LINE
  5
1EE
330
1F
100
AcDbEntity
  8
2
  6
Continuous
 62
    90
370
     9
100
AcDbLine
 10
456.8652481954513
 20
866.4200321885116
 30
0.0
 11
456.8652481954513
 21
882.9200321885116
 31
0.0
  0
LINE
  5
1EF
330
1F
100
AcDbEntity
  8
2
  6
Continuous
 62
    90
370
     9
100
AcDbLine
 10
496.8652481954513
 20
882.9200321885112
 30
0.0
 11
496.8652481954513
 21
918.4200321885112
 31
0.0
  0
LINE
  5
1F0
330
1F
100
AcDbEntity
  8
2
  6
Continuous
 62
    90
370
     9
100
AcDbLine
 10
456.8652481954513
 20
882.9200321885116
 30
0.0
 11
496.8652481954513
 21
882.9200321885112
 31
0.0
  0
ARC
  5
1F1
330
1F
100
AcDbEntity
  8
2
  6
Continuous
 62
    90
370
     9
100
AcDbCircle
 10
457.0652481954513
 20
866.1200321885115
 30
0.0
 40
0.3
100
AcDbArc
 50
0.0
 51
89.99999999999991
  0
ARC
  5
1F2
330
1F
100
AcDbEntity
  8
2
  6
Continuous
 62
    90
370
     9
100
AcDbCircle
 10
457.0652481954512
 20
843.2200321885116
 30
0.0
 40
0.3
100
AcDbArc
 50
269.9999999999998
 51
0.0
  0
LINE
  5
1F3
330
1F
100
AcDbEntity
  8
2
  6
Continuous
 62
    90
370
     9
100
AcDbLine
 10
457.3652481954512
 20
843.2200321885116
 30
0.0
 11
457.3652481954513
 21
866.1200321885115
 31
0.0
  0
ARC
  5
1F4
330
1F
100
AcDbEntity
  8
2
  6
Continuous
 62
    90
370
     9
100
AcDbCircle
 10
425.6652481954512
 20
866.1200321885115
 30
0.0
 40
0.3
100
AcDbArc
 50
89.99999999999991
 51
179.9999999999998
  0
ARC
  5
1F5
330
1F
100
AcDbEntity
  8
2
  6
Continuous
 62
    90
370
     9
100
AcDbCircle
 10
425.6652481954513
 20
843.2200321885114
 30
0.0
 40
0.3
100
AcDbArc
 50
179.9999999999998
 51
269.9999999999998
  0
LINE
  5
1F6
330
1F
100
AcDbEntity
  8
2
  6
Continuous
 62
    90
370
     9
100
AcDbLine
 10
425.3652481954513
 20
866.1200321885115
 30
0.0
 11
425.3652481954513
 21
843.2200321885114
 31
0.0
  0
LINE
  5
1F7
330
1F
100
AcDbEntity
  8
2
  6
Continuous
 62
    90
370
     9
100
AcDbLine
 10
457.0652481954512
 20
842.9200321885114
 30
0.0
 11
425.6652481954513
 21
842.9200321885114
 31
0.0
  0
LINE
  5
1F8
330
1F
100
AcDbEntity
  8
2
  6
Continuous
 62
    90
370
     9
100
AcDbLine
 10
457.0652481954513
 20
866.4200321885116
 30
0.0
 11
456.8652481954513
 21
866.4200321885116
 31
0.0
  0
LINE
  5
1F9
330
1F
100
AcDbEntity
  8
2
  6
Continuous
 62
    90
370
     9
100
AcDbLine
 10
425.8652481954513
 20
918.9200321885116
 30
0.0
 11
425.8652481954513
 21
866.4200321885116
 31
0.0
  0
LINE
  5
1FA
330
1F
100
AcDbEntity
  8
2
  6
Continuous
 62
    90
370
     9
100
AcDbLine
 10
496.8652481954513
 20
920.4200321885112
 30
0.0
 11
496.8652481954513
 21
918.4200321885112
 31
0.0
  0
LINE
  5
1FB
330
1F
100
AcDbEntity
  8
2
  6
Continuous
 62
    90
370
     9
100
AcDbLine
 10
425.8652481954513
 20
918.9200321885116
 30
0.0
 11
427.8652481954513
 21
920.4200321885116
 31
0.0
  0
LINE
  5
1FC
330
1F
100
AcDbEntity
  8
2
  6
Continuous
 62
    90
370
     9
100
AcDbLine
 10
456.8652481954513
 20
866.4200321885116
 30
0.0
 11
425.8652481954513
 21
866.4200321885116
 31
0.0
  0
LINE
  5
1FD
330
1F
100
AcDbEntity
  8
2
  6
Continuous
 62
    90
370
     9
100
AcDbLine
 10
496.8652481954513
 20
920.4200321885112
 30
0.0
 11
427.8652481954513
 21
920.4200321885116
 31
0.0
  0
LINE
  5
1FE
330
1F
100
AcDbEntity
  8
1
  6
Continuous
 62
    45
370
     9
100
AcDbLine
 10
589.3223945216027
 20
918.9200321885116
 30
0.0
 11
589.9028427216027
 21
920.4200321885116
 31
0.0
  0
LINE
  5
1FF
330
1F
100
AcDbEntity
  8
1
  6
Continuous
 62
    45
370
     9
100
AcDbLine
 10
541.8652485016028
 20
918.9200321885112
 30
0.0
 11
612.8652485016028
 21
918.9200321885116
 31
0.0
  0
LINE
  5
200
330
1F
100
AcDbEntity
  8
1
  6
Continuous
 62
    45
370
     9
100
AcDbLine
 10
589.3223945216027
 20
918.9200321885116
 30
0.0
 11
589.3223945216027
 21
866.4200321885116
 31
0.0
  0
LINE
  5
201
330
1F
100
AcDbEntity
  8
1
  6
Continuous
 62
    45
370
     9
100
AcDbLine
 10
587.0747435216028
 20
882.9200321885116
 30
0.0
 11
581.8652485016028
 21
882.9200321885116
 31
0.0
  0
LINE
  5
202
330
1F
100
AcDbEntity
  8
1
  6
Continuous
 62
    45
370
     9
100
AcDbLine
 10
587.0747435216028
 20
882.9200321885116
 30
0.0
 11
589.3223945216029
 21
884.9200321885116
 31
0.0
  0
LINE
  5
203
330
1F
100
AcDbEntity
  8
1
  6
Continuous
 62
    45
370
     9
100
AcDbLine
 10
589.3223945216029
 20
884.9200321885116
 30
0.0
 11
541.8652485016028
 21
884.9200321885112
 31
0.0
  0
LINE
  5
204
330
1F
100
AcDbEntity
  8
2
  6
Continuous
 62
    90
370
     9
100
AcDbLine
 10
581.8652485016028
 20
866.4200321885116
 30
0.0
 11
581.8652485016028
 21
882.9200321885116
 31
0.0
  0
LINE
  5
205
330
1F
100
AcDbEntity
  8
2
  6
Continuous
 62
    90
370
     9
100
AcDbLine
 10
541.8652485016028
 20
882.9200321885112
 30
0.0
 11
541.8652485016028
 21
918.4200321885112
 31
0.0
  0
LINE
  5
206
330
1F
100
AcDbEntity
  8
2
  6
Continuous
 62
    90
370
     9
100
AcDbLine
 10
581.8652485016028
 20
882.9200321885116
 30
0.0
 11
541.8652485016028
 21
882.9200321885112
 31
0.0
  0
ARC
  5
207
330
1F
100
AcDbEntity
  8
2
  6
Continuous
 62
    90
370
     9
100
AcDbCircle
 10
581.6652485016027
 20
866.1200321885115
 30
0.0
 40
0.3
100
AcDbArc
 50
89.99999999999991
 51
179.9999999999998
  0
ARC
  5
208
330
1F
100
AcDbEntity
  8
2
  6
Continuous
 62
    90
370
     9
100
AcDbCircle
 10
581.6652485016027
 20
843.2200321885116
 30
0.0
 40
0.3
100
AcDbArc
 50
179.9999999999998
 51
269.9999999999998
  0
LINE
  5
209
330
1F
100
AcDbEntity
  8
2
  6
Continuous
 62
    90
370
     9
100
AcDbLine
 10
581.3652485016028
 20
843.2200321885116
 30
0.0
 11
581.3652485016028
 21
866.1200321885115
 31
0.0
  0
ARC
  5
20A
330
1F
100
AcDbEntity
  8
2
  6
Continuous
 62
    90
370
     9
100
AcDbCircle
 10
613.0652485016028
 20
866.1200321885115
 30
0.0
 40
0.3
100
AcDbArc
 50
0.0
 51
89.99999999999991
  0
ARC
  5
20B
330
1F
100
AcDbEntity
  8
2
  6
Continuous
 62
    90
370
     9
100
AcDbCircle
 10
613.0652485016027
 20
843.2200321885114
 30
0.0
 40
0.3
100
AcDbArc
 50
269.9999999999998
 51
0.0
  0
LINE
  5
20C
330
1F
100
AcDbEntity
  8
2
  6
Continuous
 62
    90
370
     9
100
AcDbLine
 10
613.3652485016028
 20
866.1200321885115
 30
0.0
 11
613.3652485016028
 21
843.2200321885114
 31
0.0
  0
LINE
  5
20D
330
1F
100
AcDbEntity
  8
2
  6
Continuous
 62
    90
370
     9
100
AcDbLine
 10
581.6652485016027
 20
842.9200321885114
 30
0.0
 11
613.0652485016027
 21
842.9200321885114
 31
0.0
  0
LINE
  5
20E
330
1F
100
AcDbEntity
  8
2
  6
Continuous
 62
    90
370
     9
100
AcDbLine
 10
612.8652485016028
 20
918.9200321885116
 30
0.0
 11
612.8652485016028
 21
866.4200321885116
 31
0.0
  0
LINE
  5
20F
330
1F
100
AcDbEntity
  8
2
  6
Continuous
 62
    90
370
     9
100
AcDbLine
 10
541.8652485016028
 20
920.4200321885112
 30
0.0
 11
541.8652485016028
 21
918.4200321885112
 31
0.0
  0
LINE
  5
210
330
1F
100
AcDbEntity
  8
2
  6
Continuous
 62
    90
370
     9
100
AcDbLine
 10
612.8652485016028
 20
918.9200321885116
 30
0.0
 11
610.8652485016028
 21
920.4200321885116
 31
0.0
  0
LINE
  5
211
330
1F
100
AcDbEntity
  8
2
  6
Continuous
 62
    90
370
     9
100
AcDbLine
 10
541.8652485016028
 20
920.4200321885112
 30
0.0
 11
610.8652485016028
 21
920.4200321885116
 31
0.0
  0
LINE
  5
212
330
1F
100
AcDbEntity
  8
2
  6
Continuous
 62
    90
370
    18
100
AcDbLine
 10
496.8652481954513
 20
905.4200321885135
 30
0.0
 11
541.8652485016028
 21
905.4200321885135
 31
0.0
  0
LINE
  5
213
330
1F
100
AcDbEntity
  8
2
  6
Continuous
 62
    90
370
    18
100
AcDbLine
 10
496.8652481954513
 20
897.4200321885135
 30
0.0
 11
541.8652485016028
 21
897.4200321885135
 31
0.0
  0
LINE
  5
214
330
1F
100
AcDbEntity
  8
1
  6
DASHDOT
 62
    45
370
     9
100
AcDbLine
 10
416.9051924321096
 20
901.4200321885135
 30
0.0
 11
619.5711413066786
 21
901.4200321885135
 31
0.0
  0
LINE
  5
215
330
1F
100
AcDbEntity
  8
2
  6
Continuous
 62
    90
370
    18
100
AcDbLine
 10
456.3637664793991
 20
842.9200321385264
 30
0.0
 11
457.3652481954543
 21
841.9200321385273
 31
0.0
  0
LINE
  5
216
330
1F
100
AcDbEntity
  8
2
  6
Continuous
 62
    90
370
    18
100
AcDbLine
 10
425.3652481954493
 20
841.9200321385237
 30
0.0
 11
426.3637664794003
 21
842.9200321385273
 31
0.0
  0
LINE
  5
217
330
1F
100
AcDbEntity
  8
1
  6
Continuous
 62
    45
370
     9
100
AcDbLine
 10
457.3652481954493
 20
841.9200321385255
 30
0.0
 11
425.3652481954543
 21
841.9200321385282
 31
0.0
  0
LINE
  5
218
330
1F
100
AcDbEntity
  8
2
  6
Continuous
 62
    90
370
    18
100
AcDbLine
 10
582.366730217655
 20
842.9200321385264
 30
0.0
 11
581.3652485015998
 21
841.9200321385273
 31
0.0
  0
LINE
  5
219
330
1F
100
AcDbEntity
  8
2
  6
Continuous
 62
    90
370
    18
100
AcDbLine
 10
613.3652485016048
 20
841.9200321385237
 30
0.0
 11
612.3667302176539
 21
842.9200321385273
 31
0.0
  0
LINE
  5
21A
330
1F
100
AcDbEntity
  8
1
  6
Continuous
 62
    45
370
     9
100
AcDbLine
 10
581.3652485016048
 20
841.9200321385255
 30
0.0
 11
613.3652485015998
 21
841.9200321385282
 31
0.0
  0
LINE
  5
21B
330
1F
100
AcDbEntity
  8
2
  6
Continuous
 62
    90
370
     9
100
AcDbLine
 10
581.6652485016027
 20
866.4200321885116
 30
0.0
 11
613.0652485016028
 21
866.4200321885116
 31
0.0
  0
DIMENSION
  5
227
330
1F
100
AcDbEntity
  8
6
  6
Continuous
 62
     7
370
     9
100
AcDbDimension
  2
Dim1
 10
673.0652485016026
 20
920.4200321885111
 30
0.0
 11
664.0652485016027
 21
881.670032188511
 31
0.0
 70
   160
  1
<>
 71
     5
 42
-1.0
  3
Standard
100
AcDbAlignedDimension
 13
610.8652485016028
 23
920.4200321885116
 33
0.0
 14
613.0652485016027
 24
842.9200321885114
 34
0.0
 50
89.99999999999999
100
AcDbRotatedDimension
1001
ACAD
1000
DSTYLE
1002
{
1070
   344
1005
3C
1070
   343
1005
3C
1070
   173
1070
     1
1070
   289
1070
     2
1070
   279
1070
     2
1070
   288
1070
     1
1070
    77
1070
     3
1070
   172
1070
     1
1070
   174
1070
     0
1070
    74
1070
     0
1070
    73
1070
     0
1070
   284
1070
     8
1070
    78
1070
     8
1070
   140
1040
3.0
1070
    40
1040
6.0
1070
    42
1040
2.0
1070
    44
1040
1.0
1070
    43
1040
10.0
1070
   271
1070
     2
1070
    41
1040
2.0
1002
}
  0
LINE
  5
228
330
1F
100
AcDbEntity
  8
2
  6
Continuous
 62
    90
370
    18
100
AcDbLine
 10
905.0587635429056
 20
842.9200324446886
 30
0.0
 11
906.0602452589596
 21
841.9200324446895
 31
0.0
  0
LINE
  5
229
330
1F
100
AcDbEntity
  8
2
  6
Continuous
 62
    90
370
    18
100
AcDbLine
 10
874.0602452589555
 20
841.9200324446858
 30
0.0
 11
875.0587635429067
 21
842.9200324446895
 31
0.0
  0
LINE
  5
22A
330
1F
100
AcDbEntity
  8
2
  6
Continuous
 62
    90
370
    18
100
AcDbLine
 10
905.5602452589557
 20
918.4200324446876
 30
0.0
 11
905.5602452589548
 21
866.4200324446858
 31
0.0
  0
LINE
  5
22B
330
1F
100
AcDbEntity
  8
2
  6
Continuous
 62
    90
370
    18
100
AcDbLine
 10
874.5602452589598
 20
918.4200324446876
 30
0.0
 11
874.5602452589598
 21
866.4200324446876
 31
0.0
  0
LINE
  5
22C
330
1F
100
AcDbEntity
  8
2
  6
Continuous
 62
    90
370
    18
100
AcDbLine
 10
876.5602452589598
 20
920.4200324446876
 30
0.0
 11
874.5602452589598
 21
918.4200324446876
 31
0.0
  0
LINE
  5
22D
330
1F
100
AcDbEntity
  8
2
  6
Continuous
 62
    90
370
    18
100
AcDbLine
 10
903.5602452589557
 20
920.4200324446876
 30
0.0
 11
905.5602452589557
 21
918.4200324446876
 31
0.0
  0
LINE
  5
22E
330
1F
100
AcDbEntity
  8
2
  6
Continuous
 62
    90
370
    18
100
AcDbLine
 10
903.5602452589557
 20
920.4200324446876
 30
0.0
 11
876.5602452589598
 21
920.4200324446876
 31
0.0
  0
CIRCLE
  5
22F
330
1F
100
AcDbEntity
  8
2
  6
Continuous
 62
    90
370
    18
100
AcDbCircle
 10
898.0602452589588
 20
892.6700324446876
 30
0.0
 40
2.5
  0
CIRCLE
  5
230
330
1F
100
AcDbEntity
  8
2
  6
Continuous
 62
    90
370
    18
100
AcDbCircle
 10
882.0602452589588
 20
892.6700324446876
 30
0.0
 40
2.5
  0
CIRCLE
  5
231
330
1F
100
AcDbEntity
  8
2
  6
Continuous
 62
    90
370
    18
100
AcDbCircle
 10
890.0602452589557
 20
912.6700324446876
 30
0.0
 40
2.5
  0
ARC
  5
232
330
1F
100
AcDbEntity
  8
2
  6
Continuous
 62
    90
370
    18
100
AcDbCircle
 10
874.3602452589655
 20
843.2200324446969
 30
0.0
 40
0.3
100
AcDbArc
 50
179.9999999999998
 51
269.9999999999998
  0
ARC
  5
233
330
1F
100
AcDbEntity
  8
2
  6
Continuous
 62
    90
370
    18
100
AcDbCircle
 10
874.3602452589585
 20
843.2200324446915
 30
0.0
 40
0.3
100
AcDbArc
 50
179.9999999999998
 51
269.9999999999998
  0
LINE
  5
234
330
1F
100
AcDbEntity
  8
2
  6
Continuous
 62
    90
370
    18
100
AcDbLine
 10
874.0602452589595
 20
866.1200324446911
 30
0.0
 11
874.0602452589585
 21
843.2200324446915
 31
0.0
  0
ARC
  5
235
330
1F
100
AcDbEntity
  8
2
  6
Continuous
 62
    90
370
    18
100
AcDbCircle
 10
905.7602452589636
 20
843.2200324446924
 30
0.0
 40
0.3
100
AcDbArc
 50
269.9999999999998
 51
0.0
  0
ARC
  5
236
330
1F
100
AcDbEntity
  8
2
  6
Continuous
 62
    90
370
    18
100
AcDbCircle
 10
905.7602452589566
 20
866.1200324446893
 30
0.0
 40
0.3
100
AcDbArc
 50
0.0
 51
89.99999999999991
  0
ARC
  5
237
330
1F
100
AcDbEntity
  8
2
  6
Continuous
 62
    90
370
    18
100
AcDbCircle
 10
905.7602452589565
 20
843.2200324446887
 30
0.0
 40
0.3
100
AcDbArc
 50
269.9999999999998
 51
0.0
  0
LINE
  5
238
330
1F
100
AcDbEntity
  8
2
  6
Continuous
 62
    90
370
    18
100
AcDbLine
 10
906.0602452589576
 20
843.2200324446887
 30
0.0
 11
906.0602452589577
 21
866.1200324446893
 31
0.0
  0
LINE
  5
239
330
1F
100
AcDbEntity
  8
2
  6
Continuous
 62
    90
370
    18
100
AcDbLine
 10
905.7602452589636
 20
842.9200324446886
 30
0.0
 11
874.3602452589655
 21
842.9200324446886
 31
0.0
  0
LINE
  5
23A
330
1F
100
AcDbEntity
  8
2
  6
Continuous
 62
    90
370
    18
100
AcDbLine
 10
905.7602452589566
 20
866.4200324446895
 30
0.0
 11
874.3602452589595
 21
866.4200324446895
 31
0.0
  0
ARC
  5
23B
330
1F
100
AcDbEntity
  8
2
  6
Continuous
 62
    90
370
    18
100
AcDbCircle
 10
874.3602452589588
 20
866.1200324446893
 30
0.0
 40
0.3
100
AcDbArc
 50
89.99999999999991
 51
179.9999999999998
  0
LINE
  5
23C
330
1F
100
AcDbEntity
  8
1
  6
Continuous
 62
    45
370
     9
100
AcDbLine
 10
902.8102452589577
 20
866.4200324446876
 30
0.0
 11
902.8102452589577
 21
918.4200324446876
 31
0.0
  0
LINE
  5
23D
330
1F
100
AcDbEntity
  8
1
  6
Continuous
 62
    45
370
     9
100
AcDbLine
 10
877.3102452589577
 20
866.4200324446895
 30
0.0
 11
877.3102452589577
 21
918.4200324446876
 31
0.0
  0
LINE
  5
23E
330
1F
100
AcDbEntity
  8
1
  6
Continuous
 62
    45
370
     9
100
AcDbLine
 10
902.8102452589577
 20
884.9200324446867
 30
0.0
 11
900.8102452589577
 21
882.9200324446886
 31
0.0
  0
LINE
  5
23F
330
1F
100
AcDbEntity
  8
1
  6
Continuous
 62
    45
370
     9
100
AcDbLine
 10
879.3102452589577
 20
882.9200324446886
 30
0.0
 11
877.3102452589577
 21
884.9200324446867
 31
0.0
  0
LINE
  5
240
330
1F
100
AcDbEntity
  8
1
  6
Continuous
 62
    45
370
     9
100
AcDbLine
 10
900.8102452589577
 20
882.9200324446886
 30
0.0
 11
879.3102452589577
 21
882.9200324446886
 31
0.0
  0
LINE
  5
241
330
1F
100
AcDbEntity
  8
1
  6
Continuous
 62
    45
370
     9
100
AcDbLine
 10
874.5602452589598
 20
918.4200324446876
 30
0.0
 11
905.5602452589557
 21
918.4200324446876
 31
0.0
  0
LINE
  5
242
330
1F
100
AcDbEntity
  8
1
  6
Continuous
 62
    45
370
     9
100
AcDbLine
 10
902.8102452589568
 20
918.4200324446876
 30
0.0
 11
900.8102452589568
 21
920.4200324446876
 31
0.0
  0
LINE
  5
243
330
1F
100
AcDbEntity
  8
1
  6
Continuous
 62
    45
370
     9
100
AcDbLine
 10
879.3102452589577
 20
920.4200324446876
 30
0.0
 11
877.3102452589568
 21
918.4200324446876
 31
0.0
  0
LINE
  5
244
330
1F
100
AcDbEntity
  8
1
  6
Continuous
 62
    45
370
     9
100
AcDbLine
 10
906.0602452589546
 20
841.9200324446776
 30
0.0
 11
874.0602452589546
 21
841.9200324446804
 31
0.0
  0
LINE
  5
245
330
1F
100
AcDbEntity
  8
1
  6
DASHDOT
 62
    45
370
     9
100
AcDbLine
 10
906.83092255746
 20
901.4200324446876
 30
0.0
 11
862.1577750492048
 21
901.4200324446876
 31
0.0
  0
ARC
  5
246
330
1F
100
AcDbEntity
  8
2
  6
Continuous
 62
    90
370
    18
100
AcDbCircle
 10
890.0602452589577
 20
900.6700324446876
 30
0.0
 40
4.25
100
AcDbArc
 50
179.9999999999998
 51
0.0
  0
LINE
  5
247
330
1F
100
AcDbEntity
  8
2
  6
Continuous
 62
    90
370
    18
100
AcDbLine
 10
894.3102452589577
 20
902.1700324446876
 30
0.0
 11
894.3102452589577
 21
900.6700324446876
 31
0.0
  0
LINE
  5
248
330
1F
100
AcDbEntity
  8
2
  6
Continuous
 62
    90
370
    18
100
AcDbLine
 10
885.8102452589577
 20
902.1700324446876
 30
0.0
 11
885.8102452589577
 21
900.6700324446876
 31
0.0
  0
ARC
  5
249
330
1F
100
AcDbEntity
  8
2
  6
Continuous
 62
    90
370
    18
100
AcDbCircle
 10
890.0602452589577
 20
902.1700324446876
 30
0.0
 40
4.25
100
AcDbArc
 50
0.0
 51
179.9999999999998
  0
DIMENSION
  5
255
330
1F
100
AcDbEntity
  8
6
  6
Continuous
 62
     7
370
     9
100
AcDbDimension
  2
Dim2
 10
822.5602452589598
 20
920.4200324446879
 30
0.0
 11
813.5602452589598
 21
901.6700324446883
 31
0.0
 70
   160
  1
<>
 71
     5
 42
-1.0
  3
Standard
100
AcDbAlignedDimension
 13
876.5602452589598
 23
920.4200324446876
 33
0.0
 14
874.5602452589598
 24
882.9200324446886
 34
0.0
 50
89.99999999999991
100
AcDbRotatedDimension
1001
ACAD
1000
DSTYLE
1002
{
1070
   344
1005
3C
1070
   343
1005
3C
1070
   173
1070
     1
1070
   289
1070
     2
1070
   279
1070
     2
1070
   288
1070
     1
1070
    77
1070
     3
1070
   172
1070
     1
1070
   174
1070
     0
1070
    74
1070
     0
1070
    73
1070
     0
1070
   284
1070
     8
1070
    78
1070
     8
1070
   140
1040
3.0
1070
    40
1040
6.0
1070
    42
1040
2.0
1070
    44
1040
1.0
1070
    43
1040
10.0
1070
   271
1070
     2
1070
    41
1040
2.0
1002
}
  0
LINE
  5
256
330
1F
100
AcDbEntity
  8
1
  6
Continuous
 62
    45
370
     9
100
AcDbLine
 10
449.4081021754503
 20
283.9200324946719
 30
0.0
 11
448.8276539754502
 21
282.4200324946719
 31
0.0
  0
LINE
  5
257
330
1F
100
AcDbEntity
  8
1
  6
Continuous
 62
    45
370
     9
100
AcDbLine
 10
496.8652481954502
 20
283.9200324946717
 30
0.0
 11
425.8652481954502
 21
283.9200324946719
 31
0.0
  0
LINE
  5
258
330
1F
100
AcDbEntity
  8
1
  6
Continuous
 62
    45
370
     9
100
AcDbLine
 10
449.4081021754503
 20
283.9200324946719
 30
0.0
 11
449.4081021754505
 21
336.4200324946719
 31
0.0
  0
LINE
  5
259
330
1F
100
AcDbEntity
  8
1
  6
Continuous
 62
    45
370
     9
100
AcDbLine
 10
451.6557531754503
 20
319.9200324946719
 30
0.0
 11
456.8652481954504
 21
319.9200324946719
 31
0.0
  0
LINE
  5
25A
330
1F
100
AcDbEntity
  8
1
  6
Continuous
 62
    45
370
     9
100
AcDbLine
 10
451.6557531754503
 20
319.9200324946719
 30
0.0
 11
449.4081021754503
 21
317.9200324946719
 31
0.0
  0
LINE
  5
25B
330
1F
100
AcDbEntity
  8
1
  6
Continuous
 62
    45
370
     9
100
AcDbLine
 10
449.4081021754503
 20
317.9200324946719
 30
0.0
 11
496.8652481954504
 21
317.9200324946717
 31
0.0
  0
LINE
  5
25C
330
1F
100
AcDbEntity
  8
2
  6
Continuous
 62
    90
370
     9
100
AcDbLine
 10
456.8652481954505
 20
336.4200324946719
 30
0.0
 11
456.8652481954504
 21
319.9200324946719
 31
0.0
  0
LINE
  5
25D
330
1F
100
AcDbEntity
  8
2
  6
Continuous
 62
    90
370
     9
100
AcDbLine
 10
496.8652481954504
 20
319.9200324946717
 30
0.0
 11
496.8652481954502
 21
284.4200324946717
 31
0.0
  0
LINE
  5
25E
330
1F
100
AcDbEntity
  8
2
  6
Continuous
 62
    90
370
     9
100
AcDbLine
 10
456.8652481954504
 20
319.9200324946719
 30
0.0
 11
496.8652481954504
 21
319.9200324946717
 31
0.0
  0
ARC
  5
25F
330
1F
100
AcDbEntity
  8
2
  6
Continuous
 62
    90
370
     9
100
AcDbCircle
 10
457.0652481954505
 20
336.7200324946718
 30
0.0
 40
0.3
100
AcDbArc
 50
269.9999999999998
 51
0.0
  0
ARC
  5
260
330
1F
100
AcDbEntity
  8
2
  6
Continuous
 62
    90
370
     9
100
AcDbCircle
 10
457.0652481954505
 20
359.6200324946717
 30
0.0
 40
0.3
100
AcDbArc
 50
0.0
 51
89.99999999999991
  0
LINE
  5
261
330
1F
100
AcDbEntity
  8
2
  6
Continuous
 62
    90
370
     9
100
AcDbLine
 10
457.3652481954505
 20
359.6200324946717
 30
0.0
 11
457.3652481954505
 21
336.7200324946718
 31
0.0
  0
ARC
  5
262
330
1F
100
AcDbEntity
  8
2
  6
Continuous
 62
    90
370
     9
100
AcDbCircle
 10
425.6652481954504
 20
336.7200324946718
 30
0.0
 40
0.3
100
AcDbArc
 50
179.9999999999998
 51
269.9999999999998
  0
ARC
  5
263
330
1F
100
AcDbEntity
  8
2
  6
Continuous
 62
    90
370
     9
100
AcDbCircle
 10
425.6652481954505
 20
359.6200324946719
 30
0.0
 40
0.3
100
AcDbArc
 50
89.99999999999991
 51
179.9999999999998
  0
LINE
  5
264
330
1F
100
AcDbEntity
  8
2
  6
Continuous
 62
    90
370
     9
100
AcDbLine
 10
425.3652481954505
 20
336.7200324946718
 30
0.0
 11
425.3652481954505
 21
359.6200324946719
 31
0.0
  0
LINE
  5
265
330
1F
100
AcDbEntity
  8
2
  6
Continuous
 62
    90
370
     9
100
AcDbLine
 10
457.0652481954505
 20
359.9200324946719
 30
0.0
 11
425.6652481954505
 21
359.9200324946719
 31
0.0
  0
LINE
  5
266
330
1F
100
AcDbEntity
  8
2
  6
Continuous
 62
    90
370
     9
100
AcDbLine
 10
457.0652481954505
 20
336.4200324946719
 30
0.0
 11
456.8652481954505
 21
336.4200324946719
 31
0.0
  0
LINE
  5
267
330
1F
100
AcDbEntity
  8
2
  6
Continuous
 62
    90
370
     9
100
AcDbLine
 10
425.8652481954502
 20
283.9200324946719
 30
0.0
 11
425.8652481954505
 21
336.4200324946719
 31
0.0
  0
LINE
  5
268
330
1F
100
AcDbEntity
  8
2
  6
Continuous
 62
    90
370
     9
100
AcDbLine
 10
496.8652481954502
 20
282.4200324946717
 30
0.0
 11
496.8652481954502
 21
284.4200324946717
 31
0.0
  0
LINE
  5
269
330
1F
100
AcDbEntity
  8
2
  6
Continuous
 62
    90
370
     9
100
AcDbLine
 10
425.8652481954502
 20
283.9200324946719
 30
0.0
 11
427.8652481954502
 21
282.4200324946719
 31
0.0
  0
LINE
  5
26A
330
1F
100
AcDbEntity
  8
2
  6
Continuous
 62
    90
370
     9
100
AcDbLine
 10
456.8652481954505
 20
336.4200324946719
 30
0.0
 11
425.8652481954505
 21
336.4200324946719
 31
0.0
  0
LINE
  5
26B
330
1F
100
AcDbEntity
  8
2
  6
Continuous
 62
    90
370
     9
100
AcDbLine
 10
496.8652481954502
 20
282.4200324946717
 30
0.0
 11
427.8652481954502
 21
282.4200324946719
 31
0.0
  0
LINE
  5
26C
330
1F
100
AcDbEntity
  8
1
  6
Continuous
 62
    45
370
     9
100
AcDbLine
 10
589.3223945216039
 20
283.9200324946719
 30
0.0
 11
589.9028427216039
 21
282.4200324946719
 31
0.0
  0
LINE
  5
26D
330
1F
100
AcDbEntity
  8
1
  6
Continuous
 62
    45
370
     9
100
AcDbLine
 10
541.8652485016039
 20
283.9200324946717
 30
0.0
 11
612.8652485016039
 21
283.9200324946719
 31
0.0
  0
LINE
  5
26E
330
1F
100
AcDbEntity
  8
1
  6
Continuous
 62
    45
370
     9
100
AcDbLine
 10
589.3223945216039
 20
283.9200324946719
 30
0.0
 11
589.3223945216037
 21
336.4200324946719
 31
0.0
  0
LINE
  5
26F
330
1F
100
AcDbEntity
  8
1
  6
Continuous
 62
    45
370
     9
100
AcDbLine
 10
587.0747435216038
 20
319.9200324946719
 30
0.0
 11
581.8652485016038
 21
319.9200324946719
 31
0.0
  0
LINE
  5
270
330
1F
100
AcDbEntity
  8
1
  6
Continuous
 62
    45
370
     9
100
AcDbLine
 10
587.0747435216038
 20
319.9200324946719
 30
0.0
 11
589.3223945216039
 21
317.9200324946719
 31
0.0
  0
LINE
  5
271
330
1F
100
AcDbEntity
  8
1
  6
Continuous
 62
    45
370
     9
100
AcDbLine
 10
589.3223945216039
 20
317.9200324946719
 30
0.0
 11
541.8652485016038
 21
317.9200324946717
 31
0.0
  0
LINE
  5
272
330
1F
100
AcDbEntity
  8
2
  6
Continuous
 62
    90
370
     9
100
AcDbLine
 10
581.8652485016037
 20
336.4200324946719
 30
0.0
 11
581.8652485016038
 21
319.9200324946719
 31
0.0
  0
LINE
  5
273
330
1F
100
AcDbEntity
  8
2
  6
Continuous
 62
    90
370
     9
100
AcDbLine
 10
541.8652485016038
 20
319.9200324946717
 30
0.0
 11
541.8652485016039
 21
284.4200324946717
 31
0.0
  0
LINE
  5
274
330
1F
100
AcDbEntity
  8
2
  6
Continuous
 62
    90
370
     9
100
AcDbLine
 10
581.8652485016038
 20
319.9200324946719
 30
0.0
 11
541.8652485016038
 21
319.9200324946717
 31
0.0
  0
ARC
  5
275
330
1F
100
AcDbEntity
  8
2
  6
Continuous
 62
    90
370
     9
100
AcDbCircle
 10
581.6652485016036
 20
336.7200324946718
 30
0.0
 40
0.3
100
AcDbArc
 50
179.9999999999998
 51
269.9999999999998
  0
ARC
  5
276
330
1F
100
AcDbEntity
  8
2
  6
Continuous
 62
    90
370
     9
100
AcDbCircle
 10
581.6652485016036
 20
359.6200324946717
 30
0.0
 40
0.3
100
AcDbArc
 50
89.99999999999991
 51
179.9999999999998
  0
LINE
  5
277
330
1F
100
AcDbEntity
  8
2
  6
Continuous
 62
    90
370
     9
100
AcDbLine
 10
581.3652485016037
 20
359.6200324946717
 30
0.0
 11
581.3652485016037
 21
336.7200324946718
 31
0.0
  0
ARC
  5
278
330
1F
100
AcDbEntity
  8
2
  6
Continuous
 62
    90
370
     9
100
AcDbCircle
 10
613.0652485016037
 20
336.7200324946718
 30
0.0
 40
0.3
100
AcDbArc
 50
269.9999999999998
 51
0.0
  0
ARC
  5
279
330
1F
100
AcDbEntity
  8
2
  6
Continuous
 62
    90
370
     9
100
AcDbCircle
 10
613.0652485016035
 20
359.6200324946719
 30
0.0
 40
0.3
100
AcDbArc
 50
0.0
 51
89.99999999999991
  0
LINE
  5
27A
330
1F
100
AcDbEntity
  8
2
  6
Continuous
 62
    90
370
     9
100
AcDbLine
 10
613.3652485016037
 20
336.7200324946718
 30
0.0
 11
613.3652485016037
 21
359.6200324946719
 31
0.0
  0
LINE
  5
27B
330
1F
100
AcDbEntity
  8
2
  6
Continuous
 62
    90
370
     9
100
AcDbLine
 10
581.6652485016036
 20
359.9200324946719
 30
0.0
 11
613.0652485016035
 21
359.9200324946719
 31
0.0
  0
LINE
  5
27C
330
1F
100
AcDbEntity
  8
2
  6
Continuous
 62
    90
370
     9
100
AcDbLine
 10
581.6652485016036
 20
336.4200324946719
 30
0.0
 11
581.8652485016037
 21
336.4200324946719
 31
0.0
  0
LINE
  5
27D
330
1F
100
AcDbEntity
  8
2
  6
Continuous
 62
    90
370
     9
100
AcDbLine
 10
612.8652485016039
 20
283.9200324946719
 30
0.0
 11
612.8652485016037
 21
336.4200324946719
 31
0.0
  0
LINE
  5
27E
330
1F
100
AcDbEntity
  8
2
  6
Continuous
 62
    90
370
     9
100
AcDbLine
 10
541.8652485016039
 20
282.4200324946717
 30
0.0
 11
541.8652485016039
 21
284.4200324946717
 31
0.0
  0
LINE
  5
27F
330
1F
100
AcDbEntity
  8
2
  6
Continuous
 62
    90
370
     9
100
AcDbLine
 10
612.8652485016039
 20
283.9200324946719
 30
0.0
 11
610.8652485016039
 21
282.4200324946719
 31
0.0
  0
LINE
  5
280
330
1F
100
AcDbEntity
  8
2
  6
Continuous
 62
    90
370
     9
100
AcDbLine
 10
581.8652485016037
 20
336.4200324946719
 30
0.0
 11
612.8652485016037
 21
336.4200324946719
 31
0.0
  0
LINE
  5
281
330
1F
100
AcDbEntity
  8
2
  6
Continuous
 62
    90
370
     9
100
AcDbLine
 10
541.8652485016039
 20
282.4200324946717
 30
0.0
 11
610.8652485016039
 21
282.4200324946719
 31
0.0
  0
LINE
  5
282
330
1F
100
AcDbEntity
  8
2
  6
Continuous
 62
    90
370
    18
100
AcDbLine
 10
496.8652481954513
 20
305.4200321885135
 30
0.0
 11
541.8652485016028
 21
305.4200321885135
 31
0.0
  0
LINE
  5
283
330
1F
100
AcDbEntity
  8
2
  6
Continuous
 62
    90
370
    18
100
AcDbLine
 10
496.8652481954513
 20
297.4200321885135
 30
0.0
 11
541.8652485016028
 21
297.4200321885135
 31
0.0
  0
LINE
  5
284
330
1F
100
AcDbEntity
  8
1
  6
DASHDOT
 62
    45
370
     9
100
AcDbLine
 10
416.9051924321096
 20
301.4200321885135
 30
0.0
 11
619.5711413066786
 21
301.4200321885135
 31
0.0
  0
LINE
  5
285
330
1F
100
AcDbEntity
  8
1
  6
HIDDEN
 62
    45
370
     9
100
AcDbLine
 10
496.8652481954502
 20
238.2628458472366
 30
0.0
 11
496.8652481954502
 21
1130.044805377499
 31
0.0
  0
LINE
  5
286
330
1F
100
AcDbEntity
  8
1
  6
HIDDEN
 62
    45
370
     9
100
AcDbLine
 10
541.8652485016028
 20
238.2628458472366
 30
0.0
 11
541.8652485016028
 21
1130.044805377499
 31
0.0
  0
LINE
  5
287
330
1F
100
AcDbEntity
  8
2
  6
Continuous
 62
    90
370
    18
100
AcDbLine
 10
456.3637664793982
 20
359.9200321885213
 30
0.0
 11
457.3652481954534
 21
360.9200321885204
 31
0.0
  0
LINE
  5
288
330
1F
100
AcDbEntity
  8
2
  6
Continuous
 62
    90
370
    18
100
AcDbLine
 10
425.3652481954484
 20
360.9200321885251
 30
0.0
 11
426.3637664793994
 21
359.9200321885196
 31
0.0
  0
LINE
  5
289
330
1F
100
AcDbEntity
  8
1
  6
Continuous
 62
    45
370
     9
100
AcDbLine
 10
457.3652481954484
 20
360.9200321885213
 30
0.0
 11
425.3652481954534
 21
360.9200321885196
 31
0.0
  0
LINE
  5
28A
330
1F
100
AcDbEntity
  8
2
  6
Continuous
 62
    90
370
    18
100
AcDbLine
 10
582.3667302176559
 20
359.9200321885213
 30
0.0
 11
581.3652485016007
 21
360.9200321885204
 31
0.0
  0
LINE
  5
28B
330
1F
100
AcDbEntity
  8
2
  6
Continuous
 62
    90
370
    18
100
AcDbLine
 10
613.3652485016057
 20
360.9200321885251
 30
0.0
 11
612.3667302176548
 21
359.9200321885196
 31
0.0
  0
LINE
  5
28C
330
1F
100
AcDbEntity
  8
1
  6
Continuous
 62
    45
370
     9
100
AcDbLine
 10
581.3652485016057
 20
360.9200321885213
 30
0.0
 11
613.3652485016007
 21
360.9200321885196
 31
0.0
  0
DIMENSION
  5
298
330
1F
100
AcDbEntity
  8
6
  6
Continuous
 62
     7
370
     9
100
AcDbDimension
  2
Dim3
 10
673.0652485016026
 20
282.4200324946725
 30
0.0
 11
664.0652485016027
 21
321.1700324946726
 31
0.0
 70
   160
  1
<>
 71
     5
 42
-1.0
  3
Standard
100
AcDbAlignedDimension
 13
610.8652485016028
 23
282.4200324946719
 33
0.0
 14
613.0652485016027
 24
359.9200324946721
 34
0.0
 50
89.99999999999983
100
AcDbRotatedDimension
1001
ACAD
1000
DSTYLE
1002
{
1070
   344
1005
3C
1070
   343
1005
3C
1070
   173
1070
     1
1070
   289
1070
     2
1070
   279
1070
     2
1070
   288
1070
     1
1070
    77
1070
     3
1070
   172
1070
     1
1070
   174
1070
     0
1070
    74
1070
     0
1070
    73
1070
     0
1070
   284
1070
     8
1070
    78
1070
     8
1070
   140
1040
3.0
1070
    40
1040
6.0
1070
    42
1040
2.0
1070
    44
1040
1.0
1070
    43
1040
10.0
1070
   271
1070
     2
1070
    41
1040
2.0
1002
}
  0
LINE
  5
299
330
1F
100
AcDbEntity
  8
2
  6
Continuous
 62
    90
370
    18
100
AcDbLine
 10
905.0587635429047
 20
359.9200324946717
 30
0.0
 11
906.0602452589587
 21
360.9200324946717
 31
0.0
  0
LINE
  5
29A
330
1F
100
AcDbEntity
  8
2
  6
Continuous
 62
    90
370
    18
100
AcDbLine
 10
874.0602452589546
 20
360.9200324946744
 30
0.0
 11
875.0587635429058
 21
359.9200324946698
 31
0.0
  0
LINE
  5
29B
330
1F
100
AcDbEntity
  8
2
  6
Continuous
 62
    90
370
    18
100
AcDbLine
 10
905.5602452589545
 20
284.4200324946717
 30
0.0
 11
905.5602452589537
 21
336.4200324946735
 31
0.0
  0
LINE
  5
29C
330
1F
100
AcDbEntity
  8
2
  6
Continuous
 62
    90
370
    18
100
AcDbLine
 10
874.5602452589586
 20
284.4200324946717
 30
0.0
 11
874.5602452589587
 21
336.4200324946735
 31
0.0
  0
LINE
  5
29D
330
1F
100
AcDbEntity
  8
2
  6
Continuous
 62
    90
370
    18
100
AcDbLine
 10
876.5602452589586
 20
282.4200324946717
 30
0.0
 11
874.5602452589586
 21
284.4200324946717
 31
0.0
  0
LINE
  5
29E
330
1F
100
AcDbEntity
  8
2
  6
Continuous
 62
    90
370
    18
100
AcDbLine
 10
903.5602452589545
 20
282.4200324946717
 30
0.0
 11
905.5602452589545
 21
284.4200324946717
 31
0.0
  0
LINE
  5
29F
330
1F
100
AcDbEntity
  8
2
  6
Continuous
 62
    90
370
    18
100
AcDbLine
 10
903.5602452589545
 20
282.4200324946717
 30
0.0
 11
876.5602452589586
 21
282.4200324946717
 31
0.0
  0
CIRCLE
  5
2A0
330
1F
100
AcDbEntity
  8
2
  6
Continuous
 62
    90
370
    18
100
AcDbCircle
 10
898.0602452589577
 20
310.1700324946735
 30
0.0
 40
2.5
  0
CIRCLE
  5
2A1
330
1F
100
AcDbEntity
  8
2
  6
Continuous
 62
    90
370
    18
100
AcDbCircle
 10
882.0602452589577
 20
310.1700324946735
 30
0.0
 40
2.5
  0
CIRCLE
  5
2A2
330
1F
100
AcDbEntity
  8
2
  6
Continuous
 62
    90
370
    18
100
AcDbCircle
 10
890.0602452589545
 20
290.1700324946726
 30
0.0
 40
2.5
  0
ARC
  5
2A3
330
1F
100
AcDbEntity
  8
2
  6
Continuous
 62
    90
370
    18
100
AcDbCircle
 10
874.3602452589646
 20
359.6200328008256
 30
0.0
 40
0.3
100
AcDbArc
 50
89.99999999999991
 51
179.9999999999998
  0
ARC
  5
2A4
330
1F
100
AcDbEntity
  8
2
  6
Continuous
 62
    90
370
    18
100
AcDbCircle
 10
874.3602452589585
 20
336.7200328008314
 30
0.0
 40
0.3
100
AcDbArc
 50
179.9999999999998
 51
269.9999999999998
  0
ARC
  5
2A5
330
1F
100
AcDbEntity
  8
2
  6
Continuous
 62
    90
370
    18
100
AcDbCircle
 10
874.3602452589575
 20
359.620032800831
 30
0.0
 40
0.3
100
AcDbArc
 50
89.99999999999991
 51
179.9999999999998
  0
LINE
  5
2A6
330
1F
100
AcDbEntity
  8
2
  6
Continuous
 62
    90
370
    18
100
AcDbLine
 10
874.0602452589585
 20
336.7200328008314
 30
0.0
 11
874.0602452589576
 21
359.620032800831
 31
0.0
  0
ARC
  5
2A7
330
1F
100
AcDbEntity
  8
2
  6
Continuous
 62
    90
370
    18
100
AcDbCircle
 10
905.7602452589626
 20
359.6200328008302
 30
0.0
 40
0.3
100
AcDbArc
 50
0.0
 51
89.99999999999991
  0
ARC
  5
2A8
330
1F
100
AcDbEntity
  8
2
  6
Continuous
 62
    90
370
    18
100
AcDbCircle
 10
905.7602452589556
 20
336.7200328008333
 30
0.0
 40
0.3
100
AcDbArc
 50
269.9999999999998
 51
0.0
  0
ARC
  5
2A9
330
1F
100
AcDbEntity
  8
2
  6
Continuous
 62
    90
370
    18
100
AcDbCircle
 10
905.7602452589556
 20
359.6200328008339
 30
0.0
 40
0.3
100
AcDbArc
 50
0.0
 51
89.99999999999991
  0
LINE
  5
2AA
330
1F
100
AcDbEntity
  8
2
  6
Continuous
 62
    90
370
    18
100
AcDbLine
 10
906.0602452589567
 20
359.6200328008339
 30
0.0
 11
906.0602452589567
 21
336.7200328008333
 31
0.0
  0
LINE
  5
2AB
330
1F
100
AcDbEntity
  8
2
  6
Continuous
 62
    90
370
    18
100
AcDbLine
 10
905.7602452589626
 20
359.9200328008341
 30
0.0
 11
874.3602452589646
 21
359.920032800834
 31
0.0
  0
LINE
  5
2AC
330
1F
100
AcDbEntity
  8
2
  6
Continuous
 62
    90
370
    18
100
AcDbLine
 10
905.7602452589556
 20
336.4200328008332
 30
0.0
 11
874.3602452589585
 21
336.420032800833
 31
0.0
  0
LINE
  5
2AD
330
1F
100
AcDbEntity
  8
1
  6
Continuous
 62
    45
370
     9
100
AcDbLine
 10
902.8102452589567
 20
336.4200324946726
 30
0.0
 11
902.8102452589566
 21
284.4200324946726
 31
0.0
  0
LINE
  5
2AE
330
1F
100
AcDbEntity
  8
1
  6
Continuous
 62
    45
370
     9
100
AcDbLine
 10
877.3102452589567
 20
336.4200324946717
 30
0.0
 11
877.3102452589566
 21
284.4200324946726
 31
0.0
  0
LINE
  5
2AF
330
1F
100
AcDbEntity
  8
1
  6
Continuous
 62
    45
370
     9
100
AcDbLine
 10
902.8102452589566
 20
317.9200324946717
 30
0.0
 11
900.8102452589567
 21
319.9200324946717
 31
0.0
  0
LINE
  5
2B0
330
1F
100
AcDbEntity
  8
1
  6
Continuous
 62
    45
370
     9
100
AcDbLine
 10
879.3102452589567
 20
319.9200324946717
 30
0.0
 11
877.3102452589566
 21
317.9200324946717
 31
0.0
  0
LINE
  5
2B1
330
1F
100
AcDbEntity
  8
1
  6
Continuous
 62
    45
370
     9
100
AcDbLine
 10
900.8102452589567
 20
319.9200324946717
 30
0.0
 11
879.3102452589567
 21
319.9200324946717
 31
0.0
  0
LINE
  5
2B2
330
1F
100
AcDbEntity
  8
1
  6
Continuous
 62
    45
370
     9
100
AcDbLine
 10
874.5602452589586
 20
284.4200324946735
 30
0.0
 11
905.5602452589545
 21
284.4200324946717
 31
0.0
  0
LINE
  5
2B3
330
1F
100
AcDbEntity
  8
1
  6
Continuous
 62
    45
370
     9
100
AcDbLine
 10
902.8102452589557
 20
284.4200324946717
 30
0.0
 11
900.8102452589557
 21
282.4200324946717
 31
0.0
  0
LINE
  5
2B4
330
1F
100
AcDbEntity
  8
1
  6
Continuous
 62
    45
370
     9
100
AcDbLine
 10
879.3102452589566
 20
282.4200324946717
 30
0.0
 11
877.3102452589557
 21
284.4200324946717
 31
0.0
  0
LINE
  5
2B5
330
1F
100
AcDbEntity
  8
1
  6
Continuous
 62
    45
370
     9
100
AcDbLine
 10
906.0602452589546
 20
360.9200324946771
 30
0.0
 11
874.0602452589546
 21
360.9200324946744
 31
0.0
  0
LINE
  5
2B6
330
1F
100
AcDbEntity
  8
1
  6
DASHDOT
 62
    45
370
     9
100
AcDbLine
 10
906.8309225574588
 20
301.4200324946717
 30
0.0
 11
862.1577750492037
 21
301.4200324946717
 31
0.0
  0
ARC
  5
2B7
330
1F
100
AcDbEntity
  8
2
  6
Continuous
 62
    90
370
    18
100
AcDbCircle
 10
890.0602452589566
 20
300.6700324946717
 30
0.0
 40
4.25
100
AcDbArc
 50
179.9999999999998
 51
0.0
  0
LINE
  5
2B8
330
1F
100
AcDbEntity
  8
2
  6
Continuous
 62
    90
370
    18
100
AcDbLine
 10
894.3102452589566
 20
302.1700324946717
 30
0.0
 11
894.3102452589566
 21
300.6700324946717
 31
0.0
  0
LINE
  5
2B9
330
1F
100
AcDbEntity
  8
2
  6
Continuous
 62
    90
370
    18
100
AcDbLine
 10
885.8102452589566
 20
302.1700324946717
 30
0.0
 11
885.8102452589566
 21
300.6700324946717
 31
0.0
  0
ARC
  5
2BA
330
1F
100
AcDbEntity
  8
2
  6
Continuous
 62
    90
370
    18
100
AcDbCircle
 10
890.0602452589566
 20
302.1700324946717
 30
0.0
 40
4.25
100
AcDbArc
 50
0.0
 51
179.9999999999998
  0
DIMENSION
  5
2C6
330
1F
100
AcDbEntity
  8
6
  6
Continuous
 62
     7
370
     9
100
AcDbDimension
  2
Dim4
 10
822.5602452589598
 20
282.4200324946733
 30
0.0
 11
813.5602452589598
 21
301.1700324946728
 31
0.0
 70
   160
  1
<>
 71
     5
 42
-1.0
  3
Standard
100
AcDbAlignedDimension
 13
876.5602452589598
 23
282.4200324946735
 33
0.0
 14
874.5602452589598
 24
319.9200324946726
 34
0.0
 50
89.99999999999991
100
AcDbRotatedDimension
1001
ACAD
1000
DSTYLE
1002
{
1070
   344
1005
3C
1070
   343
1005
3C
1070
   173
1070
     1
1070
   289
1070
     2
1070
   279
1070
     2
1070
   288
1070
     1
1070
    77
1070
     3
1070
   172
1070
     1
1070
   174
1070
     0
1070
    74
1070
     0
1070
    73
1070
     0
1070
   284
1070
     8
1070
    78
1070
     8
1070
   140
1040
3.0
1070
    40
1040
6.0
1070
    42
1040
2.0
1070
    44
1040
1.0
1070
    43
1040
10.0
1070
   271
1070
     2
1070
    41
1040
2.0
1002
}
  0
CIRCLE
  5
2C7
330
1F
100
AcDbEntity
  8
6
  6
Continuous
 62
     7
370
     9
100
AcDbCircle
 10
519.3652483485265
 20
301.4200321885135
 30
0.0
 40
55.65444874022251
  0
TEXT
  5
2C8
330
1F
100
AcDbEntity
  8
6
  6
Continuous
 62
     7
370
     9
100
AcDbText
 10
548.0954629629623
 20
229.4750925925913
 30
0.0
 40
24.0
  1
Ａ　部
 41
0.8333333333333335
100
AcDbText
  0
LINE
  5
2C9
330
1F
100
AcDbEntity
  8
2
  6
Continuous
 62
    90
370
    18
100
AcDbLine
 10
613.3652485015998
 20
841.9200321385227
 30
0.0
 11
613.3652485016057
 21
360.9200321885251
 31
0.0
  0
DIMENSION
  5
2D5
330
1F
100
AcDbEntity
  8
6
  6
Continuous
 62
     7
370
     9
100
AcDbDimension
  2
Dim5
 10
317.365248195453
 20
920.4200321885112
 30
0.0
 11
308.365248195453
 21
601.4200323415914
 31
0.0
 70
   160
  1
<>
 71
     5
 42
-1.0
  3
Standard
100
AcDbAlignedDimension
 13
425.3652481954557
 23
920.4200321885112
 33
0.0
 14
425.3652481954557
 24
282.4200324946717
 34
0.0
 50
89.99999999999991
100
AcDbRotatedDimension
1001
ACAD
1000
DSTYLE
1002
{
1070
   286
1070
     8
1070
    48
1040
2.0
1070
    47
1040
2.0
1070
   146
1040
1.0
1070
   272
1070
     0
1070
   283
1070
     1
1070
    71
1070
     1
1070
   344
1005
3C
1070
   343
1005
3C
1070
   173
1070
     1
1070
   289
1070
     2
1070
   279
1070
     2
1070
   288
1070
     1
1070
    77
1070
     3
1070
   172
1070
     1
1070
   174
1070
     0
1070
    74
1070
     0
1070
    73
1070
     0
1070
   284
1070
     8
1070
    78
1070
     8
1070
   140
1040
3.0
1070
    40
1040
6.0
1070
    42
1040
2.0
1070
    44
1040
1.0
1070
    43
1040
10.0
1070
   271
1070
     2
1070
    41
1040
2.0
1002
}
  0
LINE
  5
2D6
330
1F
100
AcDbEntity
  8
2
  6
Continuous
 62
    90
370
    18
100
AcDbLine
 10
906.0602452589608
 20
360.9200324946871
 30
0.0
 11
906.0602452589617
 21
841.9200324446849
 31
0.0
  0
LINE
  5
2D7
330
1F
100
AcDbEntity
  8
2
  6
Continuous
 62
    90
370
    18
100
AcDbLine
 10
874.0602452589546
 20
841.9200324446804
 30
0.0
 11
874.0602452589496
 21
360.9200324946808
 31
0.0
  0
LINE
  5
2D8
330
1F
100
AcDbEntity
  8
1
  6
DASHDOT
 62
    45
370
     9
100
AcDbLine
 10
890.0602452589578
 20
935.8840591232849
 30
0.0
 11
890.0602452589566
 21
273.0060283828466
 31
0.0
  0
DIMENSION
  5
2E4
330
1F
100
AcDbEntity
  8
6
  6
Continuous
 62
     7
370
     9
100
AcDbDimension
  2
Dim6
 10
966.0602452589615
 20
301.4200324946708
 30
0.0
 11
957.0602452589615
 21
601.4200324696789
 31
0.0
 70
   160
  1
<>
 71
     5
 42
-1.0
  3
Standard
100
AcDbAlignedDimension
 13
906.8309225574588
 23
301.4200324946717
 33
0.0
 14
906.83092255746
 24
901.4200324446876
 34
0.0
 50
89.99999999999991
100
AcDbRotatedDimension
1001
ACAD
1000
DSTYLE
1002
{
1070
   286
1070
     8
1070
    48
1040
2.0
1070
    47
1040
2.0
1070
   146
1040
1.0
1070
   272
1070
     0
1070
   283
1070
     1
1070
    71
1070
     1
1070
   344
1005
3C
1070
   343
1005
3C
1070
   173
1070
     1
1070
   289
1070
     2
1070
   279
1070
     2
1070
   288
1070
     1
1070
    77
1070
     3
1070
   172
1070
     1
1070
   174
1070
     0
1070
    74
1070
     0
1070
    73
1070
     0
1070
   284
1070
     8
1070
    78
1070
     8
1070
   140
1040
3.0
1070
    40
1040
6.0
1070
    42
1040
2.0
1070
    44
1040
1.0
1070
    43
1040
10.0
1070
   271
1070
     2
1070
    41
1040
2.0
1002
}
  0
LINE
  5
2E5
330
1F
100
AcDbEntity
  8
2
  6
Continuous
 62
    90
370
    18
100
AcDbLine
 10
581.3652485016057
 20
360.9200321885213
 30
0.0
 11
581.3652485015998
 21
841.9200321385191
 31
0.0
  0
DIMENSION
  5
2F1
330
1F
100
AcDbEntity
  8
6
  6
Continuous
 62
     7
370
     9
100
AcDbDimension
  2
Dim7
 10
365.365248195453
 20
859.4200321885138
 30
0.0
 11
356.365248195453
 21
601.4200321885138
 31
0.0
 70
   160
  1
<>
 71
     5
 42
-1.0
  3
Standard
100
AcDbAlignedDimension
 13
416.9051924321096
 23
859.4200321885135
 33
0.0
 14
416.9051924321096
 24
343.4200321885135
 34
0.0
 50
89.99999999999991
100
AcDbRotatedDimension
1001
ACAD
1000
DSTYLE
1002
{
1070
   286
1070
     8
1070
    48
1040
2.0
1070
    47
1040
2.0
1070
   146
1040
1.0
1070
   272
1070
     0
1070
   283
1070
     1
1070
    71
1070
     1
1070
   344
1005
3C
1070
   343
1005
3C
1070
   173
1070
     1
1070
   289
1070
     2
1070
   279
1070
     2
1070
   288
1070
     1
1070
    77
1070
     3
1070
   172
1070
     1
1070
   174
1070
     0
1070
    74
1070
     0
1070
    73
1070
     0
1070
   284
1070
     8
1070
    78
1070
     8
1070
   140
1040
3.0
1070
    40
1040
6.0
1070
    42
1040
2.0
1070
    44
1040
1.0
1070
    43
1040
10.0
1070
   271
1070
     2
1070
    41
1040
2.0
1002
}
  0
LINE
  5
2F2
330
1F
100
AcDbEntity
  8
2
  6
Continuous
 62
    90
370
    18
100
AcDbLine
 10
457.3652481954459
 20
447.0375159151279
 30
0.0
 11
457.3652481954464
 21
485.8025490741888
 31
0.0
  0
ARC
  5
2F3
330
1F
100
AcDbEntity
  8
2
  6
Continuous
 62
    90
370
    18
100
AcDbCircle
 10
407.3652481954454
 20
447.0375159151284
 30
0.0
 40
50.0
100
AcDbArc
 50
353.2976424942882
 51
359.9999999999993
  0
ARC
  5
2F4
330
1F
100
AcDbEntity
  8
2
  6
Continuous
 62
    90
370
    18
100
AcDbCircle
 10
407.3652481954462
 20
395.8025490741887
 30
0.0
 40
50.0
100
AcDbArc
 50
359.9999999999995
 51
6.702357505716065
  0
ARC
  5
2F5
330
1F
100
AcDbEntity
  8
2
  6
Continuous
 62
    90
370
    18
100
AcDbCircle
 10
625.3590822369022
 20
421.420032494662
 30
0.0
 40
169.4938886094373
100
AcDbArc
 50
173.2976424942868
 51
186.7023575057139
  0
ARC
  5
2F6
330
1F
100
AcDbEntity
  8
2
  6
Continuous
 62
    90
370
    18
100
AcDbCircle
 10
407.3652481954455
 20
537.0375159151286
 30
0.0
 40
50.0
100
AcDbArc
 50
353.297642494288
 51
359.9999999999991
  0
ARC
  5
2F7
330
1F
100
AcDbEntity
  8
2
  6
Continuous
 62
    90
370
    18
100
AcDbCircle
 10
407.3652481954464
 20
485.8025490741888
 30
0.0
 40
50.0
100
AcDbArc
 50
0.0
 51
6.702357505715902
  0
ARC
  5
2F8
330
1F
100
AcDbEntity
  8
2
  6
Continuous
 62
    90
370
    18
100
AcDbCircle
 10
625.3590822369023
 20
511.420032494662
 30
0.0
 40
169.4938886094373
100
AcDbArc
 50
173.2976424942868
 51
186.7023575057139
  0
LINE
  5
2F9
330
1F
100
AcDbEntity
  8
2
  6
Continuous
 62
    90
370
    18
100
AcDbLine
 10
457.3652481954462
 20
575.8025487680452
 30
0.0
 11
457.3652481954464
 21
537.0375156089842
 31
0.0
  0
LINE
  5
2FA
330
1F
100
AcDbEntity
  8
2
  6
Continuous
 62
    90
370
    18
100
AcDbLine
 10
457.3652481954464
 20
755.802548768045
 30
0.0
 11
457.3652481954467
 21
717.0375156089842
 31
0.0
  0
ARC
  5
2FB
330
1F
100
AcDbEntity
  8
2
  6
Continuous
 62
    90
370
    18
100
AcDbCircle
 10
407.3652481954459
 20
755.8025487680445
 30
0.0
 40
50.0
100
AcDbArc
 50
0.0000000000005211
 51
6.702357505711671
  0
ARC
  5
2FC
330
1F
100
AcDbEntity
  8
2
  6
Continuous
 62
    90
370
    18
100
AcDbCircle
 10
407.3652481954468
 20
807.0375156089842
 30
0.0
 40
50.0
100
AcDbArc
 50
353.2976424942838
 51
0.0
  0
ARC
  5
2FD
330
1F
100
AcDbEntity
  8
2
  6
Continuous
 62
    90
370
    18
100
AcDbCircle
 10
625.3590822369027
 20
781.4200321885105
 30
0.0
 40
169.4938886094373
100
AcDbArc
 50
173.2976424942856
 51
186.7023575057127
  0
LINE
  5
2FE
330
1F
100
AcDbEntity
  8
2
  6
Continuous
 62
    90
370
    18
100
AcDbLine
 10
457.3652481954463
 20
665.8025487680454
 30
0.0
 11
457.3652481954466
 21
627.0375156089844
 31
0.0
  0
ARC
  5
2FF
330
1F
100
AcDbEntity
  8
2
  6
Continuous
 62
    90
370
    18
100
AcDbCircle
 10
407.3652481954457
 20
665.802548768045
 30
0.0
 40
50.0
100
AcDbArc
 50
0.0000000000002606
 51
6.702357505711411
  0
ARC
  5
300
330
1F
100
AcDbEntity
  8
2
  6
Continuous
 62
    90
370
    18
100
AcDbCircle
 10
407.3652481954467
 20
717.0375156089847
 30
0.0
 40
50.0
100
AcDbArc
 50
353.2976424942835
 51
0.0
  0
ARC
  5
301
330
1F
100
AcDbEntity
  8
2
  6
Continuous
 62
    90
370
    18
100
AcDbCircle
 10
625.3590822369026
 20
691.4200321885107
 30
0.0
 40
169.4938886094373
100
AcDbArc
 50
173.2976424942856
 51
186.7023575057127
  0
ARC
  5
302
330
1F
100
AcDbEntity
  8
2
  6
Continuous
 62
    90
370
    18
100
AcDbCircle
 10
407.3652481954456
 20
575.8025487680447
 30
0.0
 40
50.0
100
AcDbArc
 50
0.0000000000005211
 51
6.702357505711671
  0
ARC
  5
303
330
1F
100
AcDbEntity
  8
2
  6
Continuous
 62
    90
370
    18
100
AcDbCircle
 10
407.3652481954466
 20
627.0375156089844
 30
0.0
 40
50.0
100
AcDbArc
 50
353.2976424942838
 51
0.0
  0
ARC
  5
304
330
1F
100
AcDbEntity
  8
2
  6
Continuous
 62
    90
370
    18
100
AcDbCircle
 10
625.3590822369024
 20
601.4200321885107
 30
0.0
 40
169.4938886094373
100
AcDbArc
 50
173.2976424942856
 51
186.7023575057127
  0
LINE
  5
305
330
1F
100
AcDbEntity
  8
2
  6
Continuous
 62
    90
370
    18
100
AcDbLine
 10
425.365248195455
 20
447.0375159151279
 30
0.0
 11
425.3652481954548
 21
485.8025490741888
 31
0.0
  0
ARC
  5
306
330
1F
100
AcDbEntity
  8
2
  6
Continuous
 62
    90
370
    18
100
AcDbCircle
 10
475.3652481954556
 20
447.0375159151283
 30
0.0
 40
50.0
100
AcDbArc
 50
179.9999999999998
 51
186.702357505711
  0
ARC
  5
307
330
1F
100
AcDbEntity
  8
2
  6
Continuous
 62
    90
370
    18
100
AcDbCircle
 10
475.3652481954546
 20
395.8025490741886
 30
0.0
 40
50.0
100
AcDbArc
 50
173.2976424942838
 51
179.9999999999999
  0
ARC
  5
308
330
1F
100
AcDbEntity
  8
2
  6
Continuous
 62
    90
370
    18
100
AcDbCircle
 10
257.3714141539988
 20
421.4200324946626
 30
0.0
 40
169.4938886094373
100
AcDbArc
 50
353.2976424942852
 51
6.702357505713036
  0
ARC
  5
309
330
1F
100
AcDbEntity
  8
2
  6
Continuous
 62
    90
370
    18
100
AcDbCircle
 10
475.3652481954557
 20
537.0375159151286
 30
0.0
 40
50.0
100
AcDbArc
 50
180.0000000000002
 51
186.7023575057113
  0
ARC
  5
30A
330
1F
100
AcDbEntity
  8
2
  6
Continuous
 62
    90
370
    18
100
AcDbCircle
 10
475.3652481954548
 20
485.8025490741888
 30
0.0
 40
50.0
100
AcDbArc
 50
173.2976424942841
 51
179.9999999999998
  0
ARC
  5
30B
330
1F
100
AcDbEntity
  8
2
  6
Continuous
 62
    90
370
    18
100
AcDbCircle
 10
257.3714141539989
 20
511.4200324946626
 30
0.0
 40
169.4938886094373
100
AcDbArc
 50
353.2976424942852
 51
6.702357505713055
  0
LINE
  5
30C
330
1F
100
AcDbEntity
  8
2
  6
Continuous
 62
    90
370
    18
100
AcDbLine
 10
425.3652481954553
 20
575.8025487680452
 30
0.0
 11
425.3652481954548
 21
537.0375156089842
 31
0.0
  0
LINE
  5
30D
330
1F
100
AcDbEntity
  8
2
  6
Continuous
 62
    90
370
    18
100
AcDbLine
 10
425.3652481954555
 20
755.802548768045
 30
0.0
 11
425.3652481954551
 21
717.0375156089842
 31
0.0
  0
ARC
  5
30E
330
1F
100
AcDbEntity
  8
2
  6
Continuous
 62
    90
370
    18
100
AcDbCircle
 10
475.365248195456
 20
755.8025487680445
 30
0.0
 40
50.0
100
AcDbArc
 50
173.2976424942883
 51
179.9999999999995
  0
ARC
  5
30F
330
1F
100
AcDbEntity
  8
2
  6
Continuous
 62
    90
370
    18
100
AcDbCircle
 10
475.3652481954553
 20
807.0375156089841
 30
0.0
 40
50.0
100
AcDbArc
 50
179.9999999999999
 51
186.7023575057154
  0
ARC
  5
310
330
1F
100
AcDbEntity
  8
2
  6
Continuous
 62
    90
370
    18
100
AcDbCircle
 10
257.3714141539994
 20
781.420032188511
 30
0.0
 40
169.4938886094373
100
AcDbArc
 50
353.2976424942864
 51
6.70235750571429
  0
LINE
  5
311
330
1F
100
AcDbEntity
  8
2
  6
Continuous
 62
    90
370
    18
100
AcDbLine
 10
425.3652481954554
 20
665.8025487680454
 30
0.0
 11
425.365248195455
 21
627.0375156089844
 31
0.0
  0
ARC
  5
312
330
1F
100
AcDbEntity
  8
2
  6
Continuous
 62
    90
370
    18
100
AcDbCircle
 10
475.3652481954559
 20
665.802548768045
 30
0.0
 40
50.0
100
AcDbArc
 50
173.2976424942886
 51
179.9999999999997
  0
ARC
  5
313
330
1F
100
AcDbEntity
  8
2
  6
Continuous
 62
    90
370
    18
100
AcDbCircle
 10
475.3652481954551
 20
717.0375156089847
 30
0.0
 40
50.0
100
AcDbArc
 50
179.9999999999998
 51
186.7023575057158
  0
ARC
  5
314
330
1F
100
AcDbEntity
  8
2
  6
Continuous
 62
    90
370
    18
100
AcDbCircle
 10
257.3714141539992
 20
691.4200321885112
 30
0.0
 40
169.4938886094373
100
AcDbArc
 50
353.2976424942864
 51
6.70235750571429
  0
ARC
  5
315
330
1F
100
AcDbEntity
  8
2
  6
Continuous
 62
    90
370
    18
100
AcDbCircle
 10
475.3652481954558
 20
575.8025487680447
 30
0.0
 40
50.0
100
AcDbArc
 50
173.2976424942883
 51
179.9999999999995
  0
ARC
  5
316
330
1F
100
AcDbEntity
  8
2
  6
Continuous
 62
    90
370
    18
100
AcDbCircle
 10
475.365248195455
 20
627.0375156089844
 30
0.0
 40
50.0
100
AcDbArc
 50
179.9999999999998
 51
186.7023575057155
  0
ARC
  5
317
330
1F
100
AcDbEntity
  8
2
  6
Continuous
 62
    90
370
    18
100
AcDbCircle
 10
257.371414153999
 20
601.4200321885112
 30
0.0
 40
169.4938886094373
100
AcDbArc
 50
353.2976424942864
 51
6.70235750571429
  0
LINE
  5
318
330
1F
100
AcDbEntity
  8
2
  6
Continuous
 62
    90
370
    18
100
AcDbLine
 10
457.3652481954466
 20
841.9200321385255
 30
0.0
 11
457.3652481954468
 21
807.0375156089838
 31
0.0
  0
LINE
  5
319
330
1F
100
AcDbEntity
  8
2
  6
Continuous
 62
    90
370
    18
100
AcDbLine
 10
425.3652481954557
 20
841.9200321385268
 30
0.0
 11
425.3652481954553
 21
807.0375156089838
 31
0.0
  0
LINE
  5
31A
330
1F
100
AcDbEntity
  8
2
  6
Continuous
 62
    90
370
    18
100
AcDbLine
 10
457.3652481954458
 20
360.9200321885128
 30
0.0
 11
457.3652481954462
 21
395.8025490741895
 31
0.0
  0
LINE
  5
31B
330
1F
100
AcDbEntity
  8
2
  6
Continuous
 62
    90
370
    18
100
AcDbLine
 10
425.3652481954549
 20
360.9200321885196
 30
0.0
 11
425.3652481954546
 21
395.8025490741895
 31
0.0
  0
DIMENSION
  5
325
330
1F
100
AcDbEntity
  8
6
  6
Continuous
 62
     7
370
     9
100
AcDbDimension
  2
Dim8
 10
581.3652485016079
 20
647.9268518518525
 30
0.0
 11
631.8571454587242
 21
656.9268518518525
 31
0.0
 70
   160
  1
<>
 71
     5
 42
-1.0
  3
Standard
100
AcDbAlignedDimension
 13
581.3652485016079
 23
647.9268518518525
 33
0.0
 14
613.3652485015987
 24
647.9268518518525
 34
0.0
100
AcDbRotatedDimension
1001
ACAD
1000
DSTYLE
1002
{
1070
   344
1005
3C
1070
   343
1005
3C
1070
   173
1070
     1
1070
   289
1070
     2
1070
   279
1070
     2
1070
   288
1070
     1
1070
    77
1070
     3
1070
   172
1070
     1
1070
   174
1070
     0
1070
    74
1070
     0
1070
    73
1070
     0
1070
   284
1070
     8
1070
    78
1070
     8
1070
   140
1040
3.0
1070
    40
1040
6.0
1070
    42
1040
2.0
1070
    44
1040
1.0
1070
    43
1040
10.0
1070
   271
1070
     2
1070
    41
1040
2.0
1002
}
  0
DIMENSION
  5
32F
330
1F
100
AcDbEntity
  8
6
  6
Continuous
 62
     7
370
     9
100
AcDbDimension
  2
Dim9
 10
426.8653027634364
 20
511.4200324946626
 30
0.0
 11
407.7106744368677
 21
520.4200324946626
 31
0.0
 70
   160
  1
<>
 71
     5
 42
-1.0
  3
Standard
100
AcDbAlignedDimension
 13
426.8653027634364
 23
511.420032494663
 33
0.0
 14
455.865193627465
 24
511.420032494663
 34
0.0
100
AcDbRotatedDimension
1001
ACAD
1000
DSTYLE
1002
{
1070
   344
1005
3C
1070
   343
1005
3C
1070
   173
1070
     1
1070
   289
1070
     2
1070
   279
1070
     2
1070
   288
1070
     1
1070
    77
1070
     3
1070
   172
1070
     1
1070
   174
1070
     0
1070
    74
1070
     0
1070
    73
1070
     0
1070
   284
1070
     8
1070
    78
1070
     8
1070
   140
1040
3.0
1070
    40
1040
6.0
1070
    42
1040
2.0
1070
    44
1040
1.0
1070
    43
1040
10.0
1070
   271
1070
     2
1070
    41
1040
2.0
1002
}
  0
DIMENSION
  5
339
330
1F
100
AcDbEntity
  8
6
  6
Continuous
 62
     7
370
     9
100
AcDbDimension
  2
Dim10
 10
457.3652481954462
 20
647.9268518518516
 30
0.0
 11
398.6954244104973
 21
656.9268518518516
 31
0.0
 70
   160
  1
<>
 71
     5
 42
-1.0
  3
Standard
100
AcDbAlignedDimension
 13
457.3652481954462
 23
647.9268518518516
 33
0.0
 14
425.3652481954554
 24
647.9268518518516
 34
0.0
100
AcDbRotatedDimension
1001
ACAD
1000
DSTYLE
1002
{
1070
   344
1005
3C
1070
   343
1005
3C
1070
   173
1070
     1
1070
   289
1070
     2
1070
   279
1070
     2
1070
   288
1070
     1
1070
    77
1070
     3
1070
   172
1070
     1
1070
   174
1070
     0
1070
    74
1070
     0
1070
    73
1070
     0
1070
   284
1070
     8
1070
    78
1070
     8
1070
   140
1040
3.0
1070
    40
1040
6.0
1070
    42
1040
2.0
1070
    44
1040
1.0
1070
    43
1040
10.0
1070
   271
1070
     2
1070
    41
1040
2.0
1002
}
  0
TEXT
  5
33A
330
1F
100
AcDbEntity
  8
8
  6
Continuous
 62
   171
370
     9
100
AcDbText
 10
1158.6
 20
180.0
 30
0.0
 40
24.0
  1
木製ドアハンドル
 41
0.5000000000000012
100
AcDbText
  0
TEXT
  5
33B
330
1F
100
AcDbEntity
  8
8
  6
Continuous
 62
   171
370
     9
100
AcDbText
 10
1158.6
 20
132.0
 30
0.0
 40
24.0
  1
ＤＷ－
 41
0.5000000000000032
100
AcDbText
  0
TEXT
  5
33C
330
1F
100
AcDbEntity
  8
8
  6
Continuous
 62
   171
370
     9
100
AcDbText
 10
1410.688368854941
 20
533.9024999999997
 30
0.0
 40
18.0
  1
品　　番
 41
0.6666666666666683
100
AcDbText
  0
TEXT
  5
33D
330
1F
100
AcDbEntity
  8
8
  6
Continuous
 62
   171
370
     9
100
AcDbText
 10
1124.308368854941
 20
533.9024999999997
 30
0.0
 40
18.0
  1
品　　番
 41
0.6666666666666683
100
AcDbText
  0
TEXT
  5
33E
330
1F
100
AcDbEntity
  8
8
  6
Continuous
 62
   171
370
     9
100
AcDbText
 10
1137.704813299385
 20
503.9024999999997
 30
0.0
 40
18.0
  1
Ｄ－Ｎ
 41
0.5000000000000084
100
AcDbText
  0
TEXT
  5
33F
330
1F
100
AcDbEntity
  8
8
  6
Continuous
 62
   171
370
     9
100
AcDbText
 10
1137.704813299385
 20
473.9024999999998
 30
0.0
 40
18.0
  1
Ｄ－Ｄ
 41
0.5000000000000084
100
AcDbText
  0
TEXT
  5
340
330
1F
100
AcDbEntity
  8
8
  6
Continuous
 62
   171
370
     9
100
AcDbText
 10
1137.704813299385
 20
443.9024999999998
 30
0.0
 40
18.0
  1
Ｄ－Ｓ
 41
0.5000000000000084
100
AcDbText
  0
TEXT
  5
341
330
1F
100
AcDbEntity
  8
8
  6
Continuous
 62
   171
370
     9
100
AcDbText
 10
1424.084813299385
 20
503.9024999999999
 30
0.0
 40
18.0
  1
Ｓ－Ｓ
 41
0.5000000000000084
100
AcDbText
  0
TEXT
  5
342
330
1F
100
AcDbEntity
  8
8
  6
Continuous
 62
   171
370
     9
100
AcDbText
 10
1424.084813299385
 20
473.9024999999998
 30
0.0
 40
18.0
  1
Ｓ－Ｃ
 41
0.5000000000000084
100
AcDbText
  0
TEXT
  5
343
330
1F
100
AcDbEntity
  8
8
  6
Continuous
 62
   171
370
     9
100
AcDbText
 10
1424.084813299385
 20
443.9024999999997
 30
0.0
 40
18.0
  1
Ｓ－Ｎ
 41
0.5000000000000084
100
AcDbText
  0
TEXT
  5
344
330
1F
100
AcDbEntity
  8
8
  6
Continuous
 62
   171
370
     9
100
AcDbText
 10
1424.084813299385
 20
413.9024999999997
 30
0.0
 40
18.0
  1
Ｓ－Ｄ
 41
0.5000000000000084
100
AcDbText
  0
LINE
  5
345
330
1F
100
AcDbEntity
  8
8
  6
Continuous
 62
   171
370
    18
100
AcDbLine
 10
1380.947924410497
 20
557.9024999999997
 30
0.0
 11
1380.947924410497
 21
407.9024999999996
 31
0.0
  0
LINE
  5
346
330
1F
100
AcDbEntity
  8
8
  6
Continuous
 62
   171
370
    18
100
AcDbLine
 10
1094.567924410497
 20
557.9024999999997
 30
0.0
 11
1094.567924410497
 21
437.9024999999997
 31
0.0
  0
TEXT
  5
347
330
1F
100
AcDbEntity
  8
8
  6
Continuous
 62
   171
370
     9
100
AcDbText
 10
1518.947924410497
 20
443.9024999999998
 30
0.0
 40
18.0
  1
ナチュラル
 41
0.5
100
AcDbText
  0
TEXT
  5
348
330
1F
100
AcDbEntity
  8
8
  6
Continuous
 62
   171
370
     9
100
AcDbText
 10
1529.747924410497
 20
413.9024999999996
 30
0.0
 40
18.0
  1
ダーク
 41
0.4999999999999944
100
AcDbText
  0
TEXT
  5
349
330
1F
100
AcDbEntity
  8
8
  6
Continuous
 62
   171
370
     9
100
AcDbText
 10
1538.747924410497
 20
533.9024999999997
 30
0.0
 40
18.0
  1
色
 41
0.6666666666666499
100
AcDbText
  0
LINE
  5
34A
330
1F
100
AcDbEntity
  8
8
  6
Continuous
 62
   171
370
    18
100
AcDbLine
 10
1500.947924410497
 20
557.9024999999997
 30
0.0
 11
1500.947924410497
 21
407.9024999999996
 31
0.0
  0
LINE
  5
34B
330
1F
100
AcDbEntity
  8
8
  6
Continuous
 62
   171
370
    18
100
AcDbLine
 10
1590.947924410496
 20
557.9024999999997
 30
0.0
 11
1590.947924410496
 21
407.9024999999996
 31
0.0
  0
TEXT
  5
34C
330
1F
100
AcDbEntity
  8
8
  6
Continuous
 62
   171
370
     9
100
AcDbText
 10
1529.747924410497
 20
503.9025
 30
0.0
 40
18.0
  1
スノー
 41
0.4999999999999944
100
AcDbText
  0
TEXT
  5
34D
330
1F
100
AcDbEntity
  8
8
  6
Continuous
 62
   171
370
     9
100
AcDbText
 10
1502.747924410497
 20
473.9024999999999
 30
0.0
 40
18.0
  1
ホワイトチェリー
 41
0.4999999999999979
100
AcDbText
  0
TEXT
  5
34E
330
1F
100
AcDbEntity
  8
8
  6
Continuous
 62
   171
370
     9
100
AcDbText
 10
1232.567924410497
 20
503.9024999999998
 30
0.0
 40
18.0
  1
ナチュラル
 41
0.5
100
AcDbText
  0
TEXT
  5
34F
330
1F
100
AcDbEntity
  8
8
  6
Continuous
 62
   171
370
     9
100
AcDbText
 10
1243.367924410497
 20
473.9024999999997
 30
0.0
 40
18.0
  1
ダーク
 41
0.4999999999999944
100
AcDbText
  0
TEXT
  5
350
330
1F
100
AcDbEntity
  8
8
  6
Continuous
 62
   171
370
     9
100
AcDbText
 10
1252.367924410497
 20
533.9024999999997
 30
0.0
 40
18.0
  1
色
 41
0.6666666666666499
100
AcDbText
  0
LINE
  5
351
330
1F
100
AcDbEntity
  8
8
  6
Continuous
 62
   171
370
    18
100
AcDbLine
 10
1304.567924410497
 20
557.9024999999997
 30
0.0
 11
1304.567924410497
 21
437.9024999999997
 31
0.0
  0
LINE
  5
352
330
1F
100
AcDbEntity
  8
8
  6
Continuous
 62
   171
370
    18
100
AcDbLine
 10
1214.567924410497
 20
557.9024999999997
 30
0.0
 11
1214.567924410497
 21
437.9024999999997
 31
0.0
  0
TEXT
  5
353
330
1F
100
AcDbEntity
  8
8
  6
Continuous
 62
   171
370
     9
100
AcDbText
 10
1243.367924410497
 20
443.9024999999998
 30
0.0
 40
18.0
  1
スノー
 41
0.4999999999999944
100
AcDbText
  0
LINE
  5
354
330
1F
100
AcDbEntity
  8
8
  6
Continuous
 62
   171
370
    18
100
AcDbLine
 10
1380.947924410497
 20
407.9024999999996
 30
0.0
 11
1590.947924410496
 21
407.9024999999996
 31
0.0
  0
LINE
  5
355
330
1F
100
AcDbEntity
  8
8
  6
Continuous
 62
   171
370
    18
100
AcDbLine
 10
1380.947924410497
 20
437.9024999999997
 30
0.0
 11
1590.947924410496
 21
437.9024999999997
 31
0.0
  0
LINE
  5
356
330
1F
100
AcDbEntity
  8
8
  6
Continuous
 62
   171
370
    18
100
AcDbLine
 10
1380.947924410497
 20
557.9024999999997
 30
0.0
 11
1590.947924410496
 21
557.9024999999997
 31
0.0
  0
LINE
  5
357
330
1F
100
AcDbEntity
  8
8
  6
Continuous
 62
   171
370
    18
100
AcDbLine
 10
1380.947924410497
 20
527.9024999999997
 30
0.0
 11
1590.947924410496
 21
527.9024999999997
 31
0.0
  0
LINE
  5
358
330
1F
100
AcDbEntity
  8
8
  6
Continuous
 62
   171
370
    18
100
AcDbLine
 10
1380.947924410497
 20
467.9024999999998
 30
0.0
 11
1590.947924410496
 21
467.9024999999998
 31
0.0
  0
LINE
  5
359
330
1F
100
AcDbEntity
  8
8
  6
Continuous
 62
   171
370
    18
100
AcDbLine
 10
1380.947924410497
 20
497.9025
 30
0.0
 11
1590.947924410496
 21
497.9025
 31
0.0
  0
LINE
  5
35A
330
1F
100
AcDbEntity
  8
8
  6
Continuous
 62
   171
370
    18
100
AcDbLine
 10
1094.567924410497
 20
557.9024999999997
 30
0.0
 11
1304.567924410497
 21
557.9024999999997
 31
0.0
  0
LINE
  5
35B
330
1F
100
AcDbEntity
  8
8
  6
Continuous
 62
   171
370
    18
100
AcDbLine
 10
1094.567924410497
 20
467.9024999999997
 30
0.0
 11
1304.567924410497
 21
467.9024999999997
 31
0.0
  0
LINE
  5
35C
330
1F
100
AcDbEntity
  8
8
  6
Continuous
 62
   171
370
    18
100
AcDbLine
 10
1094.567924410497
 20
497.9024999999998
 30
0.0
 11
1304.567924410497
 21
497.9024999999998
 31
0.0
  0
LINE
  5
35D
330
1F
100
AcDbEntity
  8
8
  6
Continuous
 62
   171
370
    18
100
AcDbLine
 10
1094.567924410497
 20
527.9024999999997
 30
0.0
 11
1304.567924410497
 21
527.9024999999997
 31
0.0
  0
LINE
  5
35E
330
1F
100
AcDbEntity
  8
8
  6
Continuous
 62
   171
370
    18
100
AcDbLine
 10
1094.567924410497
 20
437.9024999999997
 30
0.0
 11
1304.567924410497
 21
437.9024999999997
 31
0.0
  0
TEXT
  5
35F
330
1F
100
AcDbEntity
  8
8
  6
Continuous
 62
   171
370
     9
100
AcDbText
 10
1402.504601838886
 20
563.9024999999997
 30
0.0
 40
21.0
  1
スマート品番表
 41
0.8333333333333334
100
AcDbText
  0
TEXT
  5
360
330
1F
100
AcDbEntity
  8
8
  6
Continuous
 62
   171
370
     9
100
AcDbText
 10
1105.624601838887
 20
563.9024999999997
 30
0.0
 40
21.0
  1
ディンプル品番表
 41
0.8333333333333334
100
AcDbText
  0
TEXT
  5
361
330
1F
100
AcDbEntity
  8
8
  6
Continuous
 62
   171
370
     9
100
AcDbText
 10
1201.8
 20
132.0
 30
0.0
 40
24.0
  1
●-●/○-○
 41
0.705128205128205
100
AcDbText
  0
TEXT
  5
362
330
1F
100
AcDbEntity
  8
8
  6
Continuous
 62
   171
370
     9
100
AcDbText
 10
1432.8
 20
141.0
 30
0.0
 40
24.0
  1
１：６
 41
0.5833333333333397
100
AcDbText
  0
DIMENSION
  5
36E
330
1F
100
AcDbEntity
  8
6
  6
Continuous
 62
     7
370
     9
100
AcDbDimension
  2
Dim11
 10
425.3652481954557
 20
995.2402863931063
 30
0.0
 11
461.1152481954532
 21
1004.240286393106
 31
0.0
 70
   160
  1
<>
 71
     5
 42
-1.0
  3
Standard
100
AcDbAlignedDimension
 13
425.3652481954557
 23
920.4200321885112
 33
0.0
 14
496.8652481954502
 24
998.3637231486994
 34
0.0
100
AcDbRotatedDimension
1001
ACAD
1000
DSTYLE
1002
{
1070
   344
1005
3C
1070
   343
1005
3C
1070
   173
1070
     1
1070
   289
1070
     2
1070
   279
1070
     2
1070
   288
1070
     1
1070
    77
1070
     3
1070
   172
1070
     1
1070
   174
1070
     0
1070
    74
1070
     0
1070
    73
1070
     0
1070
   284
1070
     8
1070
    78
1070
     8
1070
   140
1040
3.0
1070
    40
1040
6.0
1070
    42
1040
2.0
1070
    44
1040
1.0
1070
    43
1040
10.0
1070
   271
1070
     2
1070
    41
1040
2.0
1002
}
  0
DIMENSION
  5
379
330
1F
100
AcDbEntity
  8
6
  6
Continuous
 62
     7
370
     9
100
AcDbDimension
  2
Dim12
 10
496.8652481954502
 20
995.2402863931063
 30
0.0
 11
519.3652483485265
 21
1004.240286393106
 31
0.0
 70
   160
  1
20～45
 71
     5
 42
-1.0
  3
Standard
100
AcDbAlignedDimension
 13
496.8652481954502
 23
998.3637231486994
 33
0.0
 14
541.8652485016028
 24
998.3637231486994
 34
0.0
100
AcDbRotatedDimension
1001
ACAD
1000
DSTYLE
1002
{
1070
   344
1005
3C
1070
   343
1005
3C
1070
   173
1070
     1
1070
   289
1070
     2
1070
   279
1070
     2
1070
   288
1070
     1
1070
    77
1070
     3
1070
   172
1070
     1
1070
   174
1070
     0
1070
    74
1070
     0
1070
    73
1070
     0
1070
   284
1070
     8
1070
    78
1070
     8
1070
   140
1040
3.0
1070
    40
1040
6.0
1070
    42
1040
2.0
1070
    44
1040
1.0
1070
    43
1040
10.0
1070
   271
1070
     2
1070
    41
1040
2.0
1002
}
  0
DIMENSION
  5
384
330
1F
100
AcDbEntity
  8
6
  6
Continuous
 62
     7
370
     9
100
AcDbDimension
  2
Dim13
 10
541.8652485016028
 20
995.2402863931063
 30
0.0
 11
577.615248501601
 21
1004.240286393106
 31
0.0
 70
   160
  1
<>
 71
     5
 42
-1.0
  3
Standard
100
AcDbAlignedDimension
 13
541.8652485016028
 23
998.3637231486994
 33
0.0
 14
613.365248501599
 24
920.4200321885112
 34
0.0
100
AcDbRotatedDimension
1001
ACAD
1000
DSTYLE
1002
{
1070
   344
1005
3C
1070
   343
1005
3C
1070
   173
1070
     1
1070
   289
1070
     2
1070
   279
1070
     2
1070
   288
1070
     1
1070
    77
1070
     3
1070
   172
1070
     1
1070
   174
1070
     0
1070
    74
1070
     0
1070
    73
1070
     0
1070
   284
1070
     8
1070
    78
1070
     8
1070
   140
1040
3.0
1070
    40
1040
6.0
1070
    42
1040
2.0
1070
    44
1040
1.0
1070
    43
1040
10.0
1070
   271
1070
     2
1070
    41
1040
2.0
1002
}
  0
DIMENSION
  5
38E
330
1F
100
AcDbEntity
  8
6
  6
Continuous
 62
     7
370
     9
100
AcDbDimension
  2
Dim14
 10
457.3652481954462
 20
647.9268518518516
 30
0.0
 11
477.1152481954443
 21
656.9268518518516
 31
0.0
 70
   160
  1
<>
 71
     5
 42
-1.0
  3
Standard
100
AcDbAlignedDimension
 13
457.3652481954462
 23
647.9268518518516
 33
0.0
 14
496.8652481954424
 24
647.9268518518516
 34
0.0
100
AcDbRotatedDimension
1001
ACAD
1000
DSTYLE
1002
{
1070
   344
1005
3C
1070
   343
1005
3C
1070
   173
1070
     1
1070
   289
1070
     2
1070
   279
1070
     2
1070
   288
1070
     1
1070
    77
1070
     3
1070
   172
1070
     1
1070
   174
1070
     0
1070
    74
1070
     0
1070
    73
1070
     0
1070
   284
1070
     8
1070
    78
1070
     8
1070
   140
1040
3.0
1070
    40
1040
6.0
1070
    42
1040
2.0
1070
    44
1040
1.0
1070
    43
1040
10.0
1070
   271
1070
     2
1070
    41
1040
2.0
1002
}
  0
LINE
  5
38F
330
1F
100
AcDbEntity
  8
14
  6
Continuous
 62
     7
370
     9
100
AcDbLine
 10
1390.310091449473
 20
929.2877838744071
 30
0.0
 11
1398.023542765711
 21
920.0952505569793
 31
0.0
  0
LINE
  5
390
330
1F
100
AcDbEntity
  8
14
  6
Continuous
 62
     7
370
     9
100
AcDbLine
 10
1390.310091449473
 20
929.2877838744071
 30
0.0
 11
1392.393869581476
 21
917.4700908382606
 31
0.0
  0
POLYLINE
  5
391
330
1F
100
AcDbEntity
  8
14
  6
Continuous
 62
     7
370
     9
100
AcDb2dPolyline
 66
     1
 10
0.0
 20
0.0
 30
0.0
  0
VERTEX
  5
393
330
391
100
AcDbEntity
  8
14
  6
Continuous
 62
     7
370
     9
100
AcDbVertex
100
AcDb2dVertex
 10
1390.310091449473
 20
929.2877838744071
 30
0.0
  0
VERTEX
  5
394
330
391
100
AcDbEntity
  8
14
  6
Continuous
 62
     7
370
     9
100
AcDbVertex
100
AcDb2dVertex
 10
1445.819355076244
 20
810.2477838744052
 30
0.0
  0
VERTEX
  5
395
330
391
100
AcDbEntity
  8
14
  6
Continuous
 62
     7
370
     9
100
AcDbVertex
100
AcDb2dVertex
 10
1589.819355076244
 20
810.2477838744052
 30
0.0
  0
SEQEND
  5
392
330
391
100
AcDbEntity
  8
14
  6
Continuous
370
     9
  0
TEXT
  5
396
330
1F
100
AcDbEntity
  8
14
  6
Continuous
 62
     7
370
     9
100
AcDbText
 10
1445.819355076244
 20
810.2477838744052
 30
0.0
 40
18.0
  1
小形ボルトM8×70
 41
0.7142857142857143
100
AcDbText
  0
LINE
  5
397
330
1F
100
AcDbEntity
  8
14
  6
Continuous
 62
     7
370
     9
100
AcDbLine
 10
1315.61873342478
 20
923.580129553419
 30
0.0
 11
1314.572864511808
 21
911.6257931763181
 31
0.0
  0
LINE
  5
398
330
1F
100
AcDbEntity
  8
14
  6
Continuous
 62
     7
370
     9
100
AcDbLine
 10
1315.61873342478
 20
923.580129553419
 30
0.0
 11
1308.735816188568
 21
913.7503050219511
 31
0.0
  0
POLYLINE
  5
399
330
1F
100
AcDbEntity
  8
14
  6
Continuous
 62
     7
370
     9
100
AcDb2dPolyline
 66
     1
 10
0.0
 20
0.0
 30
0.0
  0
VERTEX
  5
39B
330
399
100
AcDbEntity
  8
14
  6
Continuous
 62
     7
370
     9
100
AcDbVertex
100
AcDb2dVertex
 10
1315.61873342478
 20
923.580129553419
 30
0.0
  0
VERTEX
  5
39C
330
399
100
AcDbEntity
  8
14
  6
Continuous
 62
     7
370
     9
100
AcDbVertex
100
AcDb2dVertex
 10
1270.266424589724
 20
798.9756851089725
 30
0.0
  0
VERTEX
  5
39D
330
399
100
AcDbEntity
  8
14
  6
Continuous
 62
     7
370
     9
100
AcDbVertex
100
AcDb2dVertex
 10
1180.266424589724
 20
798.9756851089725
 30
0.0
  0
SEQEND
  5
39A
330
399
100
AcDbEntity
  8
14
  6
Continuous
370
     9
  0
TEXT
  5
39E
330
1F
100
AcDbEntity
  8
14
  6
Continuous
 62
     7
370
     9
100
AcDbText
 10
1180.266424589724
 20
798.9756851089725
 30
0.0
 40
18.0
  1
ワッシャM8
 41
0.7352941176470589
100
AcDbText
  0
LINE
  5
39F
330
1F
100
AcDbEntity
  8
14
  6
Continuous
 62
     7
370
     9
100
AcDbLine
 10
1301.710585276632
 20
925.8655616521846
 30
0.0
 11
1300.66471636366
 21
913.9112252750837
 31
0.0
  0
LINE
  5
3A0
330
1F
100
AcDbEntity
  8
14
  6
Continuous
 62
     7
370
     9
100
AcDbLine
 10
1301.710585276632
 20
925.8655616521846
 30
0.0
 11
1294.82766804042
 21
916.0357371207167
 31
0.0
  0
POLYLINE
  5
3A1
330
1F
100
AcDbEntity
  8
14
  6
Continuous
 62
     7
370
     9
100
AcDb2dPolyline
 66
     1
 10
0.0
 20
0.0
 30
0.0
  0
VERTEX
  5
3A3
330
3A1
100
AcDbEntity
  8
14
  6
Continuous
 62
     7
370
     9
100
AcDbVertex
100
AcDb2dVertex
 10
1301.710585276632
 20
925.8655616521846
 30
0.0
  0
VERTEX
  5
3A4
330
3A1
100
AcDbEntity
  8
14
  6
Continuous
 62
     7
370
     9
100
AcDbVertex
100
AcDb2dVertex
 10
1267.376239582573
 20
831.5327221460104
 30
0.0
  0
VERTEX
  5
3A5
330
3A1
100
AcDbEntity
  8
14
  6
Continuous
 62
     7
370
     9
100
AcDbVertex
100
AcDb2dVertex
 10
1159.376239582573
 20
831.5327221460104
 30
0.0
  0
SEQEND
  5
3A2
330
3A1
100
AcDbEntity
  8
14
  6
Continuous
370
     9
  0
TEXT
  5
3A6
330
1F
100
AcDbEntity
  8
14
  6
Continuous
 62
     7
370
     9
100
AcDbText
 10
1159.376239582573
 20
831.5327221460104
 30
0.0
 40
18.0
  1
小形ナットM8
 41
0.75
100
AcDbText
  0
VIEWPORT
  5
2A
330
1B
100
AcDbEntity
 67
     1
  8
0
100
AcDbViewport
 10
891.0
 20
630.0
 30
0.0
 40
1782.0
 41
1260.0
 68
     1
 69
     1
 12
891.0
 22
630.0
 13
0.0
 23
0.0
 14
0.5
 24
0.5
 15
0.5
 25
0.5
 16
0.0
 26
0.0
 36
1.0
 17
0.0
 27
0.0
 37
0.0
 42
50.0
 43
0.0
 44
0.0
 45
9.0
 50
0.0
 51
0.0
 72
   100
 90
    32800
  1

281
     0
 71
     1
 74
     0
110
0.0
120
0.0
130
0.0
111
1.0
121
0.0
131
0.0
112
0.0
122
1.0
132
0.0
 79
     0
146
0.0
  0
ENDSEC
  0
SECTION
  2
OBJECTS
  0
DICTIONARY
  5
C
330
0
100
AcDbDictionary
281
     1
  3
ACAD_GROUP
350
D
  3
ACAD_LAYOUT
350
1A
  3
ACAD_MLINESTYLE
350
17
  3
ACAD_PLOTSETTINGS
350
19
  3
ACAD_PLOTSTYLENAME
350
E
  3
AcDbVariableDictionary
350
3A7
  0
DICTIONARY
  5
D
102
{ACAD_REACTORS
330
C
102
}
330
C
100
AcDbDictionary
281
     1
  0
DICTIONARY
  5
1A
102
{ACAD_REACTORS
330
C
102
}
330
C
100
AcDbDictionary
281
     1
  3
Layout1
350
1E
  3
Layout2
350
26
  3
Model
350
22
  0
DICTIONARY
  5
17
102
{ACAD_REACTORS
330
C
102
}
330
C
100
AcDbDictionary
281
     1
  3
Standard
350
18
  0
DICTIONARY
  5
19
102
{ACAD_REACTORS
330
C
102
}
330
C
100
AcDbDictionary
281
     1
  0
ACDBDICTIONARYWDFLT
  5
E
102
{ACAD_REACTORS
330
C
102
}
330
C
100
AcDbDictionary
281
     1
  3
Normal
350
F
100
AcDbDictionaryWithDefault
340
F
  0
DICTIONARY
  5
3A7
102
{ACAD_REACTORS
330
C
102
}
330
C
100
AcDbDictionary
281
     1
  3
DIMASSOC
350
3A8
  0
LAYOUT
  5
1E
102
{ACAD_REACTORS
330
1A
102
}
330
1A
100
AcDbPlotSettings
  1

  2

  4

  6

 40
0.0
 41
0.0
 42
0.0
 43
0.0
 44
0.0
 45
0.0
 46
0.0
 47
0.0
 48
0.0
 49
0.0
140
0.0
141
0.0
142
1.0
143
1.0
 70
   688
 72
     0
 73
     0
 74
     5
  7

 75
    16
147
1.0
148
0.0
149
0.0
100
AcDbLayout
  1
Layout1
 70
     1
 71
     1
 10
0.0
 20
0.0
 11
297.0
 21
210.0
 12
0.0
 22
0.0
 32
0.0
 14
0.0
 24
0.0
 34
0.0
 15
297.0
 25
210.0
 35
0.0
146
0.0
 13
0.0
 23
0.0
 33
0.0
 16
1.0
 26
0.0
 36
0.0
 17
0.0
 27
1.0
 37
0.0
 76
     0
330
1B
331
2A
  0
LAYOUT
  5
26
102
{ACAD_REACTORS
330
1A
102
}
330
1A
100
AcDbPlotSettings
  1

  2

  4

  6

 40
0.0
 41
0.0
 42
0.0
 43
0.0
 44
0.0
 45
0.0
 46
0.0
 47
0.0
 48
0.0
 49
0.0
140
0.0
141
0.0
142
1.0
143
1.0
 70
   688
 72
     0
 73
     0
 74
     5
  7

 75
    16
147
1.0
148
0.0
149
0.0
100
AcDbLayout
  1
Layout2
 70
     1
 71
     2
 10
0.0
 20
0.0
 11
0.0
 21
0.0
 12
0.0
 22
0.0
 32
0.0
 14
0.0
 24
0.0
 34
0.0
 15
0.0
 25
0.0
 35
0.0
146
0.0
 13
0.0
 23
0.0
 33
0.0
 16
1.0
 26
0.0
 36
0.0
 17
0.0
 27
1.0
 37
0.0
 76
     0
330
23
  0
LAYOUT
  5
22
102
{ACAD_REACTORS
330
1A
102
}
330
1A
100
AcDbPlotSettings
  1

  2

  4

  6

 40
0.0
 41
0.0
 42
0.0
 43
0.0
 44
0.0
 45
0.0
 46
0.0
 47
0.0
 48
0.0
 49
0.0
140
0.0
141
0.0
142
1.0
143
1.0
 70
  1712
 72
     0
 73
     0
 74
     0
  7

 75
     0
147
1.0
148
0.0
149
0.0
100
AcDbLayout
  1
Model
 70
     1
 71
     0
 10
0.0
 20
0.0
 11
1782.0
 21
1260.0
 12
0.0
 22
0.0
 32
0.0
 14
0.0
 24
0.0
 34
0.0
 15
1782.0
 25
1260.0
 35
0.0
146
0.0
 13
0.0
 23
0.0
 33
0.0
 16
1.0
 26
0.0
 36
0.0
 17
0.0
 27
1.0
 37
0.0
 76
     0
330
1F
  0
MLINESTYLE
  5
18
102
{ACAD_REACTORS
330
17
102
}
330
17
100
AcDbMlineStyle
  2
Standard
 70
     0
  3

 62
   256
 51
90.0
 52
90.0
 71
     2
 49
0.5
 62
   256
  6
BYLAYER
 49
-0.5
 62
   256
  6
BYLAYER
  0
ACDBPLACEHOLDER
  5
F
102
{ACAD_REACTORS
330
E
102
}
330
E
  0
DICTIONARYVAR
  5
3A8
102
{ACAD_REACTORS
330
3A7
102
}
330
3A7
100
DictionaryVariables
280
     0
  1
1
  0
ENDSEC
  0
EOF
