  0
SECTION
  2
HEADER
  9
$ACADVER
  1
AC1018
  9
$ACADMAINTVER
 70
     0
  9
$DWGCODEPAGE
  3
ANSI_932
  9
$INSBASE
 10
0.0
 20
0.0
 30
0.0
  9
$EXTMIN
 10
0.0
 20
0.0
 30
0.0
  9
$EXTMAX
 10
891.0
 20
630.0
 30
0.0
  9
$LIMMIN
 10
0.0
 20
0.0
  9
$LIMMAX
 10
891.0
 20
630.0
  9
$ORTHOMODE
 70
     0
  9
$REGENMODE
 70
     1
  9
$FILLMODE
 70
     1
  9
$QTEXTMODE
 70
     0
  9
$MIRRTEXT
 70
     1
  9
$LTSCALE
 40
0.75
  9
$ATTMODE
 70
     1
  9
$TEXTSIZE
 40
9.0
  9
$TRACEWID
 40
0.05
  9
$TEXTSTYLE
  7
Standard
  9
$CLAYER
  8
0
  9
$CELTYPE
  6
ByLayer
  9
$CECOLOR
 62
   256
  9
$CELTSCALE
 40
1.0
  9
$DISPSILH
 70
     0
  9
$DIMSCALE
 40
3.0
  9
$DIMASZ
 40
2.0
  9
$DIMEXO
 40
2.0
  9
$DIMDLI
 40
10.0
  9
$DIMRND
 40
0.0
  9
$DIMDLE
 40
0.0
  9
$DIMEXE
 40
1.0
  9
$DIMTP
 40
0.0
  9
$DIMTM
 40
0.0
  9
$DIMTXT
 40
3.0
  9
$DIMCEN
 40
0.09
  9
$DIMTSZ
 40
0.0
  9
$DIMTOL
 70
     0
  9
$DIMLIM
 70
     0
  9
$DIMTIH
 70
     0
  9
$DIMTOH
 70
     0
  9
$DIMSE1
 70
     0
  9
$DIMSE2
 70
     0
  9
$DIMTAD
 70
     3
  9
$DIMZIN
 70
     8
  9
$DIMBLK
  1

  9
$DIMASO
 70
     1
  9
$DIMSHO
 70
     1
  9
$DIMPOST
  1

  9
$DIMAPOST
  1

  9
$DIMALT
 70
     0
  9
$DIMALTD
 70
     2
  9
$DIMALTF
 40
25.4
  9
$DIMLFAC
 40
1.0
  9
$DIMTOFL
 70
     1
  9
$DIMTVP
 40
0.7
  9
$DIMTIX
 70
     0
  9
$DIMSOXD
 70
     0
  9
$DIMSAH
 70
     0
  9
$DIMBLK1
  1

  9
$DIMBLK2
  1

  9
$DIMSTYLE
  2
Standard
  9
$DIMCLRD
 70
     0
  9
$DIMCLRE
 70
     0
  9
$DIMCLRT
 70
     0
  9
$DIMTFAC
 40
0.5
  9
$DIMGAP
 40
0.09
  9
$DIMJUST
 70
     0
  9
$DIMSD1
 70
     0
  9
$DIMSD2
 70
     0
  9
$DIMTOLJ
 70
     1
  9
$DIMTZIN
 70
     8
  9
$DIMALTZ
 70
     0
  9
$DIMALTTZ
 70
     0
  9
$DIMUPT
 70
     1
  9
$DIMDEC
 70
     2
  9
$DIMTDEC
 70
     4
  9
$DIMALTU
 70
     2
  9
$DIMALTTD
 70
     2
  9
$DIMTXSTY
  7
Standard
  9
$DIMAUNIT
 70
     0
  9
$DIMADEC
 70
     0
  9
$DIMALTRND
 40
0.0
  9
$DIMAZIN
 70
     0
  9
$DIMDSEP
 70
    46
  9
$DIMATFIT
 70
     2
  9
$DIMFRAC
 70
     0
  9
$DIMLDRBLK
  1

  9
$DIMLUNIT
 70
     2
  9
$DIMLWD
 70
    -2
  9
$DIMLWE
 70
    -2
  9
$DIMTMOVE
 70
     2
  9
$LUNITS
 70
     2
  9
$LUPREC
 70
     4
  9
$SKETCHINC
 40
0.1
  9
$FILLETRAD
 40
0.5
  9
$AUNITS
 70
     0
  9
$AUPREC
 70
     0
  9
$MENU
  1
.
  9
$ELEVATION
 40
0.0
  9
$PELEVATION
 40
0.0
  9
$THICKNESS
 40
0.0
  9
$LIMCHECK
 70
     0
  9
$CHAMFERA
 40
0.5
  9
$CHAMFERB
 40
0.5
  9
$CHAMFERC
 40
1.0
  9
$CHAMFERD
 40
0.0
  9
$SKPOLY
 70
     0
  9
$TDCREATE
 40
2456421.909502315
  9
$TDUCREATE
 40
2456421.534502315
  9
$TDUPDATE
 40
2456421.909502315
  9
$TDUUPDATE
 40
2456421.534502315
  9
$TDINDWG
 40
0.0000000116
  9
$TDUSRTIMER
 40
0.0000000116
  9
$USRTIMER
 70
     1
  9
$ANGBASE
 50
0.0
  9
$ANGDIR
 70
     0
  9
$PDMODE
 70
     0
  9
$PDSIZE
 40
0.0
  9
$PLINEWID
 40
0.0
  9
$SPLFRAME
 70
     0
  9
$SPLINETYPE
 70
     6
  9
$SPLINESEGS
 70
     8
  9
$HANDSEED
  5
38C
  9
$SURFTAB1
 70
     6
  9
$SURFTAB2
 70
     6
  9
$SURFTYPE
 70
     6
  9
$SURFU
 70
     6
  9
$SURFV
 70
     6
  9
$UCSBASE
  2

  9
$UCSNAME
  2

  9
$UCSORG
 10
0.0
 20
0.0
 30
0.0
  9
$UCSXDIR
 10
1.0
 20
0.0
 30
0.0
  9
$UCSYDIR
 10
0.0
 20
1.0
 30
0.0
  9
$UCSORTHOREF
  2

  9
$UCSORTHOVIEW
 70
     0
  9
$UCSORGTOP
 10
0.0
 20
0.0
 30
0.0
  9
$UCSORGBOTTOM
 10
0.0
 20
0.0
 30
0.0
  9
$UCSORGLEFT
 10
0.0
 20
0.0
 30
0.0
  9
$UCSORGRIGHT
 10
0.0
 20
0.0
 30
0.0
  9
$UCSORGFRONT
 10
0.0
 20
0.0
 30
0.0
  9
$UCSORGBACK
 10
0.0
 20
0.0
 30
0.0
  9
$PUCSBASE
  2

  9
$PUCSNAME
  2

  9
$PUCSORG
 10
0.0
 20
0.0
 30
0.0
  9
$PUCSXDIR
 10
1.0
 20
0.0
 30
0.0
  9
$PUCSYDIR
 10
0.0
 20
1.0
 30
0.0
  9
$PUCSORTHOREF
  2

  9
$PUCSORTHOVIEW
 70
     0
  9
$PUCSORGTOP
 10
0.0
 20
0.0
 30
0.0
  9
$PUCSORGBOTTOM
 10
0.0
 20
0.0
 30
0.0
  9
$PUCSORGLEFT
 10
0.0
 20
0.0
 30
0.0
  9
$PUCSORGRIGHT
 10
0.0
 20
0.0
 30
0.0
  9
$PUCSORGFRONT
 10
0.0
 20
0.0
 30
0.0
  9
$PUCSORGBACK
 10
0.0
 20
0.0
 30
0.0
  9
$USERI1
 70
     0
  9
$USERI2
 70
     0
  9
$USERI3
 70
     0
  9
$USERI4
 70
     0
  9
$USERI5
 70
     0
  9
$USERR1
 40
0.0
  9
$USERR2
 40
0.0
  9
$USERR3
 40
0.0
  9
$USERR4
 40
0.0
  9
$USERR5
 40
0.0
  9
$WORLDVIEW
 70
     1
  9
$SHADEDGE
 70
     3
  9
$SHADEDIF
 70
    70
  9
$TILEMODE
 70
     1
  9
$MAXACTVP
 70
    64
  9
$PINSBASE
 10
0.0
 20
0.0
 30
0.0
  9
$PLIMCHECK
 70
     0
  9
$PEXTMIN
 10
0.0
 20
0.0
 30
0.0
  9
$PEXTMAX
 10
297.0
 20
210.0
 30
0.0
  9
$PLIMMIN
 10
0.0
 20
0.0
  9
$PLIMMAX
 10
297.0
 20
210.0
  9
$UNITMODE
 70
     0
  9
$VISRETAIN
 70
     1
  9
$PLINEGEN
 70
     0
  9
$PSLTSCALE
 70
     1
  9
$TREEDEPTH
 70
  3020
  9
$CMLSTYLE
  2
Standard
  9
$CMLJUST
 70
     0
  9
$CMLSCALE
 40
1.0
  9
$PROXYGRAPHICS
 70
     1
  9
$MEASUREMENT
 70
     1
  9
$CELWEIGHT
370
    -1
  9
$ENDCAPS
280
     0
  9
$JOINSTYLE
280
     0
  9
$LWDISPLAY
290
     0
  9
$INSUNITS
 70
     4
  9
$HYPERLINKBASE
  1

  9
$STYLESHEET
  1

  9
$XEDIT
290
     1
  9
$CEPSNTYPE
380
     0
  9
$PSTYLEMODE
290
     1
  9
$FINGERPRINTGUID
  2
{5B2B3C6B-1DD8-46A7-B296-BD95B09957A1}
  9
$VERSIONGUID
  2
{FAEB1C32-E019-11D5-929B-00C0DF256EC4}
  9
$EXTNAMES
290
     1
  9
$PSVPSCALE
 40
0.0
  9
$OLESTARTUP
290
     0
  9
$SORTENTS
280
   127
  9
$INDEXCTL
280
     0
  9
$HIDETEXT
280
     1
  9
$XCLIPFRAME
290
     0
  9
$HALOGAP
280
     0
  9
$OBSCOLOR
 70
   257
  9
$OBSLTYPE
280
     0
  9
$INTERSECTIONDISPLAY
280
     0
  9
$INTERSECTIONCOLOR
 70
   257
  9
$DIMASSOC
280
     1
  9
$PROJECTNAME
  1

  0
ENDSEC
  0
SECTION
  2
CLASSES
  0
CLASS
  1
ACDBDICTIONARYWDFLT
  2
AcDbDictionaryWithDefault
  3
ObjectDBX Classes
 90
        0
 91
        3
280
     0
281
     0
  0
ENDSEC
  0
SECTION
  2
TABLES
  0
TABLE
  2
VPORT
  5
8
330
0
100
AcDbSymbolTable
 70
     1
  0
VPORT
  5
29
330
8
100
AcDbSymbolTableRecord
100
AcDbViewportTableRecord
  2
*Active
 70
     0
 10
0.0
 20
0.0
 11
1.0
 21
1.0
 12
10.42990654205607
 22
4.5
 13
0.0
 23
0.0
 14
0.5
 24
0.5
 15
0.5
 25
0.5
 16
0.0
 26
0.0
 36
1.0
 17
0.0
 27
0.0
 37
0.0
 40
9.0
 41
1.972972972850329
 42
50.0
 43
0.0
 44
0.0
 50
0.0
 51
0.0
 71
     0
 72
   100
 73
     1
 74
     3
 75
     0
 76
     0
 77
     0
 78
     0
281
     0
 65
     1
110
0.0
120
0.0
130
0.0
111
1.0
121
0.0
131
0.0
112
0.0
122
1.0
132
0.0
 79
     0
146
0.0
  0
ENDTAB
  0
TABLE
  2
LTYPE
  5
5
330
0
100
AcDbSymbolTable
 70
     9
  0
LTYPE
  5
14
330
5
100
AcDbSymbolTableRecord
100
AcDbLinetypeTableRecord
  2
ByBlock
 70
     0
  3

 72
    65
 73
     0
 40
0.0
  0
LTYPE
  5
15
330
5
100
AcDbSymbolTableRecord
100
AcDbLinetypeTableRecord
  2
ByLayer
 70
     0
  3

 72
    65
 73
     0
 40
0.0
  0
LTYPE
  5
16
330
5
100
AcDbSymbolTableRecord
100
AcDbLinetypeTableRecord
  2
Continuous
 70
     0
  3
Solid line
 72
    65
 73
     0
 40
0.0
  0
LTYPE
  5
68
330
5
100
AcDbSymbolTableRecord
100
AcDbLinetypeTableRecord
  2
DOT
 70
     0
  3
DOT
 72
    65
 73
     2
 40
4.0
 49
6.0
 74
     0
 49
-2.0
 74
     0
  0
LTYPE
  5
69
330
5
100
AcDbSymbolTableRecord
100
AcDbLinetypeTableRecord
  2
HIDDEN
 70
     0
  3
HIDDEN
 72
    65
 73
     2
 40
4.2
 49
8.4
 74
     0
 49
-4.2
 74
     0
  0
LTYPE
  5
6A
330
5
100
AcDbSymbolTableRecord
100
AcDbLinetypeTableRecord
  2
DASHDOT
 70
     0
  3
DASHDOT
 72
    65
 73
     4
 40
14.5
 49
30.0
 74
     0
 49
-9.0
 74
     0
 49
2.5
 74
     0
 49
-9.0
 74
     0
  0
LTYPE
  5
6B
330
5
100
AcDbSymbolTableRecord
100
AcDbLinetypeTableRecord
  2
PHANTOM
 70
     0
  3
PHANTOM
 72
    65
 73
     6
 40
12.0
 49
30.0
 74
     0
 49
-9.0
 74
     0
 49
2.5
 74
     0
 49
-5.0
 74
     0
 49
2.5
 74
     0
 49
-9.0
 74
     0
  0
LTYPE
  5
6C
330
5
100
AcDbSymbolTableRecord
100
AcDbLinetypeTableRecord
  2
ACAD_ISO14W100
 70
     0
  3
ACAD_ISO14W100
 72
    65
 73
     8
 40
1.5
 49
12.0
 74
     0
 49
-3.0
 74
     0
 49
0.5
 74
     0
 49
-3.0
 74
     0
 49
0.5
 74
     0
 49
-3.0
 74
     0
 49
0.5
 74
     0
 49
-3.0
 74
     0
  0
LTYPE
  5
6D
330
5
100
AcDbSymbolTableRecord
100
AcDbLinetypeTableRecord
  2
ACAD_ISO06W100
 70
     0
  3
ACAD_ISO06W100
 72
    65
 73
     8
 40
13.5
 49
24.0
 74
     0
 49
-3.0
 74
     0
 49
0.5
 74
     0
 49
-3.0
 74
     0
 49
0.5
 74
     0
 49
-3.0
 74
     0
 49
0.5
 74
     0
 49
-3.0
 74
     0
  0
LTYPE
  5
6E
330
5
100
AcDbSymbolTableRecord
100
AcDbLinetypeTableRecord
  2
ACAD_ISO11W100
 70
     0
  3
ACAD_ISO11W100
 72
    65
 73
     6
 40
15.5
 49
12.0
 74
     0
 49
-3.0
 74
     0
 49
12.0
 74
     0
 49
-3.0
 74
     0
 49
0.5
 74
     0
 49
-3.0
 74
     0
  0
LTYPE
  5
6F
330
5
100
AcDbSymbolTableRecord
100
AcDbLinetypeTableRecord
  2
ACAD_ISO13W100
 70
     0
  3
ACAD_ISO13W100
 72
    65
 73
     8
 40
13.0
 49
12.0
 74
     0
 49
-3.0
 74
     0
 49
12.0
 74
     0
 49
-3.0
 74
     0
 49
0.5
 74
     0
 49
-3.0
 74
     0
 49
0.5
 74
     0
 49
-3.0
 74
     0
  0
ENDTAB
  0
TABLE
  2
LAYER
  5
2
330
0
100
AcDbSymbolTable
 70
    38
  0
LAYER
  5
10
330
2
100
AcDbSymbolTableRecord
100
AcDbLayerTableRecord
  2
0
 70
     0
 62
     7
  6
Continuous
370
    -3
390
F
  0
LAYER
  5
70
330
2
100
AcDbSymbolTableRecord
100
AcDbLayerTableRecord
  2
1
 70
     0
 62
    45
  6
Continuous
370
    -3
390
F
  0
LAYER
  5
71
330
2
100
AcDbSymbolTableRecord
100
AcDbLayerTableRecord
  2
2
 70
     0
 62
    90
  6
Continuous
370
    -3
390
F
  0
LAYER
  5
72
330
2
100
AcDbSymbolTableRecord
100
AcDbLayerTableRecord
  2
3
 70
     0
 62
     6
  6
Continuous
370
    -3
390
F
  0
LAYER
  5
73
330
2
100
AcDbSymbolTableRecord
100
AcDbLayerTableRecord
  2
4
 70
     0
 62
    30
  6
Continuous
370
    -3
390
F
  0
LAYER
  5
74
330
2
100
AcDbSymbolTableRecord
100
AcDbLayerTableRecord
  2
5
 70
     0
 62
     2
  6
Continuous
370
    -3
390
F
  0
LAYER
  5
75
330
2
100
AcDbSymbolTableRecord
100
AcDbLayerTableRecord
  2
6
 70
     0
 62
     7
  6
Continuous
370
    -3
390
F
  0
LAYER
  5
76
330
2
100
AcDbSymbolTableRecord
100
AcDbLayerTableRecord
  2
7
 70
     0
 62
   132
  6
Continuous
370
    -3
390
F
  0
LAYER
  5
77
330
2
100
AcDbSymbolTableRecord
100
AcDbLayerTableRecord
  2
8
 70
     0
 62
   171
  6
Continuous
370
    -3
390
F
  0
LAYER
  5
78
330
2
100
AcDbSymbolTableRecord
100
AcDbLayerTableRecord
  2
9
 70
     0
 62
   170
  6
Continuous
370
    -3
390
F
  0
LAYER
  5
79
330
2
100
AcDbSymbolTableRecord
100
AcDbLayerTableRecord
  2
10
 70
     0
 62
   172
  6
Continuous
370
    -3
390
F
  0
LAYER
  5
7A
330
2
100
AcDbSymbolTableRecord
100
AcDbLayerTableRecord
  2
11
 70
     0
 62
    16
  6
Continuous
370
    -3
390
F
  0
LAYER
  5
7B
330
2
100
AcDbSymbolTableRecord
100
AcDbLayerTableRecord
  2
12
 70
     0
 62
   136
  6
Continuous
370
    -3
390
F
  0
LAYER
  5
7C
330
2
100
AcDbSymbolTableRecord
100
AcDbLayerTableRecord
  2
13
 70
     0
 62
   216
  6
Continuous
370
    -3
390
F
  0
LAYER
  5
7D
330
2
100
AcDbSymbolTableRecord
100
AcDbLayerTableRecord
  2
14
 70
     0
 62
     7
  6
Continuous
370
    -3
390
F
  0
LAYER
  5
7E
330
2
100
AcDbSymbolTableRecord
100
AcDbLayerTableRecord
  2
15
 70
     0
 62
    14
  6
Continuous
370
    -3
390
F
  0
LAYER
  5
7F
330
2
100
AcDbSymbolTableRecord
100
AcDbLayerTableRecord
  2
16
 70
     0
 62
    94
  6
Continuous
370
    -3
390
F
  0
LAYER
  5
80
330
2
100
AcDbSymbolTableRecord
100
AcDbLayerTableRecord
  2
17
 70
     0
 62
   230
  6
Continuous
370
    -3
390
F
  0
LAYER
  5
81
330
2
100
AcDbSymbolTableRecord
100
AcDbLayerTableRecord
  2
18
 70
     0
 62
     7
  6
Continuous
370
    -3
390
F
  0
LAYER
  5
82
330
2
100
AcDbSymbolTableRecord
100
AcDbLayerTableRecord
  2
19
 70
     0
 62
    52
  6
Continuous
370
    -3
390
F
  0
LAYER
  5
83
330
2
100
AcDbSymbolTableRecord
100
AcDbLayerTableRecord
  2
20
 70
     0
 62
   134
  6
Continuous
370
    -3
390
F
  0
LAYER
  5
84
330
2
100
AcDbSymbolTableRecord
100
AcDbLayerTableRecord
  2
21
 70
     0
 62
   214
  6
Continuous
370
    -3
390
F
  0
LAYER
  5
85
330
2
100
AcDbSymbolTableRecord
100
AcDbLayerTableRecord
  2
22
 70
     0
 62
     7
  6
Continuous
370
    -3
390
F
  0
LAYER
  5
86
330
2
100
AcDbSymbolTableRecord
100
AcDbLayerTableRecord
  2
128
 70
     0
 62
     7
  6
Continuous
370
    -3
390
F
  0
LAYER
  5
87
330
2
100
AcDbSymbolTableRecord
100
AcDbLayerTableRecord
  2
129
 70
     0
 62
     7
  6
Continuous
370
    -3
390
F
  0
LAYER
  5
88
330
2
100
AcDbSymbolTableRecord
100
AcDbLayerTableRecord
  2
130
 70
     0
 62
     7
  6
Continuous
370
    -3
390
F
  0
LAYER
  5
89
330
2
100
AcDbSymbolTableRecord
100
AcDbLayerTableRecord
  2
131
 70
     0
 62
     7
  6
Continuous
370
    -3
390
F
  0
LAYER
  5
8A
330
2
100
AcDbSymbolTableRecord
100
AcDbLayerTableRecord
  2
132
 70
     0
 62
     7
  6
Continuous
370
    -3
390
F
  0
LAYER
  5
8B
330
2
100
AcDbSymbolTableRecord
100
AcDbLayerTableRecord
  2
133
 70
     0
 62
     4
  6
Continuous
370
    -3
390
F
  0
LAYER
  5
8C
330
2
100
AcDbSymbolTableRecord
100
AcDbLayerTableRecord
  2
134
 70
     0
 62
     7
  6
Continuous
370
    -3
390
F
  0
LAYER
  5
8D
330
2
100
AcDbSymbolTableRecord
100
AcDbLayerTableRecord
  2
135
 70
     0
 62
     4
  6
Continuous
370
    -3
390
F
  0
LAYER
  5
8E
330
2
100
AcDbSymbolTableRecord
100
AcDbLayerTableRecord
  2
136
 70
     0
 62
     7
  6
Continuous
370
    -3
390
F
  0
LAYER
  5
8F
330
2
100
AcDbSymbolTableRecord
100
AcDbLayerTableRecord
  2
137
 70
     0
 62
     3
  6
Continuous
370
    -3
390
F
  0
LAYER
  5
90
330
2
100
AcDbSymbolTableRecord
100
AcDbLayerTableRecord
  2
138
 70
     0
 62
     7
  6
Continuous
370
    -3
390
F
  0
LAYER
  5
91
330
2
100
AcDbSymbolTableRecord
100
AcDbLayerTableRecord
  2
139
 70
     0
 62
     6
  6
Continuous
370
    -3
390
F
  0
LAYER
  5
92
330
2
100
AcDbSymbolTableRecord
100
AcDbLayerTableRecord
  2
140
 70
     0
 62
     1
  6
Continuous
370
    -3
390
F
  0
LAYER
  5
93
330
2
100
AcDbSymbolTableRecord
100
AcDbLayerTableRecord
  2
141
 70
     0
 62
     7
  6
Continuous
370
    -3
390
F
  0
LAYER
  5
94
330
2
100
AcDbSymbolTableRecord
100
AcDbLayerTableRecord
  2
142
 70
     0
 62
     7
  6
Continuous
370
    -3
390
F
  0
ENDTAB
  0
TABLE
  2
STYLE
  5
3
330
0
100
AcDbSymbolTable
 70
     2
  0
STYLE
  5
11
330
3
100
AcDbSymbolTableRecord
100
AcDbTextStyleTableRecord
  2
Standard
 70
     0
 40
0.0
 41
1.0
 50
0.0
 71
     0
 42
0.2
  3
txt
  4
bigfont
  0
STYLE
  5
2C
330
3
100
AcDbSymbolTableRecord
100
AcDbTextStyleTableRecord
  2
T_STANDARD
 70
     4
 40
10.0
 41
1.0
 50
0.0
 71
     0
 42
10.0
  3
txt
  4
bigfont
  0
ENDTAB
  0
TABLE
  2
VIEW
  5
6
330
0
100
AcDbSymbolTable
 70
     0
  0
ENDTAB
  0
TABLE
  2
UCS
  5
7
330
0
100
AcDbSymbolTable
 70
     0
  0
ENDTAB
  0
TABLE
  2
APPID
  5
9
330
0
100
AcDbSymbolTable
 70
     2
  0
APPID
  5
12
330
9
100
AcDbSymbolTableRecord
100
AcDbRegAppTableRecord
  2
ACAD
 70
     0
  0
APPID
  5
2B
330
9
100
AcDbSymbolTableRecord
100
AcDbRegAppTableRecord
  2
ODA
 70
     0
  0
ENDTAB
  0
TABLE
  2
DIMSTYLE
  5
A
330
0
100
AcDbSymbolTable
 70
     1
100
AcDbDimStyleTable
  0
DIMSTYLE
105
27
102
{ACAD_REACTORS
330
14A
330
15E
330
16A
330
176
330
181
330
18D
330
199
330
1AD
330
230
330
23B
330
245
330
251
330
25D
330
268
330
273
330
27E
330
288
330
294
330
300
330
30C
330
341
330
35D
102
}
330
A
100
AcDbSymbolTableRecord
100
AcDbDimStyleTableRecord
  2
Standard
 70
     0
340
11
  0
ENDTAB
  0
TABLE
  2
BLOCK_RECORD
  5
1
330
0
100
AcDbSymbolTable
 70
    37
  0
BLOCK_RECORD
  5
1F
330
1
100
AcDbSymbolTableRecord
100
AcDbBlockTableRecord
  2
*Model_Space
340
22
  0
BLOCK_RECORD
  5
1B
330
1
100
AcDbSymbolTableRecord
100
AcDbBlockTableRecord
  2
*Paper_Space
340
1E
  0
BLOCK_RECORD
  5
23
330
1
100
AcDbSymbolTableRecord
100
AcDbBlockTableRecord
  2
*Paper_Space0
340
26
  0
BLOCK_RECORD
  5
2D
330
1
100
AcDbSymbolTableRecord
100
AcDbBlockTableRecord
  2
_ORIGIN
340
0
  0
BLOCK_RECORD
  5
32
330
1
100
AcDbSymbolTableRecord
100
AcDbBlockTableRecord
  2
_DOTBLANK
340
0
  0
BLOCK_RECORD
  5
37
330
1
100
AcDbSymbolTableRecord
100
AcDbBlockTableRecord
  2
_DOT
340
0
  0
BLOCK_RECORD
  5
3C
330
1
100
AcDbSymbolTableRecord
100
AcDbBlockTableRecord
  2
_OPEN
340
0
  0
BLOCK_RECORD
  5
42
330
1
100
AcDbSymbolTableRecord
100
AcDbBlockTableRecord
  2
_CLOSED
340
0
  0
BLOCK_RECORD
  5
49
330
1
100
AcDbSymbolTableRecord
100
AcDbBlockTableRecord
  2
_CLOSEDBLANK
340
0
  0
BLOCK_RECORD
  5
4F
330
1
100
AcDbSymbolTableRecord
100
AcDbBlockTableRecord
  2
_BOXBLANK
340
0
  0
BLOCK_RECORD
  5
57
330
1
100
AcDbSymbolTableRecord
100
AcDbBlockTableRecord
  2
_BOXFILLED
340
0
  0
BLOCK_RECORD
  5
5C
330
1
100
AcDbSymbolTableRecord
100
AcDbBlockTableRecord
  2
_INTEGRAL
340
0
  0
BLOCK_RECORD
  5
61
330
1
100
AcDbSymbolTableRecord
100
AcDbBlockTableRecord
  2
_OBLIQUE
340
0
  0
BLOCK_RECORD
  5
65
330
1
100
AcDbSymbolTableRecord
100
AcDbBlockTableRecord
  2
_NONE
340
0
  0
BLOCK_RECORD
  5
95
330
1
100
AcDbSymbolTableRecord
100
AcDbBlockTableRecord
  2
*G12
340
0
102
{BLKREFS
331
9C
102
}
  0
BLOCK_RECORD
  5
13F
330
1
100
AcDbSymbolTableRecord
100
AcDbBlockTableRecord
  2
Dim1
340
0
  0
BLOCK_RECORD
  5
153
330
1
100
AcDbSymbolTableRecord
100
AcDbBlockTableRecord
  2
Dim2
340
0
  0
BLOCK_RECORD
  5
15F
330
1
100
AcDbSymbolTableRecord
100
AcDbBlockTableRecord
  2
Dim3
340
0
  0
BLOCK_RECORD
  5
16B
330
1
100
AcDbSymbolTableRecord
100
AcDbBlockTableRecord
  2
Dim4
340
0
  0
BLOCK_RECORD
  5
177
330
1
100
AcDbSymbolTableRecord
100
AcDbBlockTableRecord
  2
Dim5
340
0
  0
BLOCK_RECORD
  5
182
330
1
100
AcDbSymbolTableRecord
100
AcDbBlockTableRecord
  2
Dim6
340
0
  0
BLOCK_RECORD
  5
18E
330
1
100
AcDbSymbolTableRecord
100
AcDbBlockTableRecord
  2
Dim7
340
0
  0
BLOCK_RECORD
  5
1A2
330
1
100
AcDbSymbolTableRecord
100
AcDbBlockTableRecord
  2
Dim8
340
0
  0
BLOCK_RECORD
  5
217
330
1
100
AcDbSymbolTableRecord
100
AcDbBlockTableRecord
  2
*G21
340
0
102
{BLKREFS
331
21D
102
}
  0
BLOCK_RECORD
  5
21E
330
1
100
AcDbSymbolTableRecord
100
AcDbBlockTableRecord
  2
*G22
340
0
102
{BLKREFS
331
224
102
}
  0
BLOCK_RECORD
  5
226
330
1
100
AcDbSymbolTableRecord
100
AcDbBlockTableRecord
  2
Dim9
340
0
  0
BLOCK_RECORD
  5
231
330
1
100
AcDbSymbolTableRecord
100
AcDbBlockTableRecord
  2
Dim10
340
0
  0
BLOCK_RECORD
  5
23C
330
1
100
AcDbSymbolTableRecord
100
AcDbBlockTableRecord
  2
Dim11
340
0
  0
BLOCK_RECORD
  5
246
330
1
100
AcDbSymbolTableRecord
100
AcDbBlockTableRecord
  2
Dim12
340
0
  0
BLOCK_RECORD
  5
252
330
1
100
AcDbSymbolTableRecord
100
AcDbBlockTableRecord
  2
Dim13
340
0
  0
BLOCK_RECORD
  5
25E
330
1
100
AcDbSymbolTableRecord
100
AcDbBlockTableRecord
  2
Dim14
340
0
  0
BLOCK_RECORD
  5
269
330
1
100
AcDbSymbolTableRecord
100
AcDbBlockTableRecord
  2
Dim15
340
0
  0
BLOCK_RECORD
  5
274
330
1
100
AcDbSymbolTableRecord
100
AcDbBlockTableRecord
  2
Dim16
340
0
  0
BLOCK_RECORD
  5
27F
330
1
100
AcDbSymbolTableRecord
100
AcDbBlockTableRecord
  2
Dim17
340
0
  0
BLOCK_RECORD
  5
289
330
1
100
AcDbSymbolTableRecord
100
AcDbBlockTableRecord
  2
Dim18
340
0
  0
BLOCK_RECORD
  5
2F5
330
1
100
AcDbSymbolTableRecord
100
AcDbBlockTableRecord
  2
Dim19
340
0
  0
BLOCK_RECORD
  5
301
330
1
100
AcDbSymbolTableRecord
100
AcDbBlockTableRecord
  2
Dim20
340
0
  0
BLOCK_RECORD
  5
336
330
1
100
AcDbSymbolTableRecord
100
AcDbBlockTableRecord
  2
Dim21
340
0
  0
BLOCK_RECORD
  5
352
330
1
100
AcDbSymbolTableRecord
100
AcDbBlockTableRecord
  2
Dim22
340
0
  0
ENDTAB
  0
ENDSEC
  0
SECTION
  2
BLOCKS
  0
BLOCK
  5
20
330
1F
100
AcDbEntity
  8
0
100
AcDbBlockBegin
  2
*Model_Space
 70
     0
 71
     0
 10
0.0
 20
0.0
 30
0.0
  3
*Model_Space
  1

  0
ENDBLK
  5
21
330
1F
100
AcDbEntity
  8
0
100
AcDbBlockEnd
  0
BLOCK
  5
1C
330
1B
100
AcDbEntity
 67
     1
  8
0
100
AcDbBlockBegin
  2
*Paper_Space
 70
     0
 71
     0
 10
0.0
 20
0.0
 30
0.0
  3
*Paper_Space
  1

  0
ENDBLK
  5
1D
330
1B
100
AcDbEntity
 67
     1
  8
0
100
AcDbBlockEnd
  0
BLOCK
  5
24
330
23
100
AcDbEntity
  8
0
100
AcDbBlockBegin
  2
*Paper_Space0
 70
     0
 71
     0
 10
0.0
 20
0.0
 30
0.0
  3
*Paper_Space0
  1

  0
ENDBLK
  5
25
330
23
100
AcDbEntity
  8
0
100
AcDbBlockEnd
  0
BLOCK
  5
30
330
2D
100
AcDbEntity
  8
0
100
AcDbBlockBegin
  2
_ORIGIN
 70
     0
 71
     0
 10
0.0
 20
0.0
 30
0.0
  3
_ORIGIN
  1

  0
CIRCLE
  5
2E
330
2D
100
AcDbEntity
  8
0
100
AcDbCircle
 10
0.0
 20
0.0
 30
0.0
 40
0.5
  0
LINE
  5
2F
330
2D
100
AcDbEntity
  8
0
100
AcDbLine
 10
0.0
 20
0.0
 30
0.0
 11
-1.0
 21
0.0
 31
0.0
  0
ENDBLK
  5
31
330
2D
100
AcDbEntity
  8
0
100
AcDbBlockEnd
  0
BLOCK
  5
35
330
32
100
AcDbEntity
  8
0
100
AcDbBlockBegin
  2
_DOTBLANK
 70
     0
 71
     0
 10
0.0
 20
0.0
 30
0.0
  3
_DOTBLANK
  1

  0
CIRCLE
  5
33
330
32
100
AcDbEntity
  8
0
100
AcDbCircle
 10
0.0
 20
0.0
 30
0.0
 40
0.5
  0
LINE
  5
34
330
32
100
AcDbEntity
  8
0
100
AcDbLine
 10
-0.5
 20
0.0
 30
0.0
 11
-1.0
 21
0.0
 31
0.0
  0
ENDBLK
  5
36
330
32
100
AcDbEntity
  8
0
100
AcDbBlockEnd
  0
BLOCK
  5
3A
330
37
100
AcDbEntity
  8
0
100
AcDbBlockBegin
  2
_DOT
 70
     0
 71
     0
 10
0.0
 20
0.0
 30
0.0
  3
_DOT
  1

  0
LWPOLYLINE
  5
38
330
37
100
AcDbEntity
  8
0
100
AcDbPolyline
 90
        2
 70
     1
 43
0.5
 10
-0.25
 20
0.0
 42
1.0
 10
0.25
 20
0.0
 42
1.0
  0
LINE
  5
39
330
37
100
AcDbEntity
  8
0
100
AcDbLine
 10
-0.5
 20
0.0
 30
0.0
 11
-1.0
 21
0.0
 31
0.0
  0
ENDBLK
  5
3B
330
37
100
AcDbEntity
  8
0
100
AcDbBlockEnd
  0
BLOCK
  5
40
330
3C
100
AcDbEntity
  8
0
100
AcDbBlockBegin
  2
_OPEN
 70
     0
 71
     0
 10
0.0
 20
0.0
 30
0.0
  3
_OPEN
  1

  0
LINE
  5
3D
330
3C
100
AcDbEntity
  8
0
100
AcDbLine
 10
-1.0
 20
0.1666666666666667
 30
0.0
 11
0.0
 21
0.0
 31
0.0
  0
LINE
  5
3E
330
3C
100
AcDbEntity
  8
0
100
AcDbLine
 10
-1.0
 20
-0.1666666666666667
 30
0.0
 11
0.0
 21
0.0
 31
0.0
  0
LINE
  5
3F
330
3C
100
AcDbEntity
  8
0
100
AcDbLine
 10
0.0
 20
0.0
 30
0.0
 11
-1.0
 21
0.0
 31
0.0
  0
ENDBLK
  5
41
330
3C
100
AcDbEntity
  8
0
100
AcDbBlockEnd
  0
BLOCK
  5
47
330
42
100
AcDbEntity
  8
0
100
AcDbBlockBegin
  2
_CLOSED
 70
     0
 71
     0
 10
0.0
 20
0.0
 30
0.0
  3
_CLOSED
  1

  0
LINE
  5
43
330
42
100
AcDbEntity
  8
0
100
AcDbLine
 10
-1.0
 20
0.1666666666666667
 30
0.0
 11
0.0
 21
0.0
 31
0.0
  0
LINE
  5
44
330
42
100
AcDbEntity
  8
0
100
AcDbLine
 10
0.0
 20
0.0
 30
0.0
 11
-1.0
 21
-0.1666666666666667
 31
0.0
  0
LINE
  5
45
330
42
100
AcDbEntity
  8
0
100
AcDbLine
 10
-1.0
 20
0.1666666666666667
 30
0.0
 11
-1.0
 21
-0.1666666666666667
 31
0.0
  0
LINE
  5
46
330
42
100
AcDbEntity
  8
0
100
AcDbLine
 10
0.0
 20
0.0
 30
0.0
 11
-1.0
 21
0.0
 31
0.0
  0
ENDBLK
  5
48
330
42
100
AcDbEntity
  8
0
100
AcDbBlockEnd
  0
BLOCK
  5
4D
330
49
100
AcDbEntity
  8
0
100
AcDbBlockBegin
  2
_CLOSEDBLANK
 70
     0
 71
     0
 10
0.0
 20
0.0
 30
0.0
  3
_CLOSEDBLANK
  1

  0
LINE
  5
4A
330
49
100
AcDbEntity
  8
0
100
AcDbLine
 10
-1.0
 20
0.1666666666666667
 30
0.0
 11
0.0
 21
0.0
 31
0.0
  0
LINE
  5
4B
330
49
100
AcDbEntity
  8
0
100
AcDbLine
 10
0.0
 20
0.0
 30
0.0
 11
-1.0
 21
-0.1666666666666667
 31
0.0
  0
LINE
  5
4C
330
49
100
AcDbEntity
  8
0
100
AcDbLine
 10
-1.0
 20
0.1666666666666667
 30
0.0
 11
-1.0
 21
-0.1666666666666667
 31
0.0
  0
ENDBLK
  5
4E
330
49
100
AcDbEntity
  8
0
100
AcDbBlockEnd
  0
BLOCK
  5
55
330
4F
100
AcDbEntity
  8
0
100
AcDbBlockBegin
  2
_BOXBLANK
 70
     0
 71
     0
 10
0.0
 20
0.0
 30
0.0
  3
_BOXBLANK
  1

  0
LINE
  5
50
330
4F
100
AcDbEntity
  8
0
100
AcDbLine
 10
-0.5
 20
-0.5
 30
0.0
 11
0.5
 21
-0.5
 31
0.0
  0
LINE
  5
51
330
4F
100
AcDbEntity
  8
0
100
AcDbLine
 10
0.5
 20
-0.5
 30
0.0
 11
0.5
 21
0.5
 31
0.0
  0
LINE
  5
52
330
4F
100
AcDbEntity
  8
0
100
AcDbLine
 10
0.5
 20
0.5
 30
0.0
 11
-0.5
 21
0.5
 31
0.0
  0
LINE
  5
53
330
4F
100
AcDbEntity
  8
0
100
AcDbLine
 10
-0.5
 20
0.5
 30
0.0
 11
-0.5
 21
-0.5
 31
0.0
  0
LINE
  5
54
330
4F
100
AcDbEntity
  8
0
100
AcDbLine
 10
-0.5
 20
0.0
 30
0.0
 11
-1.0
 21
0.0
 31
0.0
  0
ENDBLK
  5
56
330
4F
100
AcDbEntity
  8
0
100
AcDbBlockEnd
  0
BLOCK
  5
5A
330
57
100
AcDbEntity
  8
0
100
AcDbBlockBegin
  2
_BOXFILLED
 70
     0
 71
     0
 10
0.0
 20
0.0
 30
0.0
  3
_BOXFILLED
  1

  0
SOLID
  5
58
330
57
100
AcDbEntity
  8
0
100
AcDbTrace
 10
-0.5
 20
0.5
 30
0.0
 11
0.5
 21
0.5
 31
0.0
 12
-0.5
 22
-0.5
 32
0.0
 13
0.5
 23
-0.5
 33
0.0
  0
LINE
  5
59
330
57
100
AcDbEntity
  8
0
100
AcDbLine
 10
-0.5
 20
0.0
 30
0.0
 11
-1.0
 21
0.0
 31
0.0
  0
ENDBLK
  5
5B
330
57
100
AcDbEntity
  8
0
100
AcDbBlockEnd
  0
BLOCK
  5
5F
330
5C
100
AcDbEntity
  8
0
100
AcDbBlockBegin
  2
_INTEGRAL
 70
     0
 71
     0
 10
0.0
 20
0.0
 30
0.0
  3
_INTEGRAL
  1

  0
ARC
  5
5D
330
5C
100
AcDbEntity
  8
0
100
AcDbCircle
 10
0.444888
 20
-0.0913346
 30
0.0
 40
0.4541666
100
AcDbArc
 50
5844.169510334396
 51
9625.69095819783
  0
ARC
  5
5E
330
5C
100
AcDbEntity
  8
0
100
AcDbCircle
 10
-0.444888
 20
0.0913346
 30
0.0
 40
0.4541666
100
AcDbArc
 50
16157.40982268921
 51
19938.93127055265
  0
ENDBLK
  5
60
330
5C
100
AcDbEntity
  8
0
100
AcDbBlockEnd
  0
BLOCK
  5
63
330
61
100
AcDbEntity
  8
0
100
AcDbBlockBegin
  2
_OBLIQUE
 70
     0
 71
     0
 10
0.0
 20
0.0
 30
0.0
  3
_OBLIQUE
  1

  0
LINE
  5
62
330
61
100
AcDbEntity
  8
0
100
AcDbLine
 10
-0.5
 20
-0.5
 30
0.0
 11
0.5
 21
0.5
 31
0.0
  0
ENDBLK
  5
64
330
61
100
AcDbEntity
  8
0
100
AcDbBlockEnd
  0
BLOCK
  5
66
330
65
100
AcDbEntity
  8
0
100
AcDbBlockBegin
  2
_NONE
 70
     0
 71
     0
 10
0.0
 20
0.0
 30
0.0
  3
_NONE
  1

  0
ENDBLK
  5
67
330
65
100
AcDbEntity
  8
0
100
AcDbBlockEnd
  0
BLOCK
  5
96
330
95
100
AcDbEntity
  8
0
100
AcDbBlockBegin
  2
*G12
 70
     1
 71
     0
 10
0.0
 20
0.0
 30
0.0
  3
*G12
  1

  0
LINE
  5
98
330
95
100
AcDbEntity
  8
9
  6
Continuous
 62
   170
370
    30
100
AcDbLine
 10
36.0
 20
36.0
 30
0.0
 11
36.0
 21
576.0
 31
0.0
  0
LINE
  5
99
330
95
100
AcDbEntity
  8
9
  6
Continuous
 62
   170
370
    30
100
AcDbLine
 10
36.0
 20
576.0
 30
0.0
 11
855.0
 21
576.0
 31
0.0
  0
LINE
  5
9A
330
95
100
AcDbEntity
  8
9
  6
Continuous
 62
   170
370
    30
100
AcDbLine
 10
855.0
 20
576.0
 30
0.0
 11
855.0
 21
36.0
 31
0.0
  0
LINE
  5
9B
330
95
100
AcDbEntity
  8
9
  6
Continuous
 62
   170
370
    30
100
AcDbLine
 10
855.0
 20
36.0
 30
0.0
 11
36.0
 21
36.0
 31
0.0
  0
ENDBLK
  5
97
330
95
100
AcDbEntity
  8
0
100
AcDbBlockEnd
  0
BLOCK
  5
140
330
13F
100
AcDbEntity
  8
0
100
AcDbBlockBegin
  2
Dim1
 70
     0
 71
     0
 10
0.0
 20
0.0
 30
0.0
  3
Dim1
  1

  0
LINE
  5
142
330
13F
100
AcDbEntity
  8
6
  6
Continuous
 62
     7
370
     9
100
AcDbLine
 10
605.615305689232
 20
530.0444334660193
 30
0.0
 11
735.2503320870318
 21
530.0444334660193
 31
0.0
  0
LINE
  5
143
330
13F
100
AcDbEntity
  8
6
  6
Continuous
 62
     7
370
     9
100
AcDbLine
 10
605.615305689232
 20
533.0444334660193
 30
0.0
 11
605.6153056892317
 21
402.0444334660193
 31
0.0
  0
LINE
  5
144
330
13F
100
AcDbEntity
  8
6
  6
Continuous
 62
     7
370
     9
100
AcDbLine
 10
735.2503320870318
 20
533.0444334660193
 30
0.0
 11
735.2503320870318
 21
517.0444334660193
 31
0.0
  0
LINE
  5
145
330
13F
100
AcDbEntity
  8
6
  6
Continuous
 62
     7
370
     9
100
AcDbLine
 10
605.615305689232
 20
530.0444334660193
 30
0.0
 11
611.4108606469664
 21
531.5973477366344
 31
0.0
  0
LINE
  5
146
330
13F
100
AcDbEntity
  8
6
  6
Continuous
 62
     7
370
     9
100
AcDbLine
 10
605.615305689232
 20
530.0444334660193
 30
0.0
 11
611.4108606469664
 21
528.4915191954042
 31
0.0
  0
LINE
  5
147
330
13F
100
AcDbEntity
  8
6
  6
Continuous
 62
     7
370
     9
100
AcDbLine
 10
735.2503320870318
 20
530.0444334660193
 30
0.0
 11
729.4547771292973
 21
528.4915191954042
 31
0.0
  0
LINE
  5
148
330
13F
100
AcDbEntity
  8
6
  6
Continuous
 62
     7
370
     9
100
AcDbLine
 10
735.2503320870318
 20
530.0444334660193
 30
0.0
 11
729.4547771292973
 21
531.5973477366344
 31
0.0
  0
MTEXT
  5
149
330
13F
100
AcDbEntity
  8
6
  6
Continuous
 62
     7
370
     9
100
AcDbMText
 10
670.4328188881319
 20
534.5444334660193
 30
0.0
 40
9.0
 41
0.0
 71
     8
 72
     1
  1
130
 73
     1
 44
1.0
  0
ENDBLK
  5
141
330
13F
100
AcDbEntity
  8
0
100
AcDbBlockEnd
  0
BLOCK
  5
154
330
153
100
AcDbEntity
  8
0
100
AcDbBlockBegin
  2
Dim2
 70
     0
 71
     0
 10
0.0
 20
0.0
 30
0.0
  3
Dim2
  1

  0
LINE
  5
156
330
153
100
AcDbEntity
  8
6
  6
Continuous
 62
     7
370
     9
100
AcDbLine
 10
575.6153056892316
 20
466.0444334660198
 30
0.0
 11
575.6153056892318
 21
319.3109399226757
 31
0.0
  0
LINE
  5
157
330
153
100
AcDbEntity
  8
6
  6
Continuous
 62
     7
370
     9
100
AcDbLine
 10
572.6153056892316
 20
466.0444334660198
 30
0.0
 11
708.9402997444316
 21
466.0444334660193
 31
0.0
  0
LINE
  5
158
330
153
100
AcDbEntity
  8
6
  6
Continuous
 62
     7
370
     9
100
AcDbLine
 10
572.6153056892318
 20
319.3109399226757
 30
0.0
 11
665.2868166558318
 21
319.3109399226755
 31
0.0
  0
LINE
  5
159
330
153
100
AcDbEntity
  8
6
  6
Continuous
 62
     7
370
     9
100
AcDbLine
 10
575.6153056892316
 20
466.0444334660198
 30
0.0
 11
577.1682199598467
 21
460.2488785082854
 31
0.0
  0
LINE
  5
15A
330
153
100
AcDbEntity
  8
6
  6
Continuous
 62
     7
370
     9
100
AcDbLine
 10
575.6153056892316
 20
466.0444334660198
 30
0.0
 11
574.0623914186165
 21
460.2488785082854
 31
0.0
  0
LINE
  5
15B
330
153
100
AcDbEntity
  8
6
  6
Continuous
 62
     7
370
     9
100
AcDbLine
 10
575.6153056892318
 20
319.3109399226757
 30
0.0
 11
574.0623914186167
 21
325.1064948804101
 31
0.0
  0
LINE
  5
15C
330
153
100
AcDbEntity
  8
6
  6
Continuous
 62
     7
370
     9
100
AcDbLine
 10
575.6153056892318
 20
319.3109399226757
 30
0.0
 11
577.168219959847
 21
325.1064948804101
 31
0.0
  0
MTEXT
  5
15D
330
153
100
AcDbEntity
  8
6
  6
Continuous
 62
     7
370
     9
100
AcDbMText
 10
571.1153056892317
 20
392.6776866943477
 30
0.0
 40
9.0
 41
0.0
 71
     8
 72
     1
  1
147
 11
1.615544574432587E-15
 21
1.0
 31
0.0
 73
     1
 44
1.0
  0
ENDBLK
  5
155
330
153
100
AcDbEntity
  8
0
100
AcDbBlockEnd
  0
BLOCK
  5
160
330
15F
100
AcDbEntity
  8
0
100
AcDbBlockBegin
  2
Dim3
 70
     0
 71
     0
 10
0.0
 20
0.0
 30
0.0
  3
Dim3
  1

  0
LINE
  5
162
330
15F
100
AcDbEntity
  8
6
  6
Continuous
 62
     7
370
     9
100
AcDbLine
 10
575.6153056892317
 20
319.3109399226757
 30
0.0
 11
575.6153056892317
 21
305.0118028154365
 31
0.0
  0
LINE
  5
163
330
15F
100
AcDbEntity
  8
6
  6
Continuous
 62
     7
370
     9
100
AcDbLine
 10
572.6153056892317
 20
319.3109399226757
 30
0.0
 11
665.2868166558318
 21
319.3109399226755
 31
0.0
  0
LINE
  5
164
330
15F
100
AcDbEntity
  8
6
  6
Continuous
 62
     7
370
     9
100
AcDbLine
 10
572.6153056892317
 20
305.0118028154365
 30
0.0
 11
732.5853073327476
 21
305.011802815436
 31
0.0
  0
LINE
  5
165
330
15F
100
AcDbEntity
  8
6
  6
Continuous
 62
     7
370
     9
100
AcDbLine
 10
575.6153056892317
 20
319.3109399226757
 30
0.0
 11
577.1682199598469
 21
313.5153849649413
 31
0.0
  0
LINE
  5
166
330
15F
100
AcDbEntity
  8
6
  6
Continuous
 62
     7
370
     9
100
AcDbLine
 10
575.6153056892317
 20
319.3109399226757
 30
0.0
 11
574.0623914186166
 21
313.5153849649413
 31
0.0
  0
LINE
  5
167
330
15F
100
AcDbEntity
  8
6
  6
Continuous
 62
     7
370
     9
100
AcDbLine
 10
575.6153056892317
 20
305.0118028154365
 30
0.0
 11
574.0623914186166
 21
310.8073577731708
 31
0.0
  0
LINE
  5
168
330
15F
100
AcDbEntity
  8
6
  6
Continuous
 62
     7
370
     9
100
AcDbLine
 10
575.6153056892317
 20
305.0118028154365
 30
0.0
 11
577.1682199598469
 21
310.8073577731708
 31
0.0
  0
MTEXT
  5
169
330
15F
100
AcDbEntity
  8
6
  6
Continuous
 62
     7
370
     9
100
AcDbMText
 10
571.1153056892317
 20
312.1613713690561
 30
0.0
 40
9.0
 41
0.0
 71
     8
 72
     1
  1
(14)
 11
1.615544574432587E-15
 21
1.0
 31
0.0
 73
     1
 44
1.0
  0
ENDBLK
  5
161
330
15F
100
AcDbEntity
  8
0
100
AcDbBlockEnd
  0
BLOCK
  5
16C
330
16B
100
AcDbEntity
  8
0
100
AcDbBlockBegin
  2
Dim4
 70
     0
 71
     0
 10
0.0
 20
0.0
 30
0.0
  3
Dim4
  1

  0
LINE
  5
16E
330
16B
100
AcDbEntity
  8
6
  6
Continuous
 62
     7
370
     9
100
AcDbLine
 10
765.2503320870318
 20
466.0444334660192
 30
0.0
 11
765.2503320870318
 21
489.0444334660192
 31
0.0
  0
LINE
  5
16F
330
16B
100
AcDbEntity
  8
6
  6
Continuous
 62
     7
370
     9
100
AcDbLine
 10
768.2503320870318
 20
466.0444334660192
 30
0.0
 11
741.2503320870318
 21
466.0444334660193
 31
0.0
  0
LINE
  5
170
330
16B
100
AcDbEntity
  8
6
  6
Continuous
 62
     7
370
     9
100
AcDbLine
 10
768.2503320870318
 20
489.0444334660192
 30
0.0
 11
741.2503320870318
 21
489.0444334660193
 31
0.0
  0
LINE
  5
171
330
16B
100
AcDbEntity
  8
6
  6
Continuous
 62
     7
370
     9
100
AcDbLine
 10
765.2503320870318
 20
466.0444334660192
 30
0.0
 11
763.6974178164166
 21
471.8399884237536
 31
0.0
  0
LINE
  5
172
330
16B
100
AcDbEntity
  8
6
  6
Continuous
 62
     7
370
     9
100
AcDbLine
 10
765.2503320870318
 20
466.0444334660192
 30
0.0
 11
766.8032463576469
 21
471.8399884237536
 31
0.0
  0
LINE
  5
173
330
16B
100
AcDbEntity
  8
6
  6
Continuous
 62
     7
370
     9
100
AcDbLine
 10
765.2503320870318
 20
489.0444334660192
 30
0.0
 11
766.8032463576469
 21
483.2488785082848
 31
0.0
  0
LINE
  5
174
330
16B
100
AcDbEntity
  8
6
  6
Continuous
 62
     7
370
     9
100
AcDbLine
 10
765.2503320870318
 20
489.0444334660192
 30
0.0
 11
763.6974178164166
 21
483.2488785082848
 31
0.0
  0
MTEXT
  5
175
330
16B
100
AcDbEntity
  8
6
  6
Continuous
 62
     7
370
     9
100
AcDbMText
 10
760.7503320870318
 20
477.5444334660192
 30
0.0
 40
9.0
 41
0.0
 71
     8
 72
     1
  1
23
 11
1.615544574432587E-15
 21
1.0
 31
0.0
 73
     1
 44
1.0
  0
ENDBLK
  5
16D
330
16B
100
AcDbEntity
  8
0
100
AcDbBlockEnd
  0
BLOCK
  5
178
330
177
100
AcDbEntity
  8
0
100
AcDbBlockBegin
  2
Dim5
 70
     0
 71
     0
 10
0.0
 20
0.0
 30
0.0
  3
Dim5
  1

  0
LINE
  5
17A
330
177
100
AcDbEntity
  8
6
  6
Continuous
 62
     7
370
     9
100
AcDbLine
 10
765.2503320870318
 20
489.0444334660192
 30
0.0
 11
765.2503320870318
 21
511.0444334660192
 31
0.0
  0
LINE
  5
17B
330
177
100
AcDbEntity
  8
6
  6
Continuous
 62
     7
370
     9
100
AcDbLine
 10
768.2503320870318
 20
511.0444334660192
 30
0.0
 11
741.2503320870319
 21
511.0444334660193
 31
0.0
  0
LINE
  5
17C
330
177
100
AcDbEntity
  8
6
  6
Continuous
 62
     7
370
     9
100
AcDbLine
 10
765.2503320870318
 20
489.0444334660192
 30
0.0
 11
763.6974178164166
 21
494.8399884237536
 31
0.0
  0
LINE
  5
17D
330
177
100
AcDbEntity
  8
6
  6
Continuous
 62
     7
370
     9
100
AcDbLine
 10
765.2503320870318
 20
489.0444334660192
 30
0.0
 11
766.8032463576469
 21
494.8399884237536
 31
0.0
  0
LINE
  5
17E
330
177
100
AcDbEntity
  8
6
  6
Continuous
 62
     7
370
     9
100
AcDbLine
 10
765.2503320870318
 20
511.0444334660192
 30
0.0
 11
766.8032463576469
 21
505.2488785082848
 31
0.0
  0
LINE
  5
17F
330
177
100
AcDbEntity
  8
6
  6
Continuous
 62
     7
370
     9
100
AcDbLine
 10
765.2503320870318
 20
511.0444334660192
 30
0.0
 11
763.6974178164166
 21
505.2488785082848
 31
0.0
  0
MTEXT
  5
180
330
177
100
AcDbEntity
  8
6
  6
Continuous
 62
     7
370
     9
100
AcDbMText
 10
760.7503320870318
 20
500.0444334660192
 30
0.0
 40
9.0
 41
0.0
 71
     8
 72
     1
  1
22
 11
1.615544574432587E-15
 21
1.0
 31
0.0
 73
     1
 44
1.0
  0
ENDBLK
  5
179
330
177
100
AcDbEntity
  8
0
100
AcDbBlockEnd
  0
BLOCK
  5
183
330
182
100
AcDbEntity
  8
0
100
AcDbBlockBegin
  2
Dim6
 70
     0
 71
     0
 10
0.0
 20
0.0
 30
0.0
  3
Dim6
  1

  0
LINE
  5
185
330
182
100
AcDbEntity
  8
6
  6
Continuous
 62
     7
370
     9
100
AcDbLine
 10
756.3351810130403
 20
293.8484011776511
 30
0.0
 11
786.7407726040618
 21
324.2539927686726
 31
0.0
  0
LINE
  5
186
330
182
100
AcDbEntity
  8
6
  6
Continuous
 62
     7
370
     9
100
AcDbLine
 10
758.4565013565999
 20
291.7270808340915
 30
0.0
 11
747.7640404958582
 21
302.4195416948334
 31
0.0
  0
LINE
  5
187
330
182
100
AcDbEntity
  8
6
  6
Continuous
 62
     7
370
     9
100
AcDbLine
 10
788.8620929476215
 20
322.132672425113
 30
0.0
 11
778.1696320868799
 21
332.8251332858547
 31
0.0
  0
LINE
  5
188
330
182
100
AcDbEntity
  8
6
  6
Continuous
 62
     7
370
     9
100
AcDbLine
 10
756.3351810130403
 20
293.8484011776511
 30
0.0
 11
759.3351810130403
 21
299.0445536003577
 31
0.0
  0
LINE
  5
189
330
182
100
AcDbEntity
  8
6
  6
Continuous
 62
     7
370
     9
100
AcDbLine
 10
756.3351810130403
 20
293.8484011776511
 30
0.0
 11
761.5313334357469
 21
296.8484011776511
 31
0.0
  0
LINE
  5
18A
330
182
100
AcDbEntity
  8
6
  6
Continuous
 62
     7
370
     9
100
AcDbLine
 10
786.7407726040618
 20
324.2539927686726
 30
0.0
 11
783.7407726040618
 21
319.057840345966
 31
0.0
  0
LINE
  5
18B
330
182
100
AcDbEntity
  8
6
  6
Continuous
 62
     7
370
     9
100
AcDbLine
 10
786.7407726040618
 20
324.2539927686726
 30
0.0
 11
781.5446201813552
 21
321.2539927686726
 31
0.0
  0
MTEXT
  5
18C
330
182
100
AcDbEntity
  8
6
  6
Continuous
 62
     7
370
     9
100
AcDbMText
 10
768.3559962932117
 20
312.2331774885013
 30
0.0
 40
9.0
 41
0.0
 71
     8
 72
     1
  1
43
 11
0.7071067811865462
 21
0.7071067811865488
 31
0.0
 73
     1
 44
1.0
  0
ENDBLK
  5
184
330
182
100
AcDbEntity
  8
0
100
AcDbBlockEnd
  0
BLOCK
  5
18F
330
18E
100
AcDbEntity
  8
0
100
AcDbBlockBegin
  2
Dim7
 70
     0
 71
     0
 10
0.0
 20
0.0
 30
0.0
  3
Dim7
  1

  0
LINE
  5
191
330
18E
100
AcDbEntity
  8
6
  6
Continuous
 62
     7
370
     9
100
AcDbLine
 10
755.7135957439767
 20
393.8076971229636
 30
0.0
 11
793.1902551468637
 21
356.3310377200766
 31
0.0
  0
LINE
  5
192
330
18E
100
AcDbEntity
  8
6
  6
Continuous
 62
     7
370
     9
100
AcDbLine
 10
757.8349160875364
 20
395.9290174665232
 30
0.0
 11
740.6929727741511
 21
378.7870741531385
 31
0.0
  0
LINE
  5
193
330
18E
100
AcDbEntity
  8
6
  6
Continuous
 62
     7
370
     9
100
AcDbLine
 10
795.3115754904234
 20
358.4523580636362
 30
0.0
 11
778.16963208688
 21
341.3104146600933
 31
0.0
  0
LINE
  5
194
330
18E
100
AcDbEntity
  8
6
  6
Continuous
 62
     7
370
     9
100
AcDbLine
 10
755.7135957439767
 20
393.8076971229636
 30
0.0
 11
760.9097481666834
 21
390.8076971229636
 31
0.0
  0
LINE
  5
195
330
18E
100
AcDbEntity
  8
6
  6
Continuous
 62
     7
370
     9
100
AcDbLine
 10
755.7135957439767
 20
393.8076971229636
 30
0.0
 11
758.7135957439767
 21
388.611544700257
 31
0.0
  0
LINE
  5
196
330
18E
100
AcDbEntity
  8
6
  6
Continuous
 62
     7
370
     9
100
AcDbLine
 10
793.1902551468637
 20
356.3310377200766
 30
0.0
 11
787.9941027241571
 21
359.3310377200766
 31
0.0
  0
LINE
  5
197
330
18E
100
AcDbEntity
  8
6
  6
Continuous
 62
     7
370
     9
100
AcDbLine
 10
793.1902551468637
 20
356.3310377200766
 30
0.0
 11
790.1902551468637
 21
361.5271901427832
 31
0.0
  0
MTEXT
  5
198
330
18E
100
AcDbEntity
  8
6
  6
Continuous
 62
     7
370
     9
100
AcDbMText
 10
777.6339059607596
 20
378.2513479368595
 30
0.0
 40
9.0
 41
0.0
 71
     8
 72
     1
  1
53
 11
0.7071067811865449
 21
-0.7071067811865501
 31
0.0
 73
     1
 44
1.0
  0
ENDBLK
  5
190
330
18E
100
AcDbEntity
  8
0
100
AcDbBlockEnd
  0
BLOCK
  5
1A3
330
1A2
100
AcDbEntity
  8
0
100
AcDbBlockBegin
  2
Dim8
 70
     0
 71
     0
 10
0.0
 20
0.0
 30
0.0
  3
Dim8
  1

  0
LINE
  5
1A5
330
1A2
100
AcDbEntity
  8
6
  6
Continuous
 62
     7
370
     9
100
AcDbLine
 10
605.6153056892309
 20
272.8372565157753
 30
0.0
 11
773.9269913997599
 21
272.8372565157753
 31
0.0
  0
LINE
  5
1A6
330
1A2
100
AcDbEntity
  8
6
  6
Continuous
 62
     7
370
     9
100
AcDbLine
 10
605.6153056892309
 20
269.8372565157753
 30
0.0
 11
605.6153056892316
 21
332.9225857338807
 31
0.0
  0
LINE
  5
1A7
330
1A2
100
AcDbEntity
  8
6
  6
Continuous
 62
     7
370
     9
100
AcDbLine
 10
773.9269913997599
 20
269.8372565157753
 30
0.0
 11
773.9269913997606
 21
331.0677739729741
 31
0.0
  0
LINE
  5
1A8
330
1A2
100
AcDbEntity
  8
6
  6
Continuous
 62
     7
370
     9
100
AcDbLine
 10
605.6153056892309
 20
272.8372565157753
 30
0.0
 11
611.4108606469654
 21
274.3901707863905
 31
0.0
  0
LINE
  5
1A9
330
1A2
100
AcDbEntity
  8
6
  6
Continuous
 62
     7
370
     9
100
AcDbLine
 10
605.6153056892309
 20
272.8372565157753
 30
0.0
 11
611.4108606469654
 21
271.2843422451602
 31
0.0
  0
LINE
  5
1AA
330
1A2
100
AcDbEntity
  8
6
  6
Continuous
 62
     7
370
     9
100
AcDbLine
 10
773.9269913997599
 20
272.8372565157753
 30
0.0
 11
768.1314364420255
 21
271.2843422451602
 31
0.0
  0
LINE
  5
1AB
330
1A2
100
AcDbEntity
  8
6
  6
Continuous
 62
     7
370
     9
100
AcDbLine
 10
773.9269913997599
 20
272.8372565157753
 30
0.0
 11
768.1314364420255
 21
274.3901707863905
 31
0.0
  0
MTEXT
  5
1AC
330
1A2
100
AcDbEntity
  8
6
  6
Continuous
 62
     7
370
     9
100
AcDbMText
 10
689.7711485444954
 20
277.3372565157753
 30
0.0
 40
9.0
 41
0.0
 71
     8
 72
     1
  1
(169)
 73
     1
 44
1.0
  0
ENDBLK
  5
1A4
330
1A2
100
AcDbEntity
  8
0
100
AcDbBlockEnd
  0
BLOCK
  5
218
330
217
100
AcDbEntity
  8
0
100
AcDbBlockBegin
  2
*G21
 70
     1
 71
     0
 10
0.0
 20
0.0
 30
0.0
  3
*G21
  1

  0
LINE
  5
21A
330
217
100
AcDbEntity
  8
6
  6
Continuous
 62
     7
370
     9
100
AcDbLine
 10
244.2830452674925
 20
387.6533564500754
 30
0.0
 11
212.9671195137671
 21
419.0444334660193
 31
0.0
  0
LINE
  5
21B
330
217
100
AcDbEntity
  8
6
  6
Continuous
 62
     7
370
     9
100
AcDbLine
 10
212.9671195137671
 20
419.0444334660193
 30
0.0
 11
218.1596728548639
 21
416.0382082915081
 31
0.0
  0
LINE
  5
21C
330
217
100
AcDbEntity
  8
6
  6
Continuous
 62
     7
370
     9
100
AcDbLine
 10
212.9671195137671
 20
419.0444334660193
 30
0.0
 11
215.9608900304071
 21
413.8446894248479
 31
0.0
  0
ENDBLK
  5
219
330
217
100
AcDbEntity
  8
0
100
AcDbBlockEnd
  0
BLOCK
  5
21F
330
21E
100
AcDbEntity
  8
0
100
AcDbBlockBegin
  2
*G22
 70
     1
 71
     0
 10
0.0
 20
0.0
 30
0.0
  3
*G22
  1

  0
LINE
  5
221
330
21E
100
AcDbEntity
  8
6
  6
Continuous
 62
     7
370
     9
100
AcDbLine
 10
244.2830452674925
 20
387.6533564500754
 30
0.0
 11
212.9671195137671
 21
441.0444334660193
 31
0.0
  0
LINE
  5
222
330
21E
100
AcDbEntity
  8
6
  6
Continuous
 62
     7
370
     9
100
AcDbLine
 10
212.9671195137671
 20
441.0444334660193
 30
0.0
 11
217.2387806949405
 21
436.8310131507343
 31
0.0
  0
LINE
  5
223
330
21E
100
AcDbEntity
  8
6
  6
Continuous
 62
     7
370
     9
100
AcDbLine
 10
212.9671195137671
 20
441.0444334660193
 30
0.0
 11
214.5597764553806
 21
435.2596738455744
 31
0.0
  0
ENDBLK
  5
220
330
21E
100
AcDbEntity
  8
0
100
AcDbBlockEnd
  0
BLOCK
  5
227
330
226
100
AcDbEntity
  8
0
100
AcDbBlockBegin
  2
Dim9
 70
     0
 71
     0
 10
0.0
 20
0.0
 30
0.0
  3
Dim9
  1

  0
LINE
  5
229
330
226
100
AcDbEntity
  8
6
  6
Continuous
 62
     7
370
     9
100
AcDbLine
 10
100.9657471711673
 20
496.0444334660193
 30
0.0
 11
116.9671195137673
 21
496.0444334660193
 31
0.0
  0
LINE
  5
22A
330
226
100
AcDbEntity
  8
6
  6
Continuous
 62
     7
370
     9
100
AcDbLine
 10
116.9671195137673
 20
499.0444334660193
 30
0.0
 11
116.9671195137671
 21
455.8266358025202
 31
0.0
  0
LINE
  5
22B
330
226
100
AcDbEntity
  8
6
  6
Continuous
 62
     7
370
     9
100
AcDbLine
 10
100.9657471711673
 20
496.0444334660193
 30
0.0
 11
105.3124133894681
 21
497.2091191689806
 31
0.0
  0
LINE
  5
22C
330
226
100
AcDbEntity
  8
6
  6
Continuous
 62
     7
370
     9
100
AcDbLine
 10
100.9657471711673
 20
496.0444334660193
 30
0.0
 11
105.3124133894681
 21
494.879747763058
 31
0.0
  0
LINE
  5
22D
330
226
100
AcDbEntity
  8
6
  6
Continuous
 62
     7
370
     9
100
AcDbLine
 10
116.9671195137673
 20
496.0444334660193
 30
0.0
 11
112.6204532954665
 21
494.879747763058
 31
0.0
  0
LINE
  5
22E
330
226
100
AcDbEntity
  8
6
  6
Continuous
 62
     7
370
     9
100
AcDbLine
 10
116.9671195137673
 20
496.0444334660193
 30
0.0
 11
112.6204532954665
 21
497.2091191689807
 31
0.0
  0
MTEXT
  5
22F
330
226
100
AcDbEntity
  8
6
  6
Continuous
 62
     7
370
     9
100
AcDbMText
 10
108.9664333424673
 20
500.5444334660193
 30
0.0
 40
9.0
 41
0.0
 71
     8
 72
     1
  1
16
 73
     1
 44
1.0
  0
ENDBLK
  5
228
330
226
100
AcDbEntity
  8
0
100
AcDbBlockEnd
  0
BLOCK
  5
232
330
231
100
AcDbEntity
  8
0
100
AcDbBlockBegin
  2
Dim10
 70
     0
 71
     0
 10
0.0
 20
0.0
 30
0.0
  3
Dim10
  1

  0
LINE
  5
234
330
231
100
AcDbEntity
  8
6
  6
Continuous
 62
     7
370
     9
100
AcDbLine
 10
116.9671195137673
 20
496.0444334660193
 30
0.0
 11
212.9671195137673
 21
496.0444334660193
 31
0.0
  0
LINE
  5
235
330
231
100
AcDbEntity
  8
6
  6
Continuous
 62
     7
370
     9
100
AcDbLine
 10
212.9671195137674
 20
499.0444334660193
 30
0.0
 11
212.9671195137671
 21
455.8266358025202
 31
0.0
  0
LINE
  5
236
330
231
100
AcDbEntity
  8
6
  6
Continuous
 62
     7
370
     9
100
AcDbLine
 10
116.9671195137673
 20
496.0444334660193
 30
0.0
 11
121.3137857320681
 21
497.2091191689806
 31
0.0
  0
LINE
  5
237
330
231
100
AcDbEntity
  8
6
  6
Continuous
 62
     7
370
     9
100
AcDbLine
 10
116.9671195137673
 20
496.0444334660193
 30
0.0
 11
121.3137857320681
 21
494.879747763058
 31
0.0
  0
LINE
  5
238
330
231
100
AcDbEntity
  8
6
  6
Continuous
 62
     7
370
     9
100
AcDbLine
 10
212.9671195137673
 20
496.0444334660193
 30
0.0
 11
208.6204532954665
 21
494.879747763058
 31
0.0
  0
LINE
  5
239
330
231
100
AcDbEntity
  8
6
  6
Continuous
 62
     7
370
     9
100
AcDbLine
 10
212.9671195137673
 20
496.0444334660193
 30
0.0
 11
208.6204532954665
 21
497.2091191689807
 31
0.0
  0
MTEXT
  5
23A
330
231
100
AcDbEntity
  8
6
  6
Continuous
 62
     7
370
     9
100
AcDbMText
 10
164.9671195137673
 20
500.5444334660193
 30
0.0
 40
9.0
 41
0.0
 71
     8
 72
     1
  1
96
 73
     1
 44
1.0
  0
ENDBLK
  5
233
330
231
100
AcDbEntity
  8
0
100
AcDbBlockEnd
  0
BLOCK
  5
23D
330
23C
100
AcDbEntity
  8
0
100
AcDbBlockBegin
  2
Dim11
 70
     0
 71
     0
 10
0.0
 20
0.0
 30
0.0
  3
Dim11
  1

  0
LINE
  5
23F
330
23C
100
AcDbEntity
  8
6
  6
Continuous
 62
     7
370
     9
100
AcDbLine
 10
212.9671195137673
 20
496.0444334660193
 30
0.0
 11
228.9684918563673
 21
496.0444334660193
 31
0.0
  0
LINE
  5
240
330
23C
100
AcDbEntity
  8
6
  6
Continuous
 62
     7
370
     9
100
AcDbLine
 10
212.9671195137673
 20
496.0444334660193
 30
0.0
 11
217.3137857320681
 21
497.2091191689806
 31
0.0
  0
LINE
  5
241
330
23C
100
AcDbEntity
  8
6
  6
Continuous
 62
     7
370
     9
100
AcDbLine
 10
212.9671195137673
 20
496.0444334660193
 30
0.0
 11
217.3137857320681
 21
494.879747763058
 31
0.0
  0
LINE
  5
242
330
23C
100
AcDbEntity
  8
6
  6
Continuous
 62
     7
370
     9
100
AcDbLine
 10
228.9684918563673
 20
496.0444334660193
 30
0.0
 11
224.6218256380665
 21
494.879747763058
 31
0.0
  0
LINE
  5
243
330
23C
100
AcDbEntity
  8
6
  6
Continuous
 62
     7
370
     9
100
AcDbLine
 10
228.9684918563673
 20
496.0444334660193
 30
0.0
 11
224.6218256380665
 21
497.2091191689807
 31
0.0
  0
MTEXT
  5
244
330
23C
100
AcDbEntity
  8
6
  6
Continuous
 62
     7
370
     9
100
AcDbMText
 10
220.9678056850673
 20
500.5444334660193
 30
0.0
 40
9.0
 41
0.0
 71
     8
 72
     1
  1
16
 73
     1
 44
1.0
  0
ENDBLK
  5
23E
330
23C
100
AcDbEntity
  8
0
100
AcDbBlockEnd
  0
BLOCK
  5
247
330
246
100
AcDbEntity
  8
0
100
AcDbBlockBegin
  2
Dim12
 70
     0
 71
     0
 10
0.0
 20
0.0
 30
0.0
  3
Dim12
  1

  0
LINE
  5
249
330
246
100
AcDbEntity
  8
6
  6
Continuous
 62
     7
370
     9
100
AcDbLine
 10
100.9657471711673
 20
517.0444334660193
 30
0.0
 11
228.9684918563673
 21
517.0444334660193
 31
0.0
  0
LINE
  5
24A
330
246
100
AcDbEntity
  8
6
  6
Continuous
 62
     7
370
     9
100
AcDbLine
 10
100.9657471711673
 20
520.0444334660193
 30
0.0
 11
100.9657471711673
 21
467.0907687808193
 31
0.0
  0
LINE
  5
24B
330
246
100
AcDbEntity
  8
6
  6
Continuous
 62
     7
370
     9
100
AcDbLine
 10
228.9684918563673
 20
520.0444334660193
 30
0.0
 11
228.9684918563672
 21
467.0907687808193
 31
0.0
  0
LINE
  5
24C
330
246
100
AcDbEntity
  8
6
  6
Continuous
 62
     7
370
     9
100
AcDbLine
 10
100.9657471711673
 20
517.0444334660193
 30
0.0
 11
105.3124133894681
 21
518.2091191689807
 31
0.0
  0
LINE
  5
24D
330
246
100
AcDbEntity
  8
6
  6
Continuous
 62
     7
370
     9
100
AcDbLine
 10
100.9657471711673
 20
517.0444334660193
 30
0.0
 11
105.3124133894681
 21
515.8797477630579
 31
0.0
  0
LINE
  5
24E
330
246
100
AcDbEntity
  8
6
  6
Continuous
 62
     7
370
     9
100
AcDbLine
 10
228.9684918563673
 20
517.0444334660193
 30
0.0
 11
224.6218256380665
 21
515.8797477630579
 31
0.0
  0
LINE
  5
24F
330
246
100
AcDbEntity
  8
6
  6
Continuous
 62
     7
370
     9
100
AcDbLine
 10
228.9684918563673
 20
517.0444334660193
 30
0.0
 11
224.6218256380665
 21
518.2091191689807
 31
0.0
  0
MTEXT
  5
250
330
246
100
AcDbEntity
  8
6
  6
Continuous
 62
     7
370
     9
100
AcDbMText
 10
164.9671195137673
 20
521.5444334660193
 30
0.0
 40
9.0
 41
0.0
 71
     8
 72
     1
  1
128
 73
     1
 44
1.0
  0
ENDBLK
  5
248
330
246
100
AcDbEntity
  8
0
100
AcDbBlockEnd
  0
BLOCK
  5
253
330
252
100
AcDbEntity
  8
0
100
AcDbBlockBegin
  2
Dim13
 70
     0
 71
     0
 10
0.0
 20
0.0
 30
0.0
  3
Dim13
  1

  0
LINE
  5
255
330
252
100
AcDbEntity
  8
6
  6
Continuous
 62
     7
370
     9
100
AcDbLine
 10
70.96574717116721
 20
441.0444334660193
 30
0.0
 11
70.96574717116721
 21
419.0444334660193
 31
0.0
  0
LINE
  5
256
330
252
100
AcDbEntity
  8
6
  6
Continuous
 62
     7
370
     9
100
AcDbLine
 10
67.96574717116721
 20
441.0444334660193
 30
0.0
 11
94.96574717116721
 21
441.0444334660193
 31
0.0
  0
LINE
  5
257
330
252
100
AcDbEntity
  8
6
  6
Continuous
 62
     7
370
     9
100
AcDbLine
 10
67.96574717116721
 20
419.0444334660193
 30
0.0
 11
94.96574717116721
 21
419.0444334660193
 31
0.0
  0
LINE
  5
258
330
252
100
AcDbEntity
  8
6
  6
Continuous
 62
     7
370
     9
100
AcDbLine
 10
70.96574717116721
 20
441.0444334660193
 30
0.0
 11
72.51866144178234
 21
435.2488785082849
 31
0.0
  0
LINE
  5
259
330
252
100
AcDbEntity
  8
6
  6
Continuous
 62
     7
370
     9
100
AcDbLine
 10
70.96574717116721
 20
441.0444334660193
 30
0.0
 11
69.41283290055209
 21
435.2488785082849
 31
0.0
  0
LINE
  5
25A
330
252
100
AcDbEntity
  8
6
  6
Continuous
 62
     7
370
     9
100
AcDbLine
 10
70.96574717116721
 20
419.0444334660193
 30
0.0
 11
69.41283290055209
 21
424.8399884237537
 31
0.0
  0
LINE
  5
25B
330
252
100
AcDbEntity
  8
6
  6
Continuous
 62
     7
370
     9
100
AcDbLine
 10
70.96574717116721
 20
419.0444334660193
 30
0.0
 11
72.51866144178234
 21
424.8399884237537
 31
0.0
  0
MTEXT
  5
25C
330
252
100
AcDbEntity
  8
6
  6
Continuous
 62
     7
370
     9
100
AcDbMText
 10
75.46574717116721
 20
430.2028419056004
 30
0.0
 40
9.0
 41
0.0
 71
     8
 72
     1
  1
22
 11
1.615544574432587E-15
 21
1.0
 31
0.0
 73
     1
 44
1.0
  0
ENDBLK
  5
254
330
252
100
AcDbEntity
  8
0
100
AcDbBlockEnd
  0
BLOCK
  5
25F
330
25E
100
AcDbEntity
  8
0
100
AcDbBlockBegin
  2
Dim14
 70
     0
 71
     0
 10
0.0
 20
0.0
 30
0.0
  3
Dim14
  1

  0
LINE
  5
261
330
25E
100
AcDbEntity
  8
6
  6
Continuous
 62
     7
370
     9
100
AcDbLine
 10
70.96574717116721
 20
419.0444334660193
 30
0.0
 11
70.96574717116721
 21
396.0444334660193
 31
0.0
  0
LINE
  5
262
330
25E
100
AcDbEntity
  8
6
  6
Continuous
 62
     7
370
     9
100
AcDbLine
 10
67.96574717116721
 20
396.0444334660193
 30
0.0
 11
94.96574717116721
 21
396.0444334660193
 31
0.0
  0
LINE
  5
263
330
25E
100
AcDbEntity
  8
6
  6
Continuous
 62
     7
370
     9
100
AcDbLine
 10
70.96574717116721
 20
419.0444334660193
 30
0.0
 11
72.51866144178234
 21
413.2488785082849
 31
0.0
  0
LINE
  5
264
330
25E
100
AcDbEntity
  8
6
  6
Continuous
 62
     7
370
     9
100
AcDbLine
 10
70.96574717116721
 20
419.0444334660193
 30
0.0
 11
69.41283290055209
 21
413.2488785082849
 31
0.0
  0
LINE
  5
265
330
25E
100
AcDbEntity
  8
6
  6
Continuous
 62
     7
370
     9
100
AcDbLine
 10
70.96574717116721
 20
396.0444334660193
 30
0.0
 11
69.41283290055209
 21
401.8399884237537
 31
0.0
  0
LINE
  5
266
330
25E
100
AcDbEntity
  8
6
  6
Continuous
 62
     7
370
     9
100
AcDbLine
 10
70.96574717116721
 20
396.0444334660193
 30
0.0
 11
72.51866144178234
 21
401.8399884237537
 31
0.0
  0
MTEXT
  5
267
330
25E
100
AcDbEntity
  8
6
  6
Continuous
 62
     7
370
     9
100
AcDbMText
 10
66.46574717116721
 20
407.2978419056004
 30
0.0
 40
9.0
 41
0.0
 71
     8
 72
     1
  1
23
 11
1.615544574432587E-15
 21
1.0
 31
0.0
 73
     1
 44
1.0
  0
ENDBLK
  5
260
330
25E
100
AcDbEntity
  8
0
100
AcDbBlockEnd
  0
BLOCK
  5
26A
330
269
100
AcDbEntity
  8
0
100
AcDbBlockBegin
  2
Dim15
 70
     0
 71
     0
 10
0.0
 20
0.0
 30
0.0
  3
Dim15
  1

  0
LINE
  5
26C
330
269
100
AcDbEntity
  8
6
  6
Continuous
 62
     7
370
     9
100
AcDbLine
 10
119.9671195137657
 20
276.662182381953
 30
0.0
 11
135.9671195137684
 21
276.662182381953
 31
0.0
  0
LINE
  5
26D
330
269
100
AcDbEntity
  8
6
  6
Continuous
 62
     7
370
     9
100
AcDbLine
 10
135.9671195137684
 20
273.662182381953
 30
0.0
 11
135.9671195137684
 21
300.8813671589631
 31
0.0
  0
LINE
  5
26E
330
269
100
AcDbEntity
  8
6
  6
Continuous
 62
     7
370
     9
100
AcDbLine
 10
119.9671195137657
 20
276.662182381953
 30
0.0
 11
125.7626744715001
 21
278.2150966525681
 31
0.0
  0
LINE
  5
26F
330
269
100
AcDbEntity
  8
6
  6
Continuous
 62
     7
370
     9
100
AcDbLine
 10
119.9671195137657
 20
276.662182381953
 30
0.0
 11
125.7626744715001
 21
275.1092681113378
 31
0.0
  0
LINE
  5
270
330
269
100
AcDbEntity
  8
6
  6
Continuous
 62
     7
370
     9
100
AcDbLine
 10
135.9671195137684
 20
276.662182381953
 30
0.0
 11
130.1715645560339
 21
275.1092681113379
 31
0.0
  0
LINE
  5
271
330
269
100
AcDbEntity
  8
6
  6
Continuous
 62
     7
370
     9
100
AcDbLine
 10
135.9671195137684
 20
276.662182381953
 30
0.0
 11
130.171564556034
 21
278.2150966525681
 31
0.0
  0
MTEXT
  5
272
330
269
100
AcDbEntity
  8
6
  6
Continuous
 62
     7
370
     9
100
AcDbMText
 10
127.9671195137669
 20
281.162182381953
 30
0.0
 40
9.0
 41
0.0
 71
     8
 72
     1
  1
16
 73
     1
 44
1.0
  0
ENDBLK
  5
26B
330
269
100
AcDbEntity
  8
0
100
AcDbBlockEnd
  0
BLOCK
  5
275
330
274
100
AcDbEntity
  8
0
100
AcDbBlockBegin
  2
Dim16
 70
     0
 71
     0
 10
0.0
 20
0.0
 30
0.0
  3
Dim16
  1

  0
LINE
  5
277
330
274
100
AcDbEntity
  8
6
  6
Continuous
 62
     7
370
     9
100
AcDbLine
 10
135.9671195137684
 20
276.662182381953
 30
0.0
 11
193.9671198199192
 21
276.662182381953
 31
0.0
  0
LINE
  5
278
330
274
100
AcDbEntity
  8
6
  6
Continuous
 62
     7
370
     9
100
AcDbLine
 10
193.9671198199192
 20
273.662182381953
 30
0.0
 11
193.9671198199192
 21
300.8813671928593
 31
0.0
  0
LINE
  5
279
330
274
100
AcDbEntity
  8
6
  6
Continuous
 62
     7
370
     9
100
AcDbLine
 10
135.9671195137684
 20
276.662182381953
 30
0.0
 11
141.7626744715027
 21
278.2150966525681
 31
0.0
  0
LINE
  5
27A
330
274
100
AcDbEntity
  8
6
  6
Continuous
 62
     7
370
     9
100
AcDbLine
 10
135.9671195137684
 20
276.662182381953
 30
0.0
 11
141.7626744715027
 21
275.1092681113378
 31
0.0
  0
LINE
  5
27B
330
274
100
AcDbEntity
  8
6
  6
Continuous
 62
     7
370
     9
100
AcDbLine
 10
193.9671198199192
 20
276.662182381953
 30
0.0
 11
188.1715648621847
 21
275.1092681113379
 31
0.0
  0
LINE
  5
27C
330
274
100
AcDbEntity
  8
6
  6
Continuous
 62
     7
370
     9
100
AcDbLine
 10
193.9671198199192
 20
276.662182381953
 30
0.0
 11
188.1715648621848
 21
278.2150966525681
 31
0.0
  0
MTEXT
  5
27D
330
274
100
AcDbEntity
  8
6
  6
Continuous
 62
     7
370
     9
100
AcDbMText
 10
164.9671196668437
 20
281.162182381953
 30
0.0
 40
9.0
 41
0.0
 71
     8
 72
     1
  1
58
 73
     1
 44
1.0
  0
ENDBLK
  5
276
330
274
100
AcDbEntity
  8
0
100
AcDbBlockEnd
  0
BLOCK
  5
280
330
27F
100
AcDbEntity
  8
0
100
AcDbBlockBegin
  2
Dim17
 70
     0
 71
     0
 10
0.0
 20
0.0
 30
0.0
  3
Dim17
  1

  0
LINE
  5
282
330
27F
100
AcDbEntity
  8
6
  6
Continuous
 62
     7
370
     9
100
AcDbLine
 10
193.9671198199192
 20
276.662182381953
 30
0.0
 11
209.9671195137687
 21
276.662182381953
 31
0.0
  0
LINE
  5
283
330
27F
100
AcDbEntity
  8
6
  6
Continuous
 62
     7
370
     9
100
AcDbLine
 10
193.9671198199192
 20
276.662182381953
 30
0.0
 11
199.7626747776536
 21
278.2150966525681
 31
0.0
  0
LINE
  5
284
330
27F
100
AcDbEntity
  8
6
  6
Continuous
 62
     7
370
     9
100
AcDbLine
 10
193.9671198199192
 20
276.662182381953
 30
0.0
 11
199.7626747776536
 21
275.1092681113378
 31
0.0
  0
LINE
  5
285
330
27F
100
AcDbEntity
  8
6
  6
Continuous
 62
     7
370
     9
100
AcDbLine
 10
209.9671195137687
 20
276.662182381953
 30
0.0
 11
204.1715645560343
 21
275.1092681113379
 31
0.0
  0
LINE
  5
286
330
27F
100
AcDbEntity
  8
6
  6
Continuous
 62
     7
370
     9
100
AcDbLine
 10
209.9671195137687
 20
276.662182381953
 30
0.0
 11
204.1715645560343
 21
278.2150966525681
 31
0.0
  0
MTEXT
  5
287
330
27F
100
AcDbEntity
  8
6
  6
Continuous
 62
     7
370
     9
100
AcDbMText
 10
201.9671196668439
 20
281.162182381953
 30
0.0
 40
9.0
 41
0.0
 71
     8
 72
     1
  1
16
 73
     1
 44
1.0
  0
ENDBLK
  5
281
330
27F
100
AcDbEntity
  8
0
100
AcDbBlockEnd
  0
BLOCK
  5
28A
330
289
100
AcDbEntity
  8
0
100
AcDbBlockBegin
  2
Dim18
 70
     0
 71
     0
 10
0.0
 20
0.0
 30
0.0
  3
Dim18
  1

  0
LINE
  5
28C
330
289
100
AcDbEntity
  8
6
  6
Continuous
 62
     7
370
     9
100
AcDbLine
 10
119.9671195137648
 20
255.6621823819528
 30
0.0
 11
209.9671195137679
 21
255.6621823819528
 31
0.0
  0
LINE
  5
28D
330
289
100
AcDbEntity
  8
6
  6
Continuous
 62
     7
370
     9
100
AcDbLine
 10
119.9671195137648
 20
252.6621823819528
 30
0.0
 11
119.9671195137657
 21
311.5107104378981
 31
0.0
  0
LINE
  5
28E
330
289
100
AcDbEntity
  8
6
  6
Continuous
 62
     7
370
     9
100
AcDbLine
 10
209.9671195137679
 20
252.6621823819528
 30
0.0
 11
209.9671195137686
 21
311.5107104378978
 31
0.0
  0
LINE
  5
28F
330
289
100
AcDbEntity
  8
6
  6
Continuous
 62
     7
370
     9
100
AcDbLine
 10
119.9671195137648
 20
255.6621823819528
 30
0.0
 11
125.7626744714992
 21
257.2150966525679
 31
0.0
  0
LINE
  5
290
330
289
100
AcDbEntity
  8
6
  6
Continuous
 62
     7
370
     9
100
AcDbLine
 10
119.9671195137648
 20
255.6621823819528
 30
0.0
 11
125.7626744714992
 21
254.1092681113377
 31
0.0
  0
LINE
  5
291
330
289
100
AcDbEntity
  8
6
  6
Continuous
 62
     7
370
     9
100
AcDbLine
 10
209.9671195137679
 20
255.6621823819528
 30
0.0
 11
204.1715645560335
 21
254.1092681113377
 31
0.0
  0
LINE
  5
292
330
289
100
AcDbEntity
  8
6
  6
Continuous
 62
     7
370
     9
100
AcDbLine
 10
209.9671195137679
 20
255.6621823819528
 30
0.0
 11
204.1715645560335
 21
257.2150966525679
 31
0.0
  0
MTEXT
  5
293
330
289
100
AcDbEntity
  8
6
  6
Continuous
 62
     7
370
     9
100
AcDbMText
 10
164.9671195137664
 20
260.1621823819528
 30
0.0
 40
9.0
 41
0.0
 71
     8
 72
     1
  1
90
 73
     1
 44
1.0
  0
ENDBLK
  5
28B
330
289
100
AcDbEntity
  8
0
100
AcDbBlockEnd
  0
BLOCK
  5
2F6
330
2F5
100
AcDbEntity
  8
0
100
AcDbBlockBegin
  2
Dim19
 70
     0
 71
     0
 10
0.0
 20
0.0
 30
0.0
  3
Dim19
  1

  0
LINE
  5
2F8
330
2F5
100
AcDbEntity
  8
6
  6
Continuous
 62
     7
370
     9
100
AcDbLine
 10
371.0431678217114
 20
517.0444334660193
 30
0.0
 11
499.0459154791113
 21
517.0444334660193
 31
0.0
  0
LINE
  5
2F9
330
2F5
100
AcDbEntity
  8
6
  6
Continuous
 62
     7
370
     9
100
AcDbLine
 10
371.0431678217114
 20
520.0444334660193
 30
0.0
 11
371.0431678217112
 21
458.9388058694195
 31
0.0
  0
LINE
  5
2FA
330
2F5
100
AcDbEntity
  8
6
  6
Continuous
 62
     7
370
     9
100
AcDbLine
 10
499.0459154791113
 20
520.0444334660193
 30
0.0
 11
499.0459154791113
 21
458.9388058694195
 31
0.0
  0
LINE
  5
2FB
330
2F5
100
AcDbEntity
  8
6
  6
Continuous
 62
     7
370
     9
100
AcDbLine
 10
371.0431678217114
 20
517.0444334660193
 30
0.0
 11
375.3898340400123
 21
518.2091191689807
 31
0.0
  0
LINE
  5
2FC
330
2F5
100
AcDbEntity
  8
6
  6
Continuous
 62
     7
370
     9
100
AcDbLine
 10
371.0431678217114
 20
517.0444334660193
 30
0.0
 11
375.3898340400123
 21
515.8797477630579
 31
0.0
  0
LINE
  5
2FD
330
2F5
100
AcDbEntity
  8
6
  6
Continuous
 62
     7
370
     9
100
AcDbLine
 10
499.0459154791113
 20
517.0444334660193
 30
0.0
 11
494.6992492608105
 21
515.8797477630579
 31
0.0
  0
LINE
  5
2FE
330
2F5
100
AcDbEntity
  8
6
  6
Continuous
 62
     7
370
     9
100
AcDbLine
 10
499.0459154791113
 20
517.0444334660193
 30
0.0
 11
494.6992492608105
 21
518.2091191689807
 31
0.0
  0
MTEXT
  5
2FF
330
2F5
100
AcDbEntity
  8
6
  6
Continuous
 62
     7
370
     9
100
AcDbMText
 10
435.0445416504115
 20
521.5444334660193
 30
0.0
 40
9.0
 41
0.0
 71
     8
 72
     1
  1
128
 73
     1
 44
1.0
  0
ENDBLK
  5
2F7
330
2F5
100
AcDbEntity
  8
0
100
AcDbBlockEnd
  0
BLOCK
  5
302
330
301
100
AcDbEntity
  8
0
100
AcDbBlockBegin
  2
Dim20
 70
     0
 71
     0
 10
0.0
 20
0.0
 30
0.0
  3
Dim20
  1

  0
LINE
  5
304
330
301
100
AcDbEntity
  8
6
  6
Continuous
 62
     7
370
     9
100
AcDbLine
 10
341.0431678217108
 20
466.0444334660193
 30
0.0
 11
341.0431678217108
 21
319.0487921760409
 31
0.0
  0
LINE
  5
305
330
301
100
AcDbEntity
  8
6
  6
Continuous
 62
     7
370
     9
100
AcDbLine
 10
338.0431678217108
 20
466.0444334660193
 30
0.0
 11
365.8357554791112
 21
466.0444334660193
 31
0.0
  0
LINE
  5
306
330
301
100
AcDbEntity
  8
6
  6
Continuous
 62
     7
370
     9
100
AcDbLine
 10
338.0431678217108
 20
319.0487921760409
 30
0.0
 11
365.8357554791112
 21
319.0487921760409
 31
0.0
  0
LINE
  5
307
330
301
100
AcDbEntity
  8
6
  6
Continuous
 62
     7
370
     9
100
AcDbLine
 10
341.0431678217108
 20
466.0444334660193
 30
0.0
 11
342.2078535246721
 21
461.6977672477185
 31
0.0
  0
LINE
  5
308
330
301
100
AcDbEntity
  8
6
  6
Continuous
 62
     7
370
     9
100
AcDbLine
 10
341.0431678217108
 20
466.0444334660193
 30
0.0
 11
339.8784821187494
 21
461.6977672477185
 31
0.0
  0
LINE
  5
309
330
301
100
AcDbEntity
  8
6
  6
Continuous
 62
     7
370
     9
100
AcDbLine
 10
341.0431678217108
 20
319.0487921760409
 30
0.0
 11
339.8784821187494
 21
323.3954583943417
 31
0.0
  0
LINE
  5
30A
330
301
100
AcDbEntity
  8
6
  6
Continuous
 62
     7
370
     9
100
AcDbLine
 10
341.0431678217108
 20
319.0487921760409
 30
0.0
 11
342.2078535246721
 21
323.3954583943417
 31
0.0
  0
MTEXT
  5
30B
330
301
100
AcDbEntity
  8
6
  6
Continuous
 62
     7
370
     9
100
AcDbMText
 10
336.5431678217108
 20
392.5466128210302
 30
0.0
 40
9.0
 41
0.0
 71
     8
 72
     1
  1
147
 11
1.615544574432587E-15
 21
1.0
 31
0.0
 73
     1
 44
1.0
  0
ENDBLK
  5
303
330
301
100
AcDbEntity
  8
0
100
AcDbBlockEnd
  0
BLOCK
  5
337
330
336
100
AcDbEntity
  8
0
100
AcDbBlockBegin
  2
Dim21
 70
     0
 71
     0
 10
0.0
 20
0.0
 30
0.0
  3
Dim21
  1

  0
LINE
  5
339
330
336
100
AcDbEntity
  8
6
  6
Continuous
 62
     7
370
     9
100
AcDbLine
 10
341.0431678217114
 20
242.8703383717208
 30
0.0
 11
341.0431678217112
 21
114.0750030569207
 31
0.0
  0
LINE
  5
33A
330
336
100
AcDbEntity
  8
6
  6
Continuous
 62
     7
370
     9
100
AcDbLine
 10
338.0431678217114
 20
242.8703383717208
 30
0.0
 11
365.8357554791114
 21
242.8703383717208
 31
0.0
  0
LINE
  5
33B
330
336
100
AcDbEntity
  8
6
  6
Continuous
 62
     7
370
     9
100
AcDbLine
 10
338.0431678217112
 20
114.0750030569207
 30
0.0
 11
365.8357554791112
 21
114.0750030569207
 31
0.0
  0
LINE
  5
33C
330
336
100
AcDbEntity
  8
6
  6
Continuous
 62
     7
370
     9
100
AcDbLine
 10
341.0431678217114
 20
242.8703383717208
 30
0.0
 11
342.2078535246728
 21
238.52367215342
 31
0.0
  0
LINE
  5
33D
330
336
100
AcDbEntity
  8
6
  6
Continuous
 62
     7
370
     9
100
AcDbLine
 10
341.0431678217114
 20
242.8703383717208
 30
0.0
 11
339.8784821187501
 21
238.52367215342
 31
0.0
  0
LINE
  5
33E
330
336
100
AcDbEntity
  8
6
  6
Continuous
 62
     7
370
     9
100
AcDbLine
 10
341.0431678217112
 20
114.0750030569207
 30
0.0
 11
339.8784821187499
 21
118.4216692752215
 31
0.0
  0
LINE
  5
33F
330
336
100
AcDbEntity
  8
6
  6
Continuous
 62
     7
370
     9
100
AcDbLine
 10
341.0431678217112
 20
114.0750030569207
 30
0.0
 11
342.2078535246726
 21
118.4216692752215
 31
0.0
  0
MTEXT
  5
340
330
336
100
AcDbEntity
  8
6
  6
Continuous
 62
     7
370
     9
100
AcDbMText
 10
336.5431678217113
 20
178.4726707143207
 30
0.0
 40
9.0
 41
0.0
 71
     8
 72
     1
  1
130
 11
1.393499969507555E-15
 21
1.0
 31
0.0
 73
     1
 44
1.0
  0
ENDBLK
  5
338
330
336
100
AcDbEntity
  8
0
100
AcDbBlockEnd
  0
BLOCK
  5
353
330
352
100
AcDbEntity
  8
0
100
AcDbBlockBegin
  2
Dim22
 70
     0
 71
     0
 10
0.0
 20
0.0
 30
0.0
  3
Dim22
  1

  0
LINE
  5
355
330
352
100
AcDbEntity
  8
6
  6
Continuous
 62
     7
370
     9
100
AcDbLine
 10
529.0459154791114
 20
113.2353119739204
 30
0.0
 11
529.0459154791116
 21
281.546997684449
 31
0.0
  0
LINE
  5
356
330
352
100
AcDbEntity
  8
6
  6
Continuous
 62
     7
370
     9
100
AcDbLine
 10
532.0459154791114
 20
113.2353119739203
 30
0.0
 11
504.143263036062
 21
113.2353119739206
 31
0.0
  0
LINE
  5
357
330
352
100
AcDbEntity
  8
6
  6
Continuous
 62
     7
370
     9
100
AcDbLine
 10
532.0459154791116
 20
281.546997684449
 30
0.0
 11
471.9002970191775
 21
281.5469976844498
 31
0.0
  0
LINE
  5
358
330
352
100
AcDbEntity
  8
6
  6
Continuous
 62
     7
370
     9
100
AcDbLine
 10
529.0459154791114
 20
113.2353119739204
 30
0.0
 11
527.4930012084963
 21
119.0308669316548
 31
0.0
  0
LINE
  5
359
330
352
100
AcDbEntity
  8
6
  6
Continuous
 62
     7
370
     9
100
AcDbLine
 10
529.0459154791114
 20
113.2353119739204
 30
0.0
 11
530.5988297497265
 21
119.0308669316548
 31
0.0
  0
LINE
  5
35A
330
352
100
AcDbEntity
  8
6
  6
Continuous
 62
     7
370
     9
100
AcDbLine
 10
529.0459154791116
 20
281.546997684449
 30
0.0
 11
530.5988297497267
 21
275.7514427267146
 31
0.0
  0
LINE
  5
35B
330
352
100
AcDbEntity
  8
6
  6
Continuous
 62
     7
370
     9
100
AcDbLine
 10
529.0459154791116
 20
281.546997684449
 30
0.0
 11
527.4930012084965
 21
275.7514427267146
 31
0.0
  0
MTEXT
  5
35C
330
352
100
AcDbEntity
  8
6
  6
Continuous
 62
     7
370
     9
100
AcDbMText
 10
524.5459154791115
 20
197.3911548291849
 30
0.0
 40
9.0
 41
0.0
 71
     8
 72
     1
  1
(169)
 11
1.615544574432587E-15
 21
1.0
 31
0.0
 73
     1
 44
1.0
  0
ENDBLK
  5
354
330
352
100
AcDbEntity
  8
0
100
AcDbBlockEnd
  0
ENDSEC
  0
SECTION
  2
ENTITIES
  0
INSERT
  5
9C
330
1F
100
AcDbEntity
  8
0
100
AcDbBlockReference
  2
*G12
 10
0.0
 20
0.0
 30
0.0
  0
LINE
  5
9D
330
1F
100
AcDbEntity
  8
8
  6
Continuous
 62
   171
370
    18
100
AcDbLine
 10
711.0
 20
108.0
 30
0.0
 11
711.0
 21
60.0
 31
0.0
  0
TEXT
  5
9E
330
1F
100
AcDbEntity
  8
8
  6
Continuous
 62
   171
370
     9
100
AcDbText
 10
562.5
 20
58.5
 30
0.0
 40
10.5
  1
備考
 50
-0.0000000000000891
  7
T_STANDARD
100
AcDbText
  0
TEXT
  5
9F
330
1F
100
AcDbEntity
  8
8
  6
Continuous
 62
   171
370
     9
100
AcDbText
 10
562.5
 20
82.5
 30
0.0
 40
10.5
  1
品番
 50
-0.0000000000000891
  7
T_STANDARD
100
AcDbText
  0
TEXT
  5
A0
330
1F
100
AcDbEntity
  8
8
  6
Continuous
 62
   171
370
     9
100
AcDbText
 10
562.5
 20
106.5
 30
0.0
 40
10.5
  1
品名
 50
-0.0000000000000891
  7
T_STANDARD
100
AcDbText
  0
LINE
  5
A1
330
1F
100
AcDbEntity
  8
8
  6
Continuous
 62
   171
370
    18
100
AcDbLine
 10
711.0
 20
84.0
 30
0.0
 11
555.0
 21
84.0
 31
0.0
  0
LINE
  5
A2
330
1F
100
AcDbEntity
  8
8
  6
Continuous
 62
   171
370
    18
100
AcDbLine
 10
570.0
 20
108.0
 30
0.0
 11
570.0
 21
36.0
 31
0.0
  0
LINE
  5
A3
330
1F
100
AcDbEntity
  8
9
  6
Continuous
 62
   170
370
    30
100
AcDbLine
 10
855.0
 20
108.0
 30
0.0
 11
555.0
 21
108.0
 31
0.0
  0
LINE
  5
A4
330
1F
100
AcDbEntity
  8
9
  6
Continuous
 62
   170
370
    30
100
AcDbLine
 10
555.0
 20
108.0
 30
0.0
 11
555.0
 21
36.0
 31
0.0
  0
LINE
  5
A5
330
1F
100
AcDbEntity
  8
8
  6
Continuous
 62
   171
370
    18
100
AcDbLine
 10
747.0
 20
108.0
 30
0.0
 11
747.0
 21
36.0
 31
0.0
  0
TEXT
  5
A6
330
1F
100
AcDbEntity
  8
8
  6
Continuous
 62
   171
370
     9
100
AcDbText
 10
715.5
 20
96.0
 30
0.0
 40
9.0
  1
縮　尺
100
AcDbText
  0
LINE
  5
A7
330
1F
100
AcDbEntity
  8
8
  6
Continuous
 62
   171
370
    18
100
AcDbLine
 10
711.0
 20
93.0
 30
0.0
 11
747.0
 21
93.0
 31
0.0
  0
LINE
  5
A8
330
1F
100
AcDbEntity
  8
8
  6
Continuous
 62
   171
370
    18
100
AcDbLine
 10
747.0
 20
60.0
 30
0.0
 11
555.0
 21
60.0
 31
0.0
  0
LINE
  5
A9
330
1F
100
AcDbEntity
  8
8
  6
Continuous
 62
   171
370
    18
100
AcDbLine
 10
855.0
 20
54.0
 30
0.0
 11
747.0
 21
54.0
 31
0.0
  0
LINE
  5
AA
330
1F
100
AcDbEntity
  8
8
  6
Continuous
 62
   171
370
    18
100
AcDbLine
 10
747.0
 20
72.0
 30
0.0
 11
855.0
 21
72.0
 31
0.0
  0
LINE
  5
AB
330
1F
100
AcDbEntity
  8
8
  6
Continuous
 62
   171
370
    18
100
AcDbLine
 10
855.0
 20
84.0
 30
0.0
 11
747.0
 21
84.0
 31
0.0
  0
TEXT
  5
AC
330
1F
100
AcDbEntity
  8
8
  6
Continuous
 62
   171
370
     9
100
AcDbText
 10
753.0
 20
88.5
 30
0.0
 40
15.0
  1
株式会社シマブン
 41
0.8
100
AcDbText
  0
TEXT
  5
AD
330
1F
100
AcDbEntity
  8
8
  6
Continuous
 62
   171
370
     9
100
AcDbText
 10
751.5
 20
35.99999999999998
 30
0.0
 40
9.0
  1
年月日
100
AcDbText
  0
TEXT
  5
AE
330
1F
100
AcDbEntity
  8
8
  6
Continuous
 62
   171
370
     9
100
AcDbText
 10
751.5
 20
45.0
 30
0.0
 40
9.0
  1
作　成
100
AcDbText
  0
TEXT
  5
AF
330
1F
100
AcDbEntity
  8
8
  6
Continuous
 62
   171
370
     9
100
AcDbText
 10
753.75
 20
73.5
 30
0.0
 40
9.0
  1
承 認
100
AcDbText
  0
LINE
  5
B0
330
1F
100
AcDbEntity
  8
8
  6
Continuous
 62
   171
370
    18
100
AcDbLine
 10
783.0
 20
84.0
 30
0.0
 11
783.0
 21
36.0
 31
0.0
  0
TEXT
  5
B1
330
1F
100
AcDbEntity
  8
8
  6
Continuous
 62
   171
370
     9
100
AcDbText
 10
789.75
 20
73.5
 30
0.0
 40
9.0
  1
検 図
100
AcDbText
  0
LINE
  5
B2
330
1F
100
AcDbEntity
  8
8
  6
Continuous
 62
   171
370
    18
100
AcDbLine
 10
819.0
 20
84.0
 30
0.0
 11
819.0
 21
54.0
 31
0.0
  0
TEXT
  5
B3
330
1F
100
AcDbEntity
  8
8
  6
Continuous
 62
   171
370
     9
100
AcDbText
 10
825.0
 20
57.00000000000001
 30
0.0
 40
12.0
  1
藤戸
100
AcDbText
  0
TEXT
  5
B4
330
1F
100
AcDbEntity
  8
8
  6
Continuous
 62
   171
370
     9
100
AcDbText
 10
825.75
 20
73.5
 30
0.0
 40
9.0
  1
設 計
100
AcDbText
  0
TEXT
  5
B5
330
1F
100
AcDbEntity
  8
8
  6
Continuous
 62
   171
370
     9
100
AcDbText
 10
753.0
 20
57.00000000000001
 30
0.0
 40
12.0
  1
隠塚
100
AcDbText
  0
TEXT
  5
B6
330
1F
100
AcDbEntity
  8
8
  6
Continuous
 62
   171
370
     9
100
AcDbText
 10
789.0
 20
57.00000000000001
 30
0.0
 40
12.0
  1
渋田
100
AcDbText
  0
TEXT
  5
B7
330
1F
100
AcDbEntity
  8
8
  6
Continuous
 62
   171
370
     9
100
AcDbText
 10
579.3
 20
90.0
 30
0.0
 40
12.0
  1
ペーパーホルダー「おくだけ」
 41
0.6000000000000001
100
AcDbText
  0
TEXT
  5
B8
330
1F
100
AcDbEntity
  8
8
  6
Continuous
 62
   171
370
     9
100
AcDbText
 10
786.0
 20
40.49999999999998
 30
0.0
 40
9.0
  1
２０１０年０３月０１日
 41
0.6666666666666666
100
AcDbText
  0
TEXT
  5
B9
330
1F
100
AcDbEntity
  8
8
  6
Continuous
 62
   171
370
     9
100
AcDbText
 10
576.3
 20
41.9999999999999
 30
0.0
 40
12.0
  1
色については品番表参照のこと
 41
0.5999999999999998
100
AcDbText
  0
TEXT
  5
BA
330
1F
100
AcDbEntity
  8
8
  6
Continuous
 62
   171
370
     9
100
AcDbText
 10
716.3999999999999
 20
70.5
 30
0.0
 40
12.0
  1
１：３
 41
0.7000000000000001
100
AcDbText
  0
TEXT
  5
BB
330
1F
100
AcDbEntity
  8
8
  6
Continuous
 62
   171
370
     9
100
AcDbText
 10
579.3
 20
66.0
 30
0.0
 40
12.0
  1
ＰＲ－１Ａ
 41
0.6000000000000001
100
AcDbText
  0
LINE
  5
BC
330
1F
100
AcDbEntity
  8
2
  6
Continuous
 62
    90
370
    18
100
AcDbLine
 10
683.8967942360318
 20
324.5341632724195
 30
0.0
 11
735.2503320870318
 21
375.8877011234193
 31
0.0
  0
ARC
  5
BD
330
1F
100
AcDbEntity
  8
2
  6
Continuous
 62
    90
370
    18
100
AcDbCircle
 10
705.8799760412318
 20
439.1335431982194
 30
0.0
 40
14.861
100
AcDbArc
 50
83.70364500000002
 51
90.99999999999972
  0
LINE
  5
BE
330
1F
100
AcDbEntity
  8
2
  6
HIDDEN
 62
    90
370
    18
100
AcDbLine
 10
709.7941999702317
 20
463.9739721962193
 30
0.0
 11
717.8169464866318
 21
464.1140103714193
 31
0.0
  0
LINE
  5
BF
330
1F
100
AcDbEntity
  8
2
  6
Continuous
 62
    90
370
    18
100
AcDbLine
 10
681.6807219160318
 20
453.5744078672193
 30
0.0
 11
705.6206159248317
 21
453.9922783818193
 31
0.0
  0
ARC
  5
C0
330
1F
100
AcDbEntity
  8
2
  6
Continuous
 62
    90
370
    18
100
AcDbCircle
 10
664.2679693280317
 20
435.4345511322196
 30
0.0
 40
17.8332
100
AcDbArc
 50
90.99999999999986
 51
112.1097480000002
  0
ARC
  5
C1
330
1F
100
AcDbEntity
  8
2
  6
Continuous
 62
    90
370
    18
100
AcDbCircle
 10
688.5359169396319
 20
375.6989604790193
 30
0.0
 40
82.3101243426
100
AcDbArc
 50
112.1097480000001
 51
155.306709
  0
ARC
  5
C2
330
1F
100
AcDbEntity
  8
2
  6
HIDDEN
 62
    90
370
    18
100
AcDbCircle
 10
705.8799760412318
 20
439.1335431982194
 30
0.0
 40
14.861
100
AcDbArc
 50
67.19062399999994
 51
83.70364500000002
  0
ARC
  5
C3
330
1F
100
AcDbEntity
  8
2
  6
HIDDEN
 62
    90
370
    18
100
AcDbCircle
 10
714.9057181974316
 20
460.5950979590194
 30
0.0
 40
8.4212323426
100
AcDbArc
 50
247.1906240000009
 51
271.0000000000006
  0
ARC
  5
C4
330
1F
100
AcDbEntity
  8
2
  6
HIDDEN
 62
    90
370
    18
100
AcDbCircle
 10
716.9214642374317
 20
458.6485150130194
 30
0.0
 40
6.4397676574
100
AcDbArc
 50
270.9999999999998
 51
1.000000000000121
  0
ARC
  5
C5
330
1F
100
AcDbEntity
  8
2
  6
HIDDEN
 62
    90
370
    18
100
AcDbCircle
 10
717.9120449978319
 20
458.6658072726194
 30
0.0
 40
5.4490323426
100
AcDbArc
 50
0.9999999999987155
 51
91.00000000000111
  0
CIRCLE
  5
C6
330
1F
100
AcDbEntity
  8
2
  6
Continuous
 62
    90
370
    18
100
AcDbCircle
 10
714.9402997444316
 20
458.6139334660194
 30
0.0
 40
2.37776
  0
LINE
  5
C7
330
1F
100
AcDbEntity
  8
2
  6
Continuous
 62
    90
370
    18
100
AcDbLine
 10
664.2831275480318
 20
463.1795744690195
 30
0.0
 11
709.7941999702317
 21
463.9739721962193
 31
0.0
  0
ARC
  5
C8
330
1F
100
AcDbEntity
  8
2
  6
Continuous
 62
    90
370
    18
100
AcDbCircle
 10
664.7672662338318
 20
435.4432656226194
 30
0.0
 40
27.7405323426
100
AcDbArc
 50
91.0000000000002
 51
115.7533320000001
  0
ARC
  5
C9
330
1F
100
AcDbEntity
  8
2
  6
Continuous
 62
    90
370
    18
100
AcDbCircle
 10
687.1517723162317
 20
389.0422749096193
 30
0.0
 40
79.25866765739998
100
AcDbArc
 50
115.7533319999999
 51
163.9999999999999
  0
LINE
  5
CA
330
1F
100
AcDbEntity
  8
2
  6
Continuous
 62
    90
370
    18
100
AcDbLine
 10
605.6153056892317
 20
392.2377198238192
 30
0.0
 11
610.9634526472317
 21
410.8889227634194
 31
0.0
  0
LINE
  5
CB
330
1F
100
AcDbEntity
  8
2
  6
Continuous
 62
    90
370
    18
100
AcDbLine
 10
605.6820315792319
 20
388.4150812656195
 30
0.0
 11
606.5850216056317
 21
388.4308428422195
 31
0.0
  0
LINE
  5
CC
330
1F
100
AcDbEntity
  8
2
  6
Continuous
 62
    90
370
    18
100
AcDbLine
 10
681.6807219160318
 20
453.5744078672193
 30
0.0
 11
663.9567383772318
 21
453.2650345414194
 31
0.0
  0
LINE
  5
CD
330
1F
100
AcDbEntity
  8
2
  6
Continuous
 62
    90
370
    18
100
AcDbLine
 10
605.6153056892317
 20
392.2377198238192
 30
0.0
 11
605.6820315792319
 21
388.4150812656195
 31
0.0
  0
LINE
  5
CE
330
1F
100
AcDbEntity
  8
2
  6
Continuous
 62
    90
370
    18
100
AcDbLine
 10
714.9402997444316
 20
466.0444334660193
 30
0.0
 11
735.2503320870318
 21
466.0444334660193
 31
0.0
  0
LINE
  5
CF
330
1F
100
AcDbEntity
  8
2
  6
Continuous
 62
    90
370
    18
100
AcDbLine
 10
606.4549997444317
 20
347.8364193264196
 30
0.0
 11
606.4549997444317
 21
350.2391993060193
 31
0.0
  0
ARC
  5
D0
330
1F
100
AcDbEntity
  8
2
  6
Continuous
 62
    90
370
    18
100
AcDbCircle
 10
609.4271997444317
 20
347.8364193264196
 30
0.0
 40
2.9722
100
AcDbArc
 50
179.9999999999998
 51
246.5000000000014
  0
ARC
  5
D1
330
1F
100
AcDbEntity
  8
2
  6
Continuous
 62
    90
370
    18
100
AcDbCircle
 10
609.4271997444317
 20
350.2391993060193
 30
0.0
 40
2.9722
100
AcDbArc
 50
98.00000000000077
 51
179.9999999999998
  0
ARC
  5
D2
330
1F
100
AcDbEntity
  8
2
  6
Continuous
 62
    90
370
    18
100
AcDbCircle
 10
638.8449772412317
 20
339.3665528752193
 30
0.0
 40
17.8332
100
AcDbArc
 50
66.4999999999999
 51
97.99999999999989
  0
LINE
  5
D3
330
1F
100
AcDbEntity
  8
2
  6
Continuous
 62
    90
370
    18
100
AcDbLine
 10
609.0135497538319
 20
353.1824738556194
 30
0.0
 11
636.3630743254317
 21
357.0262001728194
 31
0.0
  0
ARC
  5
D4
330
1F
100
AcDbEntity
  8
2
  6
Continuous
 62
    90
370
    18
100
AcDbCircle
 10
662.7681912636318
 20
367.8565521976194
 30
0.0
 40
17.8332
100
AcDbArc
 50
246.4999999999998
 51
314.9999999999991
  0
LINE
  5
D5
330
1F
100
AcDbEntity
  8
2
  6
Continuous
 62
    90
370
    18
100
AcDbLine
 10
645.9559479080318
 20
355.7206672672193
 30
0.0
 11
655.6572176246318
 21
351.5024348334194
 31
0.0
  0
ARC
  5
D6
330
1F
100
AcDbEntity
  8
2
  6
Continuous
 62
    90
370
    18
100
AcDbCircle
 10
689.6765997444317
 20
394.7649606784192
 30
0.0
 40
17.8332
100
AcDbArc
 50
315.0000000000002
 51
0.0000000000007305
  0
LINE
  5
D7
330
1F
100
AcDbEntity
  8
2
  6
Continuous
 62
    90
370
    18
100
AcDbLine
 10
675.3781658716317
 20
355.2465746174195
 30
0.0
 11
702.2865743524316
 21
382.1549830982195
 31
0.0
  0
LINE
  5
D8
330
1F
100
AcDbEntity
  8
2
  6
Continuous
 62
    90
370
    18
100
AcDbLine
 10
608.2420379666318
 20
345.1107335944195
 30
0.0
 11
664.1758430168318
 21
320.7900234884193
 31
0.0
  0
ARC
  5
D9
330
1F
100
AcDbEntity
  8
2
  6
Continuous
 62
    90
370
    18
100
AcDbCircle
 10
714.9402997444316
 20
458.6139334660194
 30
0.0
 40
7.4305
100
AcDbArc
 50
89.99999999999991
 51
179.9999999999998
  0
LINE
  5
DA
330
1F
100
AcDbEntity
  8
2
  6
Continuous
 62
    90
370
    18
100
AcDbLine
 10
707.5097997444317
 20
394.7649606784192
 30
0.0
 11
707.5097997444317
 21
458.6139334660194
 31
0.0
  0
CIRCLE
  5
DB
330
1F
100
AcDbEntity
  8
7
  6
HIDDEN
 62
   132
370
     9
100
AcDbCircle
 10
669.4109245146317
 20
397.9442873520194
 30
0.0
 40
56.96716765739993
  0
LINE
  5
DC
330
1F
100
AcDbEntity
  8
7
  6
Continuous
 62
   132
370
     9
100
AcDbLine
 10
735.2503320870318
 20
443.3151169888193
 30
0.0
 11
735.2527484856317
 21
443.3192691522194
 31
0.0
  0
LINE
  5
DD
330
1F
100
AcDbEntity
  8
7
  6
Continuous
 62
   132
370
     9
100
AcDbLine
 10
735.2556790748316
 20
398.3151199610194
 30
0.0
 11
735.2580925012318
 21
398.3192721244194
 31
0.0
  0
LINE
  5
DE
330
1F
100
AcDbEntity
  8
1
  6
DASHDOT
 62
    45
370
     9
100
AcDbLine
 10
675.3194545694714
 20
475.3491716837444
 30
0.0
 11
675.3194545694714
 21
309.1093339360123
 31
0.0
  0
ARC
  5
DF
330
1F
100
AcDbEntity
  8
2
  6
Continuous
 62
    90
370
    18
100
AcDbCircle
 10
671.2868166558318
 20
337.1441399226754
 30
0.0
 40
17.8332
100
AcDbArc
 50
246.4999999999998
 51
314.9999999999997
  0
LINE
  5
E0
330
1F
100
AcDbEntity
  8
1
  6
Continuous
 62
    45
370
     9
100
AcDbLine
 10
730.296664429632
 20
377.9395772266195
 30
0.0
 11
730.296664429632
 21
450.1927011234194
 31
0.0
  0
LINE
  5
E1
330
1F
100
AcDbEntity
  8
1
  6
Continuous
 62
    45
370
     9
100
AcDbLine
 10
712.4634644296319
 20
394.7649606784192
 30
0.0
 11
712.4634644296319
 21
450.1927011234194
 31
0.0
  0
LINE
  5
E2
330
1F
100
AcDbEntity
  8
1
  6
Continuous
 62
    45
370
     9
100
AcDbLine
 10
717.4171320870317
 20
455.1463687808197
 30
0.0
 11
725.3429997444317
 21
455.1463687808197
 31
0.0
  0
ARC
  5
E3
330
1F
100
AcDbEntity
  8
1
  6
Continuous
 62
    45
370
     9
100
AcDbCircle
 10
725.3429997444317
 20
450.1927011234194
 30
0.0
 40
4.9536676574
100
AcDbArc
 50
0.0
 51
89.99999999999991
  0
ARC
  5
E4
330
1F
100
AcDbEntity
  8
1
  6
Continuous
 62
    45
370
     9
100
AcDbCircle
 10
717.4171320870317
 20
450.1927011234194
 30
0.0
 40
4.9536676574
100
AcDbArc
 50
89.99999999999991
 51
179.9999999999998
  0
LINE
  5
E5
330
1F
100
AcDbEntity
  8
1
  6
Continuous
 62
    45
370
     9
100
AcDbLine
 10
680.3940208696317
 20
328.0369336666196
 30
0.0
 11
730.296664429632
 21
377.9395772266195
 31
0.0
  0
LINE
  5
E6
330
1F
100
AcDbEntity
  8
1
  6
Continuous
 62
    45
370
     9
100
AcDbLine
 10
678.8809392380317
 20
351.7438042232194
 30
0.0
 11
705.7893477188317
 21
378.6522127040195
 31
0.0
  0
ARC
  5
E7
330
1F
100
AcDbEntity
  8
1
  6
Continuous
 62
    45
370
     9
100
AcDbCircle
 10
689.6765997444317
 20
394.7649606784192
 30
0.0
 40
22.7868676574
100
AcDbArc
 50
314.9999999999997
 51
0.0000000000005717
  0
LINE
  5
E8
330
1F
100
AcDbEntity
  8
1
  6
Continuous
 62
    45
370
     9
100
AcDbLine
 10
612.4841609440318
 20
348.6678893042196
 30
0.0
 11
666.1511136372318
 21
325.3328320510194
 31
0.0
  0
ARC
  5
E9
330
1F
100
AcDbEntity
  8
1
  6
Continuous
 62
    45
370
     9
100
AcDbCircle
 10
671.2868166558318
 20
337.1441378804194
 30
0.0
 40
12.8795323426
100
AcDbArc
 50
246.4999999999995
 51
315.0
  0
LINE
  5
EA
330
1F
100
AcDbEntity
  8
1
  6
Continuous
 62
    45
370
     9
100
AcDbLine
 10
643.9806802598317
 20
351.1778587046193
 30
0.0
 11
653.6819499764318
 21
346.9596262708195
 31
0.0
  0
ARC
  5
EB
330
1F
100
AcDbEntity
  8
1
  6
Continuous
 62
    45
370
     9
100
AcDbCircle
 10
662.7681912636318
 20
367.8565521976194
 30
0.0
 40
22.7868676574
100
AcDbArc
 50
246.4999999999995
 51
314.9999999999994
  0
LINE
  5
EC
330
1F
100
AcDbEntity
  8
1
  6
Continuous
 62
    45
370
     9
100
AcDbLine
 10
612.4841609440318
 20
348.6678893042196
 30
0.0
 11
637.0524939486318
 21
352.1207415994196
 31
0.0
  0
ARC
  5
ED
330
1F
100
AcDbEntity
  8
1
  6
Continuous
 62
    45
370
     9
100
AcDbCircle
 10
638.8449772412317
 20
339.3665528752193
 30
0.0
 40
12.8795323426
100
AcDbArc
 50
66.49999999999984
 51
97.99999999999963
  0
LINE
  5
EE
330
1F
100
AcDbEntity
  8
2
  6
HIDDEN
 62
    90
370
    18
100
AcDbLine
 10
715.0526889669776
 20
452.1751482108942
 30
0.0
 11
717.0338536799503
 21
452.1751482108942
 31
0.0
  0
LINE
  5
EF
330
1F
100
AcDbEntity
  8
1
  6
HIDDEN
 62
    45
370
     9
100
AcDbLine
 10
664.3177090950318
 20
461.1984099760194
 30
0.0
 11
708.3090005468317
 21
461.9662808182194
 31
0.0
  0
ARC
  5
F0
330
1F
100
AcDbEntity
  8
1
  6
HIDDEN
 62
    45
370
     9
100
AcDbCircle
 10
687.1517723162317
 20
389.0422749096193
 30
0.0
 40
77.2772
100
AcDbArc
 50
115.753332
 51
163.9999999999999
  0
ARC
  5
F1
330
1F
100
AcDbEntity
  8
1
  6
HIDDEN
 62
    45
370
     9
100
AcDbCircle
 10
664.7672662338318
 20
435.4432656226194
 30
0.0
 40
25.7590676574
100
AcDbArc
 50
91.00000000000021
 51
115.7533319999999
  0
LINE
  5
F2
330
1F
100
AcDbEntity
  8
1
  6
HIDDEN
 62
    45
370
     9
100
AcDbLine
 10
609.9912237604058
 20
400.3096846186197
 30
0.0
 11
612.8681602674317
 21
410.3427572358192
 31
0.0
  0
ARC
  5
F3
330
1F
100
AcDbEntity
  8
2
  6
Continuous
 62
    90
370
    18
100
AcDbCircle
 10
688.5359169396319
 20
375.6989604790193
 30
0.0
 40
82.3101243426
100
AcDbArc
 50
155.306709
 51
162.6024515037577
  0
LINE
  5
F4
330
1F
100
AcDbEntity
  8
2
  6
Continuous
 62
    90
370
    18
100
AcDbLine
 10
606.5850216056317
 20
388.4308428422195
 30
0.0
 11
609.9912237604058
 21
400.3096846186197
 31
0.0
  0
CIRCLE
  5
F5
330
1F
100
AcDbEntity
  8
1
  6
HIDDEN
 62
    45
370
     9
100
AcDbCircle
 10
714.9402997444316
 20
458.6139334660194
 30
0.0
 40
2.4768323426
  0
CIRCLE
  5
F6
330
1F
100
AcDbEntity
  8
1
  6
HIDDEN
 62
    45
370
     9
100
AcDbCircle
 10
714.9402997444316
 20
458.6139334660194
 30
0.0
 40
3.9629323426
  0
CIRCLE
  5
F7
330
1F
100
AcDbEntity
  8
1
  6
HIDDEN
 62
    45
370
     9
100
AcDbCircle
 10
714.9402997444316
 20
458.6139334660194
 30
0.0
 40
3.9629323426
  0
ARC
  5
F8
330
1F
100
AcDbEntity
  8
1
  6
HIDDEN
 62
    45
370
     9
100
AcDbCircle
 10
717.9120449978319
 20
458.6658072726194
 30
0.0
 40
3.4675676574
100
AcDbArc
 50
0.9999999999997671
 51
91.00000000000354
  0
LINE
  5
F9
330
1F
100
AcDbEntity
  8
1
  6
HIDDEN
 62
    45
370
     9
100
AcDbLine
 10
721.3790836036318
 20
458.7263242368196
 30
0.0
 11
721.4309574102318
 21
455.7545760112195
 31
0.0
  0
ARC
  5
FA
330
1F
100
AcDbEntity
  8
1
  6
HIDDEN
 62
    45
370
     9
100
AcDbCircle
 10
721.9262477904316
 20
455.7632221410196
 30
0.0
 40
0.4953676574
100
AcDbArc
 50
180.9999999999948
 51
270.9999999999943
  0
LINE
  5
FB
330
1F
100
AcDbEntity
  8
1
  6
HIDDEN
 62
    45
370
     9
100
AcDbLine
 10
708.3090005468317
 20
461.9662808182194
 30
0.0
 11
712.9615278724317
 21
462.0474902388193
 31
0.0
  0
LINE
  5
FC
330
1F
100
AcDbEntity
  8
1
  6
HIDDEN
 62
    45
370
     9
100
AcDbLine
 10
716.7980347158317
 20
462.1144568770193
 30
0.0
 11
717.8515280336318
 21
462.1328458784195
 31
0.0
  0
LINE
  5
FD
330
1F
100
AcDbEntity
  8
1
  6
HIDDEN
 62
    45
370
     9
100
AcDbLine
 10
721.9348939202317
 20
455.2679317608196
 30
0.0
 11
722.4076253024317
 21
455.2761825880194
 31
0.0
  0
LINE
  5
FE
330
1F
100
AcDbEntity
  8
2
  6
Continuous
 62
    90
370
    18
100
AcDbLine
 10
735.2503320870318
 20
451.0444334660193
 30
0.0
 11
736.4503320870318
 21
451.0444334660193
 31
0.0
  0
LINE
  5
FF
330
1F
100
AcDbEntity
  8
2
  6
Continuous
 62
    90
370
    18
100
AcDbLine
 10
736.4503320870318
 20
451.0444334660193
 30
0.0
 11
736.4503320870318
 21
374.5444334660193
 31
0.0
  0
LINE
  5
100
330
1F
100
AcDbEntity
  8
2
  6
Continuous
 62
    90
370
    18
100
AcDbLine
 10
736.4503320870318
 20
374.5444334660193
 30
0.0
 11
701.0949930277044
 21
339.1890944066919
 31
0.0
  0
LINE
  5
101
330
1F
100
AcDbEntity
  8
2
  6
Continuous
 62
    90
370
    18
100
AcDbLine
 10
700.2464648902805
 20
340.0376225441158
 30
0.0
 11
701.0949930277044
 21
339.1890944066919
 31
0.0
  0
LINE
  5
102
330
1F
100
AcDbEntity
  8
2
  6
Continuous
 62
    90
370
    18
100
AcDbLine
 10
735.2503320870318
 20
375.041489740867
 30
0.0
 11
735.2503320870318
 21
466.0444334660193
 31
0.0
  0
LINE
  5
103
330
1F
100
AcDbEntity
  8
2
  6
Continuous
 62
    90
370
    18
100
AcDbLine
 10
700.2464648902805
 20
340.0376225441158
 30
0.0
 11
735.2503320870318
 21
375.0414897408669
 31
0.0
  0
LINE
  5
104
330
1F
100
AcDbEntity
  8
2
  6
Continuous
 62
    90
370
    18
100
AcDbLine
 10
773.0784632623369
 20
336.2192458355503
 30
0.0
 11
736.450331996874
 21
372.8473771010136
 31
0.0
  0
LINE
  5
105
330
1F
100
AcDbEntity
  8
2
  6
Continuous
 62
    90
370
    18
100
AcDbLine
 10
736.450331996874
 20
372.8473771010136
 30
0.0
 11
707.7417966807
 21
344.13884178484
 31
0.0
  0
LINE
  5
106
330
1F
100
AcDbEntity
  8
2
  6
Continuous
 62
    90
370
    18
100
AcDbLine
 10
707.7417966807
 20
344.13884178484
 30
0.0
 11
744.3699279461629
 21
307.5107105193766
 31
0.0
  0
LINE
  5
107
330
1F
100
AcDbEntity
  8
2
  6
Continuous
 62
    90
370
    18
100
AcDbLine
 10
773.0784632623369
 20
336.2192458355503
 30
0.0
 11
773.9269913997607
 21
337.0677739729741
 31
0.0
  0
LINE
  5
108
330
1F
100
AcDbEntity
  8
2
  6
Continuous
 62
    90
370
    18
100
AcDbLine
 10
744.3699279461629
 20
307.5107105193766
 30
0.0
 11
743.521399808739
 21
306.6621823819528
 31
0.0
  0
LINE
  5
109
330
1F
100
AcDbEntity
  8
1
  6
DASHDOT
 62
    45
370
     9
100
AcDbLine
 10
729.4080722385386
 20
371.6871981975851
 30
0.0
 11
735.5984865679411
 21
365.4967838681825
 31
0.0
  0
LINE
  5
10A
330
1F
100
AcDbEntity
  8
1
  6
DASHDOT
 62
    45
370
     9
100
AcDbLine
 10
708.9019755841286
 20
351.1811015431753
 30
0.0
 11
715.0923899135311
 21
344.9906872137728
 31
0.0
  0
LINE
  5
10B
330
1F
100
AcDbEntity
  8
2
  6
Continuous
 62
    90
370
    18
100
AcDbLine
 10
741.0465260745865
 20
368.2511830233011
 30
0.0
 11
739.6323125122134
 21
366.836969460928
 31
0.0
  0
LINE
  5
10C
330
1F
100
AcDbEntity
  8
2
  6
Continuous
 62
    90
370
    18
100
AcDbLine
 10
739.6323125122134
 20
366.836969460928
 30
0.0
 11
757.309982041877
 21
349.1592999312642
 31
0.0
  0
LINE
  5
10D
330
1F
100
AcDbEntity
  8
2
  6
Continuous
 62
    90
370
    18
100
AcDbLine
 10
757.309982041877
 20
349.1592999312642
 30
0.0
 11
758.7241956042501
 21
350.5735134936373
 31
0.0
  0
LINE
  5
10E
330
1F
100
AcDbEntity
  8
2
  6
Continuous
 62
    90
370
    18
100
AcDbLine
 10
712.3379907584124
 20
339.5426477071274
 30
0.0
 11
713.7522043207855
 21
340.9568612695005
 31
0.0
  0
LINE
  5
10F
330
1F
100
AcDbEntity
  8
2
  6
Continuous
 62
    90
370
    18
100
AcDbLine
 10
713.7522043207855
 20
340.9568612695005
 30
0.0
 11
731.4298738504491
 21
323.2791917398367
 31
0.0
  0
LINE
  5
110
330
1F
100
AcDbEntity
  8
2
  6
Continuous
 62
    90
370
    18
100
AcDbLine
 10
731.4298738504491
 20
323.2791917398367
 30
0.0
 11
730.015660288076
 21
321.8649781774636
 31
0.0
  0
LINE
  5
111
330
1F
100
AcDbEntity
  8
1
  6
Continuous
 62
    45
370
     9
100
AcDbLine
 10
765.3002886692849
 20
343.9974204286024
 30
0.0
 11
736.5917533531109
 21
315.2888851124287
 31
0.0
  0
LINE
  5
112
330
1F
100
AcDbEntity
  8
2
  6
Continuous
 62
    90
370
    18
100
AcDbLine
 10
765.6538420598782
 20
343.6438670380091
 30
0.0
 11
736.9453067437041
 21
314.9353317218354
 31
0.0
  0
LINE
  5
113
330
1F
100
AcDbEntity
  8
1
  6
Continuous
 62
    45
370
     9
100
AcDbLine
 10
769.5429293564042
 20
339.754779741483
 30
0.0
 11
740.8343940402301
 21
311.0462444253094
 31
0.0
  0
LINE
  5
114
330
1F
100
AcDbEntity
  8
2
  6
Continuous
 62
    90
370
    18
100
AcDbLine
 10
769.1893759658109
 20
340.1083331320763
 30
0.0
 11
740.4808406496369
 21
311.3997978159026
 31
0.0
  0
LINE
  5
115
330
1F
100
AcDbEntity
  8
1
  6
DASHDOT
 62
    45
370
     9
100
AcDbLine
 10
772.8396708008444
 20
347.2941618730424
 30
0.0
 11
732.7844868667918
 21
307.2389779389904
 31
0.0
  0
LINE
  5
116
330
1F
100
AcDbEntity
  8
2
  6
Continuous
 62
    90
370
    18
100
AcDbLine
 10
739.8974775551579
 20
310.2861046355338
 30
0.0
 11
736.3619436492252
 21
306.7505707296011
 31
0.0
  0
LINE
  5
117
330
1F
100
AcDbEntity
  8
2
  6
Continuous
 62
    90
370
    18
100
AcDbLine
 10
735.8316135633353
 20
314.3519686273565
 30
0.0
 11
732.2960796574026
 21
310.8164347214238
 31
0.0
  0
ELLIPSE
  5
118
330
1F
100
AcDbEntity
  8
1
  6
Continuous
 62
    45
370
     9
100
AcDbEllipse
 10
734.6825650439072
 20
309.1370561161057
 30
0.0
 11
-2.032931995911305
 21
2.032931995911343
 31
0.0
210
0.0
220
0.0
230
1.0
 40
0.1739130434782609
 41
0.0
 42
3.14159265358979
  0
LINE
  5
119
330
1F
100
AcDbEntity
  8
2
  6
Continuous
 62
    90
370
    18
100
AcDbLine
 10
730.6167010520845
 20
313.2029201079284
 30
0.0
 11
733.7986815674241
 21
316.3849006232679
 31
0.0
  0
LINE
  5
11A
330
1F
100
AcDbEntity
  8
2
  6
Continuous
 62
    90
370
    18
100
AcDbLine
 10
734.3290116533138
 20
308.7835027255124
 30
0.0
 11
731.2796136594469
 21
311.8329007193795
 31
0.0
  0
ELLIPSE
  5
11B
330
1F
100
AcDbEntity
  8
1
  6
Continuous
 62
    45
370
     9
100
AcDbEllipse
 10
731.6331670500401
 20
312.1864541099727
 30
0.0
 11
-1.016465997955615
 21
1.016465997955708
 31
0.0
210
0.0
220
0.0
230
1.0
 40
0.3478260869564822
 41
1.570796326794895
 42
3.14159265358979
  0
ELLIPSE
  5
11C
330
1F
100
AcDbEntity
  8
2
  6
Continuous
 62
    90
370
    18
100
AcDbEllipse
 10
731.6331670500401
 20
312.1864541099727
 30
0.0
 11
-1.016465997955615
 21
1.016465997955708
 31
0.0
210
0.0
220
0.0
230
1.0
 40
0.3478260869564822
 41
0.0
 42
1.570796326794895
  0
ELLIPSE
  5
11D
330
1F
100
AcDbEntity
  8
1
  6
Continuous
 62
    45
370
     9
100
AcDbEllipse
 10
737.7319630377741
 20
306.0876581222387
 30
0.0
 11
1.016465997955689
 21
-1.016465997955635
 31
0.0
210
0.0
220
0.0
230
1.0
 40
0.3478260869564822
 41
3.14159265358979
 42
4.712388980384691
  0
ELLIPSE
  5
11E
330
1F
100
AcDbEntity
  8
2
  6
Continuous
 62
    90
370
    18
100
AcDbEllipse
 10
737.7319630377741
 20
306.0876581222387
 30
0.0
 11
1.016465997955689
 21
-1.016465997955635
 31
0.0
210
0.0
220
0.0
230
1.0
 40
0.3478260869564822
 41
4.712388980384691
 42
6.283185307179586
  0
LINE
  5
11F
330
1F
100
AcDbEntity
  8
2
  6
Continuous
 62
    90
370
    18
100
AcDbLine
 10
738.7484290357298
 20
305.0711921242831
 30
0.0
 11
741.9304095510693
 21
308.2531726396225
 31
0.0
  0
LINE
  5
120
330
1F
100
AcDbEntity
  8
2
  6
Continuous
 62
    90
370
    18
100
AcDbLine
 10
734.3290116533138
 20
308.7835027255124
 30
0.0
 11
737.3784096471809
 21
305.7341047316455
 31
0.0
  0
LINE
  5
121
330
1F
100
AcDbEntity
  8
2
  6
Continuous
 62
    90
370
    18
100
AcDbLine
 10
773.9269913997607
 20
337.0677739729741
 30
0.0
 11
737.2988601342978
 21
373.6959052384375
 31
0.0
  0
ARC
  5
122
330
1F
100
AcDbEntity
  8
2
  6
Continuous
 62
    90
370
    18
100
AcDbCircle
 10
736.450331996874
 20
372.8473771010136
 30
0.0
 40
1.2
100
AcDbArc
 50
45.00000000000192
 51
134.9999999999981
  0
LINE
  5
123
330
1F
100
AcDbEntity
  8
2
  6
Continuous
 62
    90
370
    18
100
AcDbLine
 10
735.6018038594501
 20
373.6959052384375
 30
0.0
 11
706.8932685432761
 21
344.9873699222638
 31
0.0
  0
LINE
  5
124
330
1F
100
AcDbEntity
  8
2
  6
Continuous
 62
    90
370
    18
100
AcDbLine
 10
706.893268543276
 20
343.2903136474162
 30
0.0
 11
743.521399808739
 21
306.6621823819528
 31
0.0
  0
ARC
  5
125
330
1F
100
AcDbEntity
  8
2
  6
Continuous
 62
    90
370
    18
100
AcDbCircle
 10
707.7417966807
 20
344.13884178484
 30
0.0
 40
1.2
100
AcDbArc
 50
135.0
 51
224.9999999999958
  0
ELLIPSE
  5
126
330
1F
100
AcDbEntity
  8
2
  6
Continuous
 62
    90
370
    18
100
AcDbEllipse
 10
768.2701371762181
 20
342.7246282484163
 30
0.0
 11
3.712310601229353
 21
-3.712310601229396
 31
0.0
210
0.0
220
0.0
230
1.0
 40
0.7428571428571386
 41
0.0
 42
3.14159265358979
  0
CIRCLE
  5
127
330
1F
100
AcDbEntity
  8
1
  6
HIDDEN
 62
    45
370
     9
100
AcDbCircle
 10
735.5310930373616
 20
345.0580809280855
 30
0.0
 40
19.0
  0
LINE
  5
128
330
1F
100
AcDbEntity
  8
6
  6
Continuous
 62
     7
370
     9
100
AcDbLine
 10
630.6467834234638
 20
443.391762925552
 30
0.0
 11
626.7544506968093
 21
445.6500246342594
 31
0.0
  0
LINE
  5
129
330
1F
100
AcDbEntity
  8
6
  6
Continuous
 62
     7
370
     9
100
AcDbLine
 10
630.6467834234638
 20
443.391762925552
 30
0.0
 11
628.405055256553
 21
447.2936412970136
 31
0.0
  0
POLYLINE
  5
12A
330
1F
100
AcDbEntity
  8
6
  6
Continuous
 62
     7
370
     9
100
AcDb2dPolyline
 66
     1
 10
0.0
 20
0.0
 30
0.0
  0
VERTEX
  5
12C
330
12A
100
AcDbEntity
  8
6
  6
Continuous
 62
     7
370
     9
100
AcDbVertex
100
AcDb2dVertex
 10
630.6467834234638
 20
443.391762925552
 30
0.0
  0
VERTEX
  5
12D
330
12A
100
AcDbEntity
  8
6
  6
Continuous
 62
     7
370
     9
100
AcDbVertex
100
AcDb2dVertex
 10
595.955867332639
 20
478.2301687283112
 30
0.0
  0
VERTEX
  5
12E
330
12A
100
AcDbEntity
  8
6
  6
Continuous
 62
     7
370
     9
100
AcDbVertex
100
AcDb2dVertex
 10
559.9558673326391
 20
478.2301687283112
 30
0.0
  0
SEQEND
  5
12B
330
12A
100
AcDbEntity
  8
6
  6
Continuous
370
     9
  0
TEXT
  5
12F
330
1F
100
AcDbEntity
  8
6
  6
Continuous
 62
     7
370
     9
100
AcDbText
 10
559.955867332639
 20
478.2301687283112
 30
0.0
 40
9.0
  1
紙おさえ
100
AcDbText
  0
LINE
  5
130
330
1F
100
AcDbEntity
  8
2
  6
HIDDEN
 62
    90
370
    18
100
AcDbLine
 10
714.9402997444316
 20
511.0444334660193
 30
0.0
 11
735.2503320870318
 21
511.0444334660193
 31
0.0
  0
LINE
  5
131
330
1F
100
AcDbEntity
  8
2
  6
HIDDEN
 62
    90
370
    18
100
AcDbLine
 10
605.6153056892317
 20
437.2377198238192
 30
0.0
 11
605.6820315792319
 21
433.4150812656195
 31
0.0
  0
LINE
  5
132
330
1F
100
AcDbEntity
  8
2
  6
HIDDEN
 62
    90
370
    18
100
AcDbLine
 10
605.6153056892317
 20
437.2377198238192
 30
0.0
 11
610.9634526472317
 21
455.8889227634194
 31
0.0
  0
ARC
  5
133
330
1F
100
AcDbEntity
  8
2
  6
HIDDEN
 62
    90
370
    18
100
AcDbCircle
 10
687.1517723162317
 20
434.0422749096193
 30
0.0
 40
79.25866765739998
100
AcDbArc
 50
115.7533319999999
 51
163.9999999999999
  0
ARC
  5
134
330
1F
100
AcDbEntity
  8
2
  6
HIDDEN
 62
    90
370
    18
100
AcDbCircle
 10
664.7672662338318
 20
480.4432656226194
 30
0.0
 40
27.7405323426
100
AcDbArc
 50
91.0000000000002
 51
115.7533320000001
  0
LINE
  5
135
330
1F
100
AcDbEntity
  8
2
  6
HIDDEN
 62
    90
370
    18
100
AcDbLine
 10
664.2831275480318
 20
508.1795744690195
 30
0.0
 11
709.7941999702317
 21
508.9739721962193
 31
0.0
  0
LINE
  5
136
330
1F
100
AcDbEntity
  8
2
  6
HIDDEN
 62
    90
370
    18
100
AcDbLine
 10
714.9402997444316
 20
489.0444334660193
 30
0.0
 11
735.2503320870318
 21
489.0444334660193
 31
0.0
  0
LINE
  5
137
330
1F
100
AcDbEntity
  8
2
  6
HIDDEN
 62
    90
370
    18
100
AcDbLine
 10
605.6153056892317
 20
415.2377198238192
 30
0.0
 11
605.6820315792319
 21
411.4150812656195
 31
0.0
  0
LINE
  5
138
330
1F
100
AcDbEntity
  8
2
  6
HIDDEN
 62
    90
370
    18
100
AcDbLine
 10
605.6153056892317
 20
415.2377198238192
 30
0.0
 11
610.9634526472317
 21
433.8889227634194
 31
0.0
  0
ARC
  5
139
330
1F
100
AcDbEntity
  8
2
  6
HIDDEN
 62
    90
370
    18
100
AcDbCircle
 10
687.1517723162317
 20
412.0422749096193
 30
0.0
 40
79.25866765739998
100
AcDbArc
 50
115.7533319999999
 51
163.9999999999999
  0
ARC
  5
13A
330
1F
100
AcDbEntity
  8
2
  6
HIDDEN
 62
    90
370
    18
100
AcDbCircle
 10
664.7672662338318
 20
458.4432656226194
 30
0.0
 40
27.7405323426
100
AcDbArc
 50
91.0000000000002
 51
115.7533320000001
  0
LINE
  5
13B
330
1F
100
AcDbEntity
  8
2
  6
HIDDEN
 62
    90
370
    18
100
AcDbLine
 10
664.2831275480318
 20
486.1795744690195
 30
0.0
 11
709.7941999702317
 21
486.9739721962193
 31
0.0
  0
ARC
  5
13C
330
1F
100
AcDbEntity
  8
2
  6
HIDDEN
 62
    90
370
    18
100
AcDbCircle
 10
714.9402997444316
 20
481.6139334660194
 30
0.0
 40
7.4305
100
AcDbArc
 50
89.99999999999991
 51
133.833418291402
  0
ARC
  5
13D
330
1F
100
AcDbEntity
  8
2
  6
HIDDEN
 62
    90
370
    18
100
AcDbCircle
 10
714.9402997444316
 20
503.6139334660194
 30
0.0
 40
7.4305
100
AcDbArc
 50
89.99999999999991
 51
133.833418291402
  0
LINE
  5
13E
330
1F
100
AcDbEntity
  8
2
  6
HIDDEN
 62
    90
370
    18
100
AcDbLine
 10
735.2503320870318
 20
466.0444334660193
 30
0.0
 11
735.2503320870318
 21
511.0444334660193
 31
0.0
  0
DIMENSION
  5
14A
330
1F
100
AcDbEntity
  8
6
  6
Continuous
 62
     7
370
     9
100
AcDbDimension
  2
Dim1
 10
605.615305689232
 20
530.0444334660193
 30
0.0
 11
670.4328188881319
 21
534.5444334660193
 31
0.0
 70
   160
  1
<>
 71
     5
 42
-1.0
  3
Standard
100
AcDbAlignedDimension
 13
605.6153056892317
 23
396.0444334660193
 33
0.0
 14
735.2503320870318
 24
511.0444334660193
 34
0.0
100
AcDbRotatedDimension
1001
ACAD
1000
DSTYLE
1002
{
1070
   344
1005
3C
1070
   343
1005
3C
1070
   173
1070
     1
1070
   289
1070
     2
1070
   279
1070
     2
1070
   288
1070
     1
1070
    77
1070
     3
1070
   172
1070
     1
1070
   174
1070
     0
1070
    74
1070
     0
1070
    73
1070
     0
1070
   284
1070
     8
1070
    78
1070
     8
1070
   140
1040
3.0
1070
    40
1040
3.0
1070
    42
1040
2.0
1070
    44
1040
1.0
1070
    43
1040
10.0
1070
   271
1070
     2
1070
    41
1040
2.0
1002
}
  0
LINE
  5
14B
330
1F
100
AcDbEntity
  8
6
  6
Continuous
 62
     7
370
     9
100
AcDbLine
 10
728.8351849664313
 20
418.6952429144195
 30
0.0
 11
731.6293316494543
 21
422.222670350066
 31
0.0
  0
LINE
  5
14C
330
1F
100
AcDbEntity
  8
6
  6
Continuous
 62
     7
370
     9
100
AcDbLine
 10
728.8351849664313
 20
418.6952429144195
 30
0.0
 11
733.0187006936525
 21
420.353011342184
 31
0.0
  0
POLYLINE
  5
14D
330
1F
100
AcDbEntity
  8
6
  6
Continuous
 62
     7
370
     9
100
AcDb2dPolyline
 66
     1
 10
0.0
 20
0.0
 30
0.0
  0
VERTEX
  5
14F
330
14D
100
AcDbEntity
  8
6
  6
Continuous
 62
     7
370
     9
100
AcDbVertex
100
AcDb2dVertex
 10
728.8351849664313
 20
418.6952429144195
 30
0.0
  0
VERTEX
  5
150
330
14D
100
AcDbEntity
  8
6
  6
Continuous
 62
     7
370
     9
100
AcDbVertex
100
AcDb2dVertex
 10
760.6001991409952
 20
442.3002570889837
 30
0.0
  0
VERTEX
  5
151
330
14D
100
AcDbEntity
  8
6
  6
Continuous
 62
     7
370
     9
100
AcDbVertex
100
AcDb2dVertex
 10
787.6001991409951
 20
442.3002570889837
 30
0.0
  0
SEQEND
  5
14E
330
14D
100
AcDbEntity
  8
6
  6
Continuous
370
     9
  0
TEXT
  5
152
330
1F
100
AcDbEntity
  8
6
  6
Continuous
 62
     7
370
     9
100
AcDbText
 10
760.6001991409952
 20
442.3002570889836
 30
0.0
 40
9.0
  1
本　体
 50
0.0000000000001527
100
AcDbText
  0
DIMENSION
  5
15E
330
1F
100
AcDbEntity
  8
6
  6
Continuous
 62
     7
370
     9
100
AcDbDimension
  2
Dim2
 10
575.6153056892316
 20
466.0444334660198
 30
0.0
 11
571.1153056892317
 21
392.6776866943477
 31
0.0
 70
   160
  1
<>
 71
     5
 42
-1.0
  3
Standard
100
AcDbAlignedDimension
 13
714.9402997444316
 23
466.0444334660193
 33
0.0
 14
671.2868166558318
 24
319.3109399226755
 34
0.0
 50
89.99999999999991
100
AcDbRotatedDimension
1001
ACAD
1000
DSTYLE
1002
{
1070
   344
1005
3C
1070
   343
1005
3C
1070
   173
1070
     1
1070
   289
1070
     2
1070
   279
1070
     2
1070
   288
1070
     1
1070
    77
1070
     3
1070
   172
1070
     1
1070
   174
1070
     0
1070
    74
1070
     0
1070
    73
1070
     0
1070
   284
1070
     8
1070
    78
1070
     8
1070
   140
1040
3.0
1070
    40
1040
3.0
1070
    42
1040
2.0
1070
    44
1040
1.0
1070
    43
1040
10.0
1070
   271
1070
     2
1070
    41
1040
2.0
1002
}
  0
DIMENSION
  5
16A
330
1F
100
AcDbEntity
  8
6
  6
Continuous
 62
     7
370
     9
100
AcDbDimension
  2
Dim3
 10
575.6153056892317
 20
319.3109399226757
 30
0.0
 11
571.1153056892317
 21
312.1613713690561
 31
0.0
 70
   160
  1
<>
 71
     5
 42
-1.0
  3
Standard
100
AcDbAlignedDimension
 13
671.2868166558318
 23
319.3109399226755
 33
0.0
 14
738.5853073327476
 24
305.011802815436
 34
0.0
 50
89.99999999999991
100
AcDbRotatedDimension
1001
ACAD
1000
DSTYLE
1002
{
1070
   344
1005
3C
1070
   343
1005
3C
1070
   173
1070
     1
1070
   289
1070
     2
1070
   279
1070
     2
1070
   288
1070
     1
1070
    77
1070
     3
1070
   172
1070
     1
1070
   174
1070
     0
1070
    74
1070
     0
1070
    73
1070
     0
1070
   284
1070
     8
1070
    78
1070
     8
1070
   140
1040
3.0
1070
    40
1040
3.0
1070
    42
1040
2.0
1070
    44
1040
1.0
1070
    43
1040
10.0
1070
   271
1070
     2
1070
    41
1040
2.0
1002
}
  0
DIMENSION
  5
176
330
1F
100
AcDbEntity
  8
6
  6
Continuous
 62
     7
370
     9
100
AcDbDimension
  2
Dim4
 10
765.2503320870318
 20
466.0444334660192
 30
0.0
 11
760.7503320870318
 21
477.5444334660192
 31
0.0
 70
   160
  1
<>
 71
     5
 42
-1.0
  3
Standard
100
AcDbAlignedDimension
 13
735.2503320870318
 23
466.0444334660193
 33
0.0
 14
735.2503320870318
 24
489.0444334660193
 34
0.0
 50
89.99999999999991
100
AcDbRotatedDimension
1001
ACAD
1000
DSTYLE
1002
{
1070
   344
1005
3C
1070
   343
1005
3C
1070
   173
1070
     1
1070
   289
1070
     2
1070
   279
1070
     2
1070
   288
1070
     1
1070
    77
1070
     3
1070
   172
1070
     1
1070
   174
1070
     0
1070
    74
1070
     0
1070
    73
1070
     0
1070
   284
1070
     8
1070
    78
1070
     8
1070
   140
1040
3.0
1070
    40
1040
3.0
1070
    42
1040
2.0
1070
    44
1040
1.0
1070
    43
1040
10.0
1070
   271
1070
     2
1070
    41
1040
2.0
1002
}
  0
DIMENSION
  5
181
330
1F
100
AcDbEntity
  8
6
  6
Continuous
 62
     7
370
     9
100
AcDbDimension
  2
Dim5
 10
765.2503320870318
 20
489.0444334660192
 30
0.0
 11
760.7503320870318
 21
500.0444334660192
 31
0.0
 70
   160
  1
<>
 71
     5
 42
-1.0
  3
Standard
100
AcDbAlignedDimension
 13
735.2503320870318
 23
489.0444334660193
 33
0.0
 14
735.2503320870319
 24
511.0444334660193
 34
0.0
 50
89.99999999999991
100
AcDbRotatedDimension
1001
ACAD
1000
DSTYLE
1002
{
1070
   344
1005
3C
1070
   343
1005
3C
1070
   173
1070
     1
1070
   289
1070
     2
1070
   279
1070
     2
1070
   288
1070
     1
1070
    77
1070
     3
1070
   172
1070
     1
1070
   174
1070
     0
1070
    74
1070
     0
1070
    73
1070
     0
1070
   284
1070
     8
1070
    78
1070
     8
1070
   140
1040
3.0
1070
    40
1040
3.0
1070
    42
1040
2.0
1070
    44
1040
1.0
1070
    43
1040
10.0
1070
   271
1070
     2
1070
    41
1040
2.0
1002
}
  0
DIMENSION
  5
18D
330
1F
100
AcDbEntity
  8
6
  6
Continuous
 62
     7
370
     9
100
AcDbDimension
  2
Dim6
 10
756.3351810130403
 20
293.8484011776511
 30
0.0
 11
768.3559962932117
 21
312.2331774885013
 31
0.0
 70
   160
  1
<>
 71
     5
 42
-1.0
  3
Standard
100
AcDbAlignedDimension
 13
743.521399808739
 23
306.6621823819528
 33
0.0
 14
773.9269913997607
 24
337.0677739729741
 34
0.0
 50
44.99999999999995
100
AcDbRotatedDimension
1001
ACAD
1000
DSTYLE
1002
{
1070
   344
1005
3C
1070
   343
1005
3C
1070
   173
1070
     1
1070
   289
1070
     2
1070
   279
1070
     2
1070
   288
1070
     1
1070
    77
1070
     3
1070
   172
1070
     1
1070
   174
1070
     0
1070
    74
1070
     0
1070
    73
1070
     0
1070
   284
1070
     8
1070
    78
1070
     8
1070
   140
1040
3.0
1070
    40
1040
3.0
1070
    42
1040
2.0
1070
    44
1040
1.0
1070
    43
1040
10.0
1070
   271
1070
     2
1070
    41
1040
2.0
1002
}
  0
DIMENSION
  5
199
330
1F
100
AcDbEntity
  8
6
  6
Continuous
 62
     7
370
     9
100
AcDbDimension
  2
Dim7
 10
755.7135957439767
 20
393.8076971229636
 30
0.0
 11
777.6339059607596
 21
378.2513479368595
 31
0.0
 70
   160
  1
<>
 71
     5
 42
-1.0
  3
Standard
100
AcDbAlignedDimension
 13
736.4503320870318
 23
374.5444334660193
 33
0.0
 14
773.9269913997607
 24
337.0677739729741
 34
0.0
 50
-45.00000000000009
100
AcDbRotatedDimension
1001
ACAD
1000
DSTYLE
1002
{
1070
   344
1005
3C
1070
   343
1005
3C
1070
   173
1070
     1
1070
   289
1070
     2
1070
   279
1070
     2
1070
   288
1070
     1
1070
    77
1070
     3
1070
   172
1070
     1
1070
   174
1070
     0
1070
    74
1070
     0
1070
    73
1070
     0
1070
   284
1070
     8
1070
    78
1070
     8
1070
   140
1040
3.0
1070
    40
1040
3.0
1070
    42
1040
2.0
1070
    44
1040
1.0
1070
    43
1040
10.0
1070
   271
1070
     2
1070
    41
1040
2.0
1002
}
  0
LINE
  5
19A
330
1F
100
AcDbEntity
  8
6
  6
Continuous
 62
     7
370
     9
100
AcDbLine
 10
727.9605282794303
 20
322.6278671779535
 30
0.0
 11
725.5245087803222
 21
317.1446373815684
 31
0.0
  0
LINE
  5
19B
330
1F
100
AcDbEntity
  8
6
  6
Continuous
 62
     7
370
     9
100
AcDbLine
 10
727.9605282794303
 20
322.6278671779535
 30
0.0
 11
723.1092586108958
 21
319.0972606290503
 31
0.0
  0
POLYLINE
  5
19C
330
1F
100
AcDbEntity
  8
6
  6
Continuous
 62
     7
370
     9
100
AcDb2dPolyline
 66
     1
 10
0.0
 20
0.0
 30
0.0
  0
VERTEX
  5
19E
330
19C
100
AcDbEntity
  8
6
  6
Continuous
 62
     7
370
     9
100
AcDbVertex
100
AcDb2dVertex
 10
727.9605282794303
 20
322.6278671779535
 30
0.0
  0
VERTEX
  5
19F
330
19C
100
AcDbEntity
  8
6
  6
Continuous
 62
     7
370
     9
100
AcDbVertex
100
AcDb2dVertex
 10
700.5735024731893
 20
288.7521470133445
 30
0.0
  0
VERTEX
  5
1A0
330
19C
100
AcDbEntity
  8
6
  6
Continuous
 62
     7
370
     9
100
AcDbVertex
100
AcDb2dVertex
 10
664.5735024731894
 20
288.7521470133445
 30
0.0
  0
SEQEND
  5
19D
330
19C
100
AcDbEntity
  8
6
  6
Continuous
370
     9
  0
TEXT
  5
1A1
330
1F
100
AcDbEntity
  8
6
  6
Continuous
 62
     7
370
     9
100
AcDbText
 10
664.5735024731893
 20
288.7521470133445
 30
0.0
 40
9.0
  1
固定金具
100
AcDbText
  0
DIMENSION
  5
1AD
330
1F
100
AcDbEntity
  8
6
  6
Continuous
 62
     7
370
     9
100
AcDbDimension
  2
Dim8
 10
605.6153056892309
 20
272.8372565157753
 30
0.0
 11
689.7711485444954
 21
277.3372565157753
 31
0.0
 70
   160
  1
<>
 71
     5
 42
-1.0
  3
Standard
100
AcDbAlignedDimension
 13
605.6153056892317
 23
338.9225857338807
 33
0.0
 14
773.9269913997607
 24
337.0677739729741
 34
0.0
100
AcDbRotatedDimension
1001
ACAD
1000
DSTYLE
1002
{
1070
   344
1005
3C
1070
   343
1005
3C
1070
   173
1070
     1
1070
   289
1070
     2
1070
   279
1070
     2
1070
   288
1070
     1
1070
    77
1070
     3
1070
   172
1070
     1
1070
   174
1070
     0
1070
    74
1070
     0
1070
    73
1070
     0
1070
   284
1070
     8
1070
    78
1070
     8
1070
   140
1040
3.0
1070
    40
1040
3.0
1070
    42
1040
2.0
1070
    44
1040
1.0
1070
    43
1040
10.0
1070
   271
1070
     2
1070
    41
1040
2.0
1002
}
  0
LINE
  5
1AE
330
1F
100
AcDbEntity
  8
6
  6
Continuous
 62
     7
370
     9
100
AcDbLine
 10
737.3405282794301
 20
351.5921470133443
 30
0.0
 11
737.5088593753228
 21
357.5897852687041
 31
0.0
  0
LINE
  5
1AF
330
1F
100
AcDbEntity
  8
6
  6
Continuous
 62
     7
370
     9
100
AcDbLine
 10
737.3405282794301
 20
351.5921470133443
 30
0.0
 11
740.4851264124
 21
356.7020885572489
 31
0.0
  0
POLYLINE
  5
1B0
330
1F
100
AcDbEntity
  8
6
  6
Continuous
 62
     7
370
     9
100
AcDb2dPolyline
 66
     1
 10
0.0
 20
0.0
 30
0.0
  0
VERTEX
  5
1B2
330
1B0
100
AcDbEntity
  8
6
  6
Continuous
 62
     7
370
     9
100
AcDbVertex
100
AcDb2dVertex
 10
737.3405282794301
 20
351.5921470133443
 30
0.0
  0
VERTEX
  5
1B3
330
1B0
100
AcDbEntity
  8
6
  6
Continuous
 62
     7
370
     9
100
AcDbVertex
100
AcDb2dVertex
 10
754.3805282794297
 20
408.7238110798437
 30
0.0
  0
VERTEX
  5
1B4
330
1B0
100
AcDbEntity
  8
6
  6
Continuous
 62
     7
370
     9
100
AcDbVertex
100
AcDb2dVertex
 10
826.3805282794297
 20
408.7238110798437
 30
0.0
  0
SEQEND
  5
1B1
330
1B0
100
AcDbEntity
  8
6
  6
Continuous
370
     9
  0
TEXT
  5
1B5
330
1F
100
AcDbEntity
  8
6
  6
Continuous
 62
     7
370
     9
100
AcDbText
 10
754.3805282794297
 20
408.7238110798437
 30
0.0
 40
9.0
  1
手すりφ25～φ38
100
AcDbText
  0
CIRCLE
  5
1B6
330
1F
100
AcDbEntity
  8
1
  6
Continuous
 62
    45
370
     9
100
AcDbCircle
 10
212.9671195137671
 20
396.0444334660193
 30
0.0
 40
3.5
  0
CIRCLE
  5
1B7
330
1F
100
AcDbEntity
  8
1
  6
Continuous
 62
    45
370
     9
100
AcDbCircle
 10
212.9671195137671
 20
441.0444334660193
 30
0.0
 40
3.5
  0
CIRCLE
  5
1B8
330
1F
100
AcDbEntity
  8
1
  6
Continuous
 62
    45
370
     9
100
AcDbCircle
 10
116.9671195137671
 20
396.0444334660193
 30
0.0
 40
3.5
  0
CIRCLE
  5
1B9
330
1F
100
AcDbEntity
  8
1
  6
Continuous
 62
    45
370
     9
100
AcDbCircle
 10
116.9671195137671
 20
441.0444334660193
 30
0.0
 40
3.5
  0
LINE
  5
1BA
330
1F
100
AcDbEntity
  8
1
  6
DASHDOT
 62
    45
370
     9
100
AcDbLine
 10
221.5424633985672
 20
396.0444334660193
 30
0.0
 11
204.6160221745672
 21
396.0444334660193
 31
0.0
  0
LINE
  5
1BB
330
1F
100
AcDbEntity
  8
1
  6
DASHDOT
 62
    45
370
     9
100
AcDbLine
 10
108.3917756289673
 20
396.0444334660193
 30
0.0
 11
125.3182168529675
 21
396.0444334660193
 31
0.0
  0
LINE
  5
1BC
330
1F
100
AcDbEntity
  8
1
  6
DASHDOT
 62
    45
370
     9
100
AcDbLine
 10
221.6016993445671
 20
441.0444334660193
 30
0.0
 11
204.5499026133671
 21
441.0444334660193
 31
0.0
  0
LINE
  5
1BD
330
1F
100
AcDbEntity
  8
1
  6
DASHDOT
 62
    45
370
     9
100
AcDbLine
 10
108.3917756289673
 20
441.0444334660193
 30
0.0
 11
125.3182168529675
 21
441.0444334660193
 31
0.0
  0
CIRCLE
  5
1BE
330
1F
100
AcDbEntity
  8
2
  6
Continuous
 62
    90
370
    18
100
AcDbCircle
 10
212.9692000537671
 20
396.0444334660193
 30
0.0
 40
2.4768323426
  0
CIRCLE
  5
1BF
330
1F
100
AcDbEntity
  8
2
  6
Continuous
 62
    90
370
    18
100
AcDbCircle
 10
116.9692000537673
 20
396.0444334660193
 30
0.0
 40
2.4768323426
  0
CIRCLE
  5
1C0
330
1F
100
AcDbEntity
  8
2
  6
Continuous
 62
    90
370
    18
100
AcDbCircle
 10
212.9692000537671
 20
441.0444334660193
 30
0.0
 40
2.4768323426
  0
CIRCLE
  5
1C1
330
1F
100
AcDbEntity
  8
2
  6
Continuous
 62
    90
370
    18
100
AcDbCircle
 10
116.9692000537673
 20
441.0444334660193
 30
0.0
 40
2.4768323426
  0
LINE
  5
1C2
330
1F
100
AcDbEntity
  8
2
  6
Continuous
 62
    90
370
    18
100
AcDbLine
 10
103.7397995137671
 20
464.0629687808192
 30
0.0
 11
226.1944395137673
 21
464.0629687808192
 31
0.0
  0
LINE
  5
1C3
330
1F
100
AcDbEntity
  8
2
  6
Continuous
 62
    90
370
    18
100
AcDbLine
 10
226.1944395137673
 20
327.8371334660193
 30
0.0
 11
214.3056395137673
 21
327.8371334660193
 31
0.0
  0
LINE
  5
1C4
330
1F
100
AcDbEntity
  8
2
  6
Continuous
 62
    90
370
    18
100
AcDbLine
 10
103.7397995137671
 20
327.8371334660193
 30
0.0
 11
115.6285995137673
 21
327.8371334660193
 31
0.0
  0
LINE
  5
1C5
330
1F
100
AcDbEntity
  8
2
  6
Continuous
 62
    90
370
    18
100
AcDbLine
 10
101.7583318563672
 20
464.0444334660193
 30
0.0
 11
101.7583318563672
 21
466.0444334660193
 31
0.0
  0
LINE
  5
1C6
330
1F
100
AcDbEntity
  8
2
  6
Continuous
 62
    90
370
    18
100
AcDbLine
 10
103.7397995137671
 20
464.0444334660193
 30
0.0
 11
103.7397995137671
 21
464.0629687808192
 31
0.0
  0
LINE
  5
1C7
330
1F
100
AcDbEntity
  8
1
  6
DASHDOT
 62
    45
370
     9
100
AcDbLine
 10
212.9671195137671
 20
387.5567371270191
 30
0.0
 11
212.9671195137671
 21
402.0845507616306
 31
0.0
  0
LINE
  5
1C8
330
1F
100
AcDbEntity
  8
1
  6
DASHDOT
 62
    45
370
     9
100
AcDbLine
 10
116.9671195137671
 20
387.5567371270191
 30
0.0
 11
116.9671195137671
 21
402.1102297739764
 31
0.0
  0
LINE
  5
1C9
330
1F
100
AcDbEntity
  8
1
  6
DASHDOT
 62
    45
370
     9
100
AcDbLine
 10
116.9671195137671
 20
434.7383779223322
 30
0.0
 11
116.9671195137671
 21
449.8266358025202
 31
0.0
  0
LINE
  5
1CA
330
1F
100
AcDbEntity
  8
1
  6
DASHDOT
 62
    45
370
     9
100
AcDbLine
 10
212.9671195137671
 20
434.7383779223322
 30
0.0
 11
212.9671195137671
 21
449.8266358025202
 31
0.0
  0
LINE
  5
1CB
330
1F
100
AcDbEntity
  8
1
  6
Continuous
 62
    45
370
     9
100
AcDbLine
 10
228.9684918563672
 20
461.0907687808193
 30
0.0
 11
228.1759071711672
 21
461.0907687808193
 31
0.0
  0
LINE
  5
1CC
330
1F
100
AcDbEntity
  8
1
  6
Continuous
 62
    45
370
     9
100
AcDbLine
 10
228.9684918563672
 20
323.2541853424192
 30
0.0
 11
228.9684918563672
 21
461.0907687808193
 31
0.0
  0
LINE
  5
1CD
330
1F
100
AcDbEntity
  8
1
  6
Continuous
 62
    45
370
     9
100
AcDbLine
 10
228.9684918563672
 20
323.2541853424192
 30
0.0
 11
228.1759071711672
 21
323.2541853424192
 31
0.0
  0
LINE
  5
1CE
330
1F
100
AcDbEntity
  8
1
  6
Continuous
 62
    45
370
     9
100
AcDbLine
 10
100.9657471711672
 20
461.0907687808193
 30
0.0
 11
101.7583318563672
 21
461.0907687808193
 31
0.0
  0
LINE
  5
1CF
330
1F
100
AcDbEntity
  8
1
  6
Continuous
 62
    45
370
     9
100
AcDbLine
 10
100.9657471711672
 20
323.2541853424192
 30
0.0
 11
100.9657471711672
 21
461.0907687808193
 31
0.0
  0
LINE
  5
1D0
330
1F
100
AcDbEntity
  8
1
  6
Continuous
 62
    45
370
     9
100
AcDbLine
 10
100.9657471711672
 20
323.2541853424192
 30
0.0
 11
101.7583318563672
 21
323.2541853424192
 31
0.0
  0
LINE
  5
1D1
330
1F
100
AcDbEntity
  8
2
  6
Continuous
 62
    90
370
    18
100
AcDbLine
 10
228.1759071711672
 20
319.0444334660193
 30
0.0
 11
226.1944395137673
 21
319.0444334660193
 31
0.0
  0
LINE
  5
1D2
330
1F
100
AcDbEntity
  8
2
  6
Continuous
 62
    90
370
    18
100
AcDbLine
 10
228.1759071711672
 20
319.0444334660193
 30
0.0
 11
228.1759071711672
 21
466.0444334660193
 31
0.0
  0
LINE
  5
1D3
330
1F
100
AcDbEntity
  8
2
  6
Continuous
 62
    90
370
    18
100
AcDbLine
 10
101.7583318563672
 20
319.0444334660193
 30
0.0
 11
103.7397995137671
 21
319.0444334660193
 31
0.0
  0
LINE
  5
1D4
330
1F
100
AcDbEntity
  8
2
  6
Continuous
 62
    90
370
    18
100
AcDbLine
 10
101.7583318563672
 20
319.0444334660193
 30
0.0
 11
101.7583318563672
 21
466.0444334660193
 31
0.0
  0
ARC
  5
1D5
330
1F
100
AcDbEntity
  8
2
  6
Continuous
 62
    90
370
    18
100
AcDbCircle
 10
116.9671195137672
 20
436.0444334660193
 30
0.0
 40
15.0
100
AcDbArc
 50
89.99999999999991
 51
179.9999999999998
  0
LINE
  5
1D6
330
1F
100
AcDbEntity
  8
2
  6
Continuous
 62
    90
370
    18
100
AcDbLine
 10
116.9671195137672
 20
451.0444334660193
 30
0.0
 11
212.9671195137672
 21
451.0444334660193
 31
0.0
  0
ARC
  5
1D7
330
1F
100
AcDbEntity
  8
2
  6
Continuous
 62
    90
370
    18
100
AcDbCircle
 10
212.9671195137672
 20
436.0444334660193
 30
0.0
 40
15.0
100
AcDbArc
 50
0.0
 51
89.99999999999991
  0
LINE
  5
1D8
330
1F
100
AcDbEntity
  8
2
  6
Continuous
 62
    90
370
    18
100
AcDbLine
 10
101.9671195137672
 20
346.689094406692
 30
0.0
 11
101.9671195137672
 21
436.0444334660193
 31
0.0
  0
LINE
  5
1D9
330
1F
100
AcDbEntity
  8
2
  6
Continuous
 62
    90
370
    18
100
AcDbLine
 10
227.9671195137672
 20
436.0444334660193
 30
0.0
 11
227.9671195137672
 21
346.6890944066919
 31
0.0
  0
LINE
  5
1DA
330
1F
100
AcDbEntity
  8
2
  6
Continuous
 62
    90
370
    18
100
AcDbLine
 10
226.1944395137673
 20
319.0444334660193
 30
0.0
 11
226.1944395137673
 21
343.1522167682681
 31
0.0
  0
LINE
  5
1DB
330
1F
100
AcDbEntity
  8
2
  6
Continuous
 62
    90
370
    18
100
AcDbLine
 10
103.7397995137671
 20
319.0444334660193
 30
0.0
 11
103.7397995137671
 21
343.1522170545069
 31
0.0
  0
LINE
  5
1DC
330
1F
100
AcDbEntity
  8
2
  6
Continuous
 62
    90
370
    18
100
AcDbLine
 10
226.1944395137673
 20
443.1181881703894
 30
0.0
 11
226.1944395137673
 21
464.0629687808192
 31
0.0
  0
LINE
  5
1DD
330
1F
100
AcDbEntity
  8
2
  6
Continuous
 62
    90
370
    18
100
AcDbLine
 10
103.7397995137671
 20
443.1181881703894
 30
0.0
 11
103.7397995137671
 21
464.0629687808192
 31
0.0
  0
LINE
  5
1DE
330
1F
100
AcDbEntity
  8
2
  6
Continuous
 62
    90
370
    18
100
AcDbLine
 10
227.9671195137672
 20
374.5444334660194
 30
0.0
 11
101.9671195137672
 21
374.5444334660194
 31
0.0
  0
LINE
  5
1DF
330
1F
100
AcDbEntity
  8
1
  6
Continuous
 62
    45
370
     9
100
AcDbLine
 10
115.6285995137673
 20
327.8371334660193
 30
0.0
 11
115.6285995137673
 21
339.2190146847344
 31
0.0
  0
LINE
  5
1E0
330
1F
100
AcDbEntity
  8
1
  6
Continuous
 62
    45
370
     9
100
AcDbLine
 10
214.3056395137673
 20
327.8371334660193
 30
0.0
 11
214.3056395137673
 21
339.21901467102
 31
0.0
  0
ELLIPSE
  5
1E1
330
1F
100
AcDbEntity
  8
2
  6
Continuous
 62
    90
370
    18
100
AcDbEllipse
 10
139.9671195137673
 20
347.0677738914622
 30
0.0
 11
-20.00000000000017
 21
5.573999878030269E-14
 31
0.0
210
0.0
220
0.0
230
1.0
 40
0.5424264027955911
 41
0.0
 42
1.570796326794899
  0
ELLIPSE
  5
1E2
330
1F
100
AcDbEntity
  8
2
  6
Continuous
 62
    90
370
    18
100
AcDbEllipse
 10
139.9671195137673
 20
317.5107104378647
 30
0.0
 11
-20.00000000000017
 21
5.573999878030269E-14
 31
0.0
210
0.0
220
0.0
230
1.0
 40
0.5424264027955911
 41
0.0
 42
1.570796326794899
  0
LINE
  5
1E3
330
1F
100
AcDbEntity
  8
2
  6
Continuous
 62
    90
370
    18
100
AcDbLine
 10
119.9671195137672
 20
317.5107104378981
 30
0.0
 11
119.9671195137672
 21
374.5444334660194
 31
0.0
  0
ELLIPSE
  5
1E4
330
1F
100
AcDbEntity
  8
1
  6
Continuous
 62
    45
370
     9
100
AcDbEllipse
 10
139.9671195137672
 20
317.5107104378647
 30
0.0
 11
-20.0
 21
6.462178297730347E-14
 31
0.0
210
0.0
220
0.0
230
1.0
 40
0.5
 41
0.0
 42
1.570796326794899
  0
ELLIPSE
  5
1E5
330
1F
100
AcDbEntity
  8
1
  6
Continuous
 62
    45
370
     9
100
AcDbEllipse
 10
139.9671195137672
 20
347.0677738914622
 30
0.0
 11
-20.0
 21
6.462178297730347E-14
 31
0.0
210
0.0
220
0.0
230
1.0
 40
0.5
 41
0.0
 42
1.570796326794899
  0
ELLIPSE
  5
1E6
330
1F
100
AcDbEntity
  8
2
  6
Continuous
 62
    90
370
    18
100
AcDbEllipse
 10
189.9671195137672
 20
347.0677738914622
 30
0.0
 11
20.00000000000017
 21
-7.105427357601062E-14
 31
0.0
210
0.0
220
0.0
230
1.0
 40
0.5424264027955911
 41
4.712388980384687
 42
6.283185307179586
  0
ELLIPSE
  5
1E7
330
1F
100
AcDbEntity
  8
2
  6
Continuous
 62
    90
370
    18
100
AcDbEllipse
 10
189.9671195137672
 20
317.5107104378647
 30
0.0
 11
20.00000000000017
 21
-7.105427357601062E-14
 31
0.0
210
0.0
220
0.0
230
1.0
 40
0.5424264027955911
 41
4.712388980384687
 42
6.283185307179586
  0
LINE
  5
1E8
330
1F
100
AcDbEntity
  8
2
  6
Continuous
 62
    90
370
    18
100
AcDbLine
 10
209.9671195137673
 20
317.5107104378978
 30
0.0
 11
209.9671195137672
 21
374.5444334660194
 31
0.0
  0
ELLIPSE
  5
1E9
330
1F
100
AcDbEntity
  8
1
  6
Continuous
 62
    45
370
     9
100
AcDbEllipse
 10
189.9671195137673
 20
317.5107104378647
 30
0.0
 11
20.0
 21
-4.440892098500626E-14
 31
0.0
210
0.0
220
0.0
230
1.0
 40
0.5
 41
4.712388980384687
 42
6.283185307179586
  0
ELLIPSE
  5
1EA
330
1F
100
AcDbEntity
  8
1
  6
Continuous
 62
    45
370
     9
100
AcDbEllipse
 10
189.9671195137673
 20
347.0677738914622
 30
0.0
 11
20.0
 21
-4.440892098500626E-14
 31
0.0
210
0.0
220
0.0
230
1.0
 40
0.5
 41
4.712388980384687
 42
6.283185307179586
  0
LINE
  5
1EB
330
1F
100
AcDbEntity
  8
2
  6
Continuous
 62
    90
370
    18
100
AcDbLine
 10
139.9671195137672
 20
336.2192458355503
 30
0.0
 11
189.9671195137673
 21
336.2192458355503
 31
0.0
  0
LINE
  5
1EC
330
1F
100
AcDbEntity
  8
2
  6
Continuous
 62
    90
370
    18
100
AcDbLine
 10
139.9671195137672
 20
306.6621823819528
 30
0.0
 11
189.9671195137673
 21
306.6621823819528
 31
0.0
  0
LINE
  5
1ED
330
1F
100
AcDbEntity
  8
1
  6
Continuous
 62
    45
370
     9
100
AcDbLine
 10
139.9671195137672
 20
307.5107104378647
 30
0.0
 11
189.9671195137673
 21
307.5107104378647
 31
0.0
  0
LINE
  5
1EE
330
1F
100
AcDbEntity
  8
1
  6
Continuous
 62
    45
370
     9
100
AcDbLine
 10
139.9671195137672
 20
337.0677738914622
 30
0.0
 11
189.9671195137673
 21
337.0677738914622
 31
0.0
  0
ELLIPSE
  5
1EF
330
1F
100
AcDbEntity
  8
2
  6
Continuous
 62
    90
370
    18
100
AcDbEllipse
 10
212.9671195137672
 20
346.6890944066919
 30
0.0
 11
15.0
 21
-3.330669073875470E-14
 31
0.0
210
0.0
220
0.0
230
1.0
 40
0.5000000000000038
 41
4.712388980384687
 42
6.283185307179586
  0
ELLIPSE
  5
1F0
330
1F
100
AcDbEntity
  8
2
  6
Continuous
 62
    90
370
    18
100
AcDbEllipse
 10
116.9671195137672
 20
346.6890944066919
 30
0.0
 11
-15.0
 21
4.846633723297760E-14
 31
0.0
210
0.0
220
0.0
230
1.0
 40
0.5000000000000038
 41
0.0
 42
1.570796326794899
  0
LINE
  5
1F1
330
1F
100
AcDbEntity
  8
2
  6
Continuous
 62
    90
370
    18
100
AcDbLine
 10
116.9671195137672
 20
339.1890944066919
 30
0.0
 11
119.9671195137672
 21
339.1890944066919
 31
0.0
  0
LINE
  5
1F2
330
1F
100
AcDbEntity
  8
2
  6
Continuous
 62
    90
370
    18
100
AcDbLine
 10
212.9671195137671
 20
339.1890944066919
 30
0.0
 11
209.9671195137672
 21
339.1890944066919
 31
0.0
  0
LINE
  5
1F3
330
1F
100
AcDbEntity
  8
2
  6
Continuous
 62
    90
370
    18
100
AcDbLine
 10
115.6285995137673
 20
327.8371334660193
 30
0.0
 11
116.5695445341671
 21
326.8961884456193
 31
0.0
  0
ARC
  5
1F4
330
1F
100
AcDbEntity
  8
2
  6
Continuous
 62
    90
370
    18
100
AcDbCircle
 10
121.4734248693671
 20
331.8000687808193
 30
0.0
 40
6.9351323426
100
AcDbArc
 50
225.000000000001
 51
257.4554170594189
  0
LINE
  5
1F5
330
1F
100
AcDbEntity
  8
2
  6
Continuous
 62
    90
370
    18
100
AcDbLine
 10
214.3056395137671
 20
327.8371334660193
 30
0.0
 11
213.3646944933673
 21
326.8961884456193
 31
0.0
  0
ARC
  5
1F6
330
1F
100
AcDbEntity
  8
2
  6
Continuous
 62
    90
370
    18
100
AcDbCircle
 10
208.4608141581673
 20
331.8000687808193
 30
0.0
 40
6.9351323426
100
AcDbArc
 50
282.5445829405804
 51
314.9999999999983
  0
ELLIPSE
  5
1F7
330
1F
100
AcDbEntity
  8
2
  6
Continuous
 62
    90
370
    18
100
AcDbEllipse
 10
135.9671195137672
 20
342.7246282484163
 30
0.0
 11
5.25
 21
-5.684341886080801E-14
 31
0.0
210
0.0
220
0.0
230
1.0
 40
0.7071067789237792
 41
3.14159265358979
 42
6.283185307179586
  0
ELLIPSE
  5
1F8
330
1F
100
AcDbEntity
  8
2
  6
Continuous
 62
    90
370
    18
100
AcDbEllipse
 10
135.9671195137672
 20
342.7246282484163
 30
0.0
 11
-5.249999999997613
 21
1.696321803153445E-14
 31
0.0
210
0.0
220
0.0
230
1.0
 40
0.8806426137197202
 41
3.14159265358979
 42
6.283185307179586
  0
ELLIPSE
  5
1F9
330
1F
100
AcDbEntity
  8
1
  6
Continuous
 62
    45
370
     9
100
AcDbEllipse
 10
135.9671195137672
 20
344.5931965824056
 30
0.0
 11
-3.904628603744868
 21
1.261620311190862E-14
 31
0.0
210
0.0
220
0.0
230
1.0
 40
0.6043687199123099
 41
0.4173132496949052
 42
2.724279403894866
  0
ELLIPSE
  5
1FA
330
1F
100
AcDbEntity
  8
2
  6
Continuous
 62
    90
370
    18
100
AcDbEllipse
 10
135.9671195137672
 20
313.1675647688691
 30
0.0
 11
3.25
 21
5.684341886080801E-14
 31
0.0
210
0.0
220
0.0
230
1.0
 40
0.5
 41
2.746801533890118
 42
6.677976181958176
  0
ELLIPSE
  5
1FB
330
1F
100
AcDbEntity
  8
2
  6
Continuous
 62
    90
370
    18
100
AcDbEllipse
 10
193.9671198199187
 20
342.7246282484163
 30
0.0
 11
-5.25
 21
-5.892964836237308E-14
 31
0.0
210
0.0
220
0.0
230
1.0
 40
0.7071067789237792
 41
0.0
 42
3.14159265358979
  0
ELLIPSE
  5
1FC
330
1F
100
AcDbEntity
  8
2
  6
Continuous
 62
    90
370
    18
100
AcDbEllipse
 10
193.9671198199187
 20
342.7246282484163
 30
0.0
 11
5.249999999997613
 21
-1.165734175855884E-14
 31
0.0
210
0.0
220
0.0
230
1.0
 40
0.8806426137197202
 41
0.0
 42
3.14159265358979
  0
ELLIPSE
  5
1FD
330
1F
100
AcDbEntity
  8
1
  6
Continuous
 62
    45
370
     9
100
AcDbEllipse
 10
193.9671198199187
 20
344.5931965824056
 30
0.0
 11
3.904628603744868
 21
-8.670017156975059E-15
 31
0.0
210
0.0
220
0.0
230
1.0
 40
0.6043687199123099
 41
3.55890590328472
 42
5.865872057484681
  0
ELLIPSE
  5
1FE
330
1F
100
AcDbEntity
  8
2
  6
Continuous
 62
    90
370
    18
100
AcDbEllipse
 10
193.9671198199187
 20
313.1675647688691
 30
0.0
 11
-3.25
 21
5.733358707078524E-14
 31
0.0
210
0.0
220
0.0
230
1.0
 40
0.5
 41
5.888394432400997
 42
9.819569080469055
  0
LINE
  5
1FF
330
1F
100
AcDbEntity
  8
1
  6
Continuous
 62
    45
370
     9
100
AcDbLine
 10
190.9671195137673
 20
336.2328149816436
 30
0.0
 11
190.9671195137673
 21
312.542564768869
 31
0.0
  0
LINE
  5
200
330
1F
100
AcDbEntity
  8
2
  6
Continuous
 62
    90
370
    18
100
AcDbLine
 10
191.4671195137672
 20
336.2498003485848
 30
0.0
 11
191.4671195137672
 21
312.1292367860042
 31
0.0
  0
LINE
  5
201
330
1F
100
AcDbEntity
  8
2
  6
Continuous
 62
    90
370
    18
100
AcDbLine
 10
196.4671198199187
 20
336.8081689134237
 30
0.0
 11
196.4671198199187
 21
312.1292367860042
 31
0.0
  0
LINE
  5
202
330
1F
100
AcDbEntity
  8
1
  6
Continuous
 62
    45
370
     9
100
AcDbLine
 10
196.9671198199187
 20
336.9054185542985
 30
0.0
 11
196.9671198199187
 21
312.542564768869
 31
0.0
  0
LINE
  5
203
330
1F
100
AcDbEntity
  8
1
  6
Continuous
 62
    45
370
     9
100
AcDbLine
 10
138.9671198199187
 20
336.2427316740912
 30
0.0
 11
138.9671198199187
 21
312.542564768869
 31
0.0
  0
LINE
  5
204
330
1F
100
AcDbEntity
  8
2
  6
Continuous
 62
    90
370
    18
100
AcDbLine
 10
138.4671198199187
 20
336.2547620787639
 30
0.0
 11
138.4671198199187
 21
312.1292367860042
 31
0.0
  0
LINE
  5
205
330
1F
100
AcDbEntity
  8
2
  6
Continuous
 62
    90
370
    18
100
AcDbLine
 10
133.4671195137672
 20
336.8081688563547
 30
0.0
 11
133.4671195137672
 21
312.1292367860042
 31
0.0
  0
LINE
  5
206
330
1F
100
AcDbEntity
  8
1
  6
Continuous
 62
    45
370
     9
100
AcDbLine
 10
132.9671195137673
 20
336.9054184922514
 30
0.0
 11
132.9671195137673
 21
312.542564768869
 31
0.0
  0
CIRCLE
  5
207
330
1F
100
AcDbEntity
  8
1
  6
Continuous
 62
    45
370
     9
100
AcDbCircle
 10
212.9671195137671
 20
419.0444334660193
 30
0.0
 40
3.5
  0
CIRCLE
  5
208
330
1F
100
AcDbEntity
  8
1
  6
Continuous
 62
    45
370
     9
100
AcDbCircle
 10
116.9671195137671
 20
419.0444334660193
 30
0.0
 40
3.5
  0
LINE
  5
209
330
1F
100
AcDbEntity
  8
1
  6
DASHDOT
 62
    45
370
     9
100
AcDbLine
 10
221.6016993445671
 20
419.0444334660193
 30
0.0
 11
204.5499026133671
 21
419.0444334660193
 31
0.0
  0
LINE
  5
20A
330
1F
100
AcDbEntity
  8
1
  6
DASHDOT
 62
    45
370
     9
100
AcDbLine
 10
108.3917756289673
 20
419.0444334660193
 30
0.0
 11
125.3182168529675
 21
419.0444334660193
 31
0.0
  0
CIRCLE
  5
20B
330
1F
100
AcDbEntity
  8
2
  6
Continuous
 62
    90
370
    18
100
AcDbCircle
 10
212.9692000537671
 20
419.0444334660193
 30
0.0
 40
2.4768323426
  0
CIRCLE
  5
20C
330
1F
100
AcDbEntity
  8
2
  6
Continuous
 62
    90
370
    18
100
AcDbCircle
 10
116.9692000537673
 20
419.0444334660193
 30
0.0
 40
2.4768323426
  0
LINE
  5
20D
330
1F
100
AcDbEntity
  8
1
  6
DASHDOT
 62
    45
370
     9
100
AcDbLine
 10
116.9671195137671
 20
412.7383779223322
 30
0.0
 11
116.9671195137671
 21
427.8266358025202
 31
0.0
  0
LINE
  5
20E
330
1F
100
AcDbEntity
  8
1
  6
DASHDOT
 62
    45
370
     9
100
AcDbLine
 10
212.9671195137671
 20
412.7383779223322
 30
0.0
 11
212.9671195137671
 21
427.8266358025202
 31
0.0
  0
LINE
  5
20F
330
1F
100
AcDbEntity
  8
6
  6
Continuous
 62
     7
370
     9
100
AcDbLine
 10
212.9671195137671
 20
396.0444334660193
 30
0.0
 11
218.9671195137671
 21
396.0444334660193
 31
0.0
  0
LINE
  5
210
330
1F
100
AcDbEntity
  8
6
  6
Continuous
 62
     7
370
     9
100
AcDbLine
 10
212.9671195137671
 20
396.0444334660193
 30
0.0
 11
218.1632719364737
 21
393.0444334660193
 31
0.0
  0
POLYLINE
  5
211
330
1F
100
AcDbEntity
  8
6
  6
Continuous
 62
     7
370
     9
100
AcDb2dPolyline
 66
     1
 10
0.0
 20
0.0
 30
0.0
  0
VERTEX
  5
213
330
211
100
AcDbEntity
  8
6
  6
Continuous
 62
     7
370
     9
100
AcDbVertex
100
AcDb2dVertex
 10
212.9671195137671
 20
396.0444334660193
 30
0.0
  0
VERTEX
  5
214
330
211
100
AcDbEntity
  8
6
  6
Continuous
 62
     7
370
     9
100
AcDbVertex
100
AcDb2dVertex
 10
244.2830452674924
 20
387.6533564500754
 30
0.0
  0
VERTEX
  5
215
330
211
100
AcDbEntity
  8
6
  6
Continuous
 62
     7
370
     9
100
AcDbVertex
100
AcDb2dVertex
 10
301.8830452674925
 20
387.6533564500754
 30
0.0
  0
SEQEND
  5
212
330
211
100
AcDbEntity
  8
6
  6
Continuous
370
     9
  0
TEXT
  5
216
330
1F
100
AcDbEntity
  8
6
  6
Continuous
 62
     7
370
     9
100
AcDbText
 10
244.2830452674925
 20
387.6533564500754
 30
0.0
 40
9.0
  1
高さ調整用取付穴
 41
0.7999999999999999
100
AcDbText
  0
INSERT
  5
21D
330
1F
100
AcDbEntity
  8
0
100
AcDbBlockReference
  2
*G21
 10
0.0
 20
0.0
 30
0.0
  0
INSERT
  5
224
330
1F
100
AcDbEntity
  8
0
100
AcDbBlockReference
  2
*G22
 10
0.0
 20
0.0
 30
0.0
  0
LINE
  5
225
330
1F
100
AcDbEntity
  8
2
  6
Continuous
 62
    90
370
    18
100
AcDbLine
 10
101.7583318563672
 20
466.0444334660193
 30
0.0
 11
228.1759071711672
 21
466.0444334660193
 31
0.0
  0
DIMENSION
  5
230
330
1F
100
AcDbEntity
  8
6
  6
Continuous
 62
     7
370
     9
100
AcDbDimension
  2
Dim9
 10
100.9657471711673
 20
496.0444334660193
 30
0.0
 11
108.9664333424673
 21
500.5444334660193
 31
0.0
 70
   160
  1
<>
 71
     5
 42
-1.0
  3
Standard
100
AcDbAlignedDimension
 13
100.9657471711673
 23
461.0907687808193
 33
0.0
 14
116.9671195137671
 24
449.8266358025202
 34
0.0
100
AcDbRotatedDimension
1001
ACAD
1000
DSTYLE
1002
{
1070
   344
1005
3C
1070
   343
1005
3C
1070
   173
1070
     1
1070
   289
1070
     2
1070
   279
1070
     2
1070
   288
1070
     1
1070
    77
1070
     3
1070
   172
1070
     1
1070
   174
1070
     0
1070
    74
1070
     0
1070
    73
1070
     0
1070
   284
1070
     8
1070
    78
1070
     8
1070
   140
1040
3.0
1070
    40
1040
3.0
1070
    42
1040
2.0
1070
    44
1040
1.0
1070
    43
1040
10.0
1070
   271
1070
     2
1070
    41
1040
2.0
1002
}
  0
DIMENSION
  5
23B
330
1F
100
AcDbEntity
  8
6
  6
Continuous
 62
     7
370
     9
100
AcDbDimension
  2
Dim10
 10
116.9671195137673
 20
496.0444334660193
 30
0.0
 11
164.9671195137673
 21
500.5444334660193
 31
0.0
 70
   160
  1
<>
 71
     5
 42
-1.0
  3
Standard
100
AcDbAlignedDimension
 13
116.9671195137671
 23
449.8266358025202
 33
0.0
 14
212.9671195137671
 24
449.8266358025202
 34
0.0
100
AcDbRotatedDimension
1001
ACAD
1000
DSTYLE
1002
{
1070
   344
1005
3C
1070
   343
1005
3C
1070
   173
1070
     1
1070
   289
1070
     2
1070
   279
1070
     2
1070
   288
1070
     1
1070
    77
1070
     3
1070
   172
1070
     1
1070
   174
1070
     0
1070
    74
1070
     0
1070
    73
1070
     0
1070
   284
1070
     8
1070
    78
1070
     8
1070
   140
1040
3.0
1070
    40
1040
3.0
1070
    42
1040
2.0
1070
    44
1040
1.0
1070
    43
1040
10.0
1070
   271
1070
     2
1070
    41
1040
2.0
1002
}
  0
DIMENSION
  5
245
330
1F
100
AcDbEntity
  8
6
  6
Continuous
 62
     7
370
     9
100
AcDbDimension
  2
Dim11
 10
212.9671195137673
 20
496.0444334660193
 30
0.0
 11
220.9678056850673
 21
500.5444334660193
 31
0.0
 70
   160
  1
<>
 71
     5
 42
-1.0
  3
Standard
100
AcDbAlignedDimension
 13
212.9671195137671
 23
449.8266358025202
 33
0.0
 14
228.9684918563672
 24
461.0907687808193
 34
0.0
100
AcDbRotatedDimension
1001
ACAD
1000
DSTYLE
1002
{
1070
   344
1005
3C
1070
   343
1005
3C
1070
   173
1070
     1
1070
   289
1070
     2
1070
   279
1070
     2
1070
   288
1070
     1
1070
    77
1070
     3
1070
   172
1070
     1
1070
   174
1070
     0
1070
    74
1070
     0
1070
    73
1070
     0
1070
   284
1070
     8
1070
    78
1070
     8
1070
   140
1040
3.0
1070
    40
1040
3.0
1070
    42
1040
2.0
1070
    44
1040
1.0
1070
    43
1040
10.0
1070
   271
1070
     2
1070
    41
1040
2.0
1002
}
  0
DIMENSION
  5
251
330
1F
100
AcDbEntity
  8
6
  6
Continuous
 62
     7
370
     9
100
AcDbDimension
  2
Dim12
 10
100.9657471711673
 20
517.0444334660193
 30
0.0
 11
164.9671195137673
 21
521.5444334660193
 31
0.0
 70
   160
  1
<>
 71
     5
 42
-1.0
  3
Standard
100
AcDbAlignedDimension
 13
100.9657471711673
 23
461.0907687808193
 33
0.0
 14
228.9684918563672
 24
461.0907687808193
 34
0.0
100
AcDbRotatedDimension
1001
ACAD
1000
DSTYLE
1002
{
1070
   344
1005
3C
1070
   343
1005
3C
1070
   173
1070
     1
1070
   289
1070
     2
1070
   279
1070
     2
1070
   288
1070
     1
1070
    77
1070
     3
1070
   172
1070
     1
1070
   174
1070
     0
1070
    74
1070
     0
1070
    73
1070
     0
1070
   284
1070
     8
1070
    78
1070
     8
1070
   140
1040
3.0
1070
    40
1040
3.0
1070
    42
1040
2.0
1070
    44
1040
1.0
1070
    43
1040
10.0
1070
   271
1070
     2
1070
    41
1040
2.0
1002
}
  0
DIMENSION
  5
25D
330
1F
100
AcDbEntity
  8
6
  6
Continuous
 62
     7
370
     9
100
AcDbDimension
  2
Dim13
 10
70.96574717116721
 20
441.0444334660193
 30
0.0
 11
75.46574717116721
 21
430.2028419056004
 31
0.0
 70
   160
  1
<>
 71
     5
 42
-1.0
  3
Standard
100
AcDbAlignedDimension
 13
100.9657471711672
 23
441.0444334660193
 33
0.0
 14
100.9657471711672
 24
419.0444334660193
 34
0.0
 50
89.99999999999991
100
AcDbRotatedDimension
1001
ACAD
1000
DSTYLE
1002
{
1070
   344
1005
3C
1070
   343
1005
3C
1070
   173
1070
     1
1070
   289
1070
     2
1070
   279
1070
     2
1070
   288
1070
     1
1070
    77
1070
     3
1070
   172
1070
     1
1070
   174
1070
     0
1070
    74
1070
     0
1070
    73
1070
     0
1070
   284
1070
     8
1070
    78
1070
     8
1070
   140
1040
3.0
1070
    40
1040
3.0
1070
    42
1040
2.0
1070
    44
1040
1.0
1070
    43
1040
10.0
1070
   271
1070
     2
1070
    41
1040
2.0
1002
}
  0
DIMENSION
  5
268
330
1F
100
AcDbEntity
  8
6
  6
Continuous
 62
     7
370
     9
100
AcDbDimension
  2
Dim14
 10
70.96574717116721
 20
419.0444334660193
 30
0.0
 11
66.46574717116721
 21
407.2978419056004
 31
0.0
 70
   160
  1
<>
 71
     5
 42
-1.0
  3
Standard
100
AcDbAlignedDimension
 13
100.9657471711672
 23
419.0444334660193
 33
0.0
 14
100.9657471711672
 24
396.0444334660193
 34
0.0
 50
89.99999999999991
100
AcDbRotatedDimension
1001
ACAD
1000
DSTYLE
1002
{
1070
   344
1005
3C
1070
   343
1005
3C
1070
   173
1070
     1
1070
   289
1070
     2
1070
   279
1070
     2
1070
   288
1070
     1
1070
    77
1070
     3
1070
   172
1070
     1
1070
   174
1070
     0
1070
    74
1070
     0
1070
    73
1070
     0
1070
   284
1070
     8
1070
    78
1070
     8
1070
   140
1040
3.0
1070
    40
1040
3.0
1070
    42
1040
2.0
1070
    44
1040
1.0
1070
    43
1040
10.0
1070
   271
1070
     2
1070
    41
1040
2.0
1002
}
  0
DIMENSION
  5
273
330
1F
100
AcDbEntity
  8
6
  6
Continuous
 62
     7
370
     9
100
AcDbDimension
  2
Dim15
 10
119.9671195137657
 20
276.662182381953
 30
0.0
 11
127.9671195137669
 21
281.162182381953
 31
0.0
 70
   160
  1
<>
 71
     5
 42
-1.0
  3
Standard
100
AcDbAlignedDimension
 13
119.9671195137657
 23
317.5107104378981
 33
0.0
 14
135.9671195137685
 24
306.8813671589631
 34
0.0
100
AcDbRotatedDimension
1001
ACAD
1000
DSTYLE
1002
{
1070
   344
1005
3C
1070
   343
1005
3C
1070
   173
1070
     1
1070
   289
1070
     2
1070
   279
1070
     2
1070
   288
1070
     1
1070
    77
1070
     3
1070
   172
1070
     1
1070
   174
1070
     0
1070
    74
1070
     0
1070
    73
1070
     0
1070
   284
1070
     8
1070
    78
1070
     8
1070
   140
1040
3.0
1070
    40
1040
3.0
1070
    42
1040
2.0
1070
    44
1040
1.0
1070
    43
1040
10.0
1070
   271
1070
     2
1070
    41
1040
2.0
1002
}
  0
DIMENSION
  5
27E
330
1F
100
AcDbEntity
  8
6
  6
Continuous
 62
     7
370
     9
100
AcDbDimension
  2
Dim16
 10
135.9671195137684
 20
276.662182381953
 30
0.0
 11
164.9671196668437
 21
281.162182381953
 31
0.0
 70
   160
  1
<>
 71
     5
 42
-1.0
  3
Standard
100
AcDbAlignedDimension
 13
135.9671195137685
 23
306.8813671589631
 33
0.0
 14
193.9671198199192
 24
306.8813671928593
 34
0.0
100
AcDbRotatedDimension
1001
ACAD
1000
DSTYLE
1002
{
1070
   344
1005
3C
1070
   343
1005
3C
1070
   173
1070
     1
1070
   289
1070
     2
1070
   279
1070
     2
1070
   288
1070
     1
1070
    77
1070
     3
1070
   172
1070
     1
1070
   174
1070
     0
1070
    74
1070
     0
1070
    73
1070
     0
1070
   284
1070
     8
1070
    78
1070
     8
1070
   140
1040
3.0
1070
    40
1040
3.0
1070
    42
1040
2.0
1070
    44
1040
1.0
1070
    43
1040
10.0
1070
   271
1070
     2
1070
    41
1040
2.0
1002
}
  0
DIMENSION
  5
288
330
1F
100
AcDbEntity
  8
6
  6
Continuous
 62
     7
370
     9
100
AcDbDimension
  2
Dim17
 10
193.9671198199192
 20
276.662182381953
 30
0.0
 11
201.9671196668439
 21
281.162182381953
 31
0.0
 70
   160
  1
<>
 71
     5
 42
-1.0
  3
Standard
100
AcDbAlignedDimension
 13
193.9671198199192
 23
306.8813671928593
 33
0.0
 14
209.9671195137687
 24
317.5107104378978
 34
0.0
100
AcDbRotatedDimension
1001
ACAD
1000
DSTYLE
1002
{
1070
   344
1005
3C
1070
   343
1005
3C
1070
   173
1070
     1
1070
   289
1070
     2
1070
   279
1070
     2
1070
   288
1070
     1
1070
    77
1070
     3
1070
   172
1070
     1
1070
   174
1070
     0
1070
    74
1070
     0
1070
    73
1070
     0
1070
   284
1070
     8
1070
    78
1070
     8
1070
   140
1040
3.0
1070
    40
1040
3.0
1070
    42
1040
2.0
1070
    44
1040
1.0
1070
    43
1040
10.0
1070
   271
1070
     2
1070
    41
1040
2.0
1002
}
  0
DIMENSION
  5
294
330
1F
100
AcDbEntity
  8
6
  6
Continuous
 62
     7
370
     9
100
AcDbDimension
  2
Dim18
 10
119.9671195137648
 20
255.6621823819528
 30
0.0
 11
164.9671195137664
 21
260.1621823819528
 31
0.0
 70
   160
  1
<>
 71
     5
 42
-1.0
  3
Standard
100
AcDbAlignedDimension
 13
119.9671195137657
 23
317.5107104378981
 33
0.0
 14
209.9671195137687
 24
317.5107104378978
 34
0.0
100
AcDbRotatedDimension
1001
ACAD
1000
DSTYLE
1002
{
1070
   344
1005
3C
1070
   343
1005
3C
1070
   173
1070
     1
1070
   289
1070
     2
1070
   279
1070
     2
1070
   288
1070
     1
1070
    77
1070
     3
1070
   172
1070
     1
1070
   174
1070
     0
1070
    74
1070
     0
1070
    73
1070
     0
1070
   284
1070
     8
1070
    78
1070
     8
1070
   140
1040
3.0
1070
    40
1040
3.0
1070
    42
1040
2.0
1070
    44
1040
1.0
1070
    43
1040
10.0
1070
   271
1070
     2
1070
    41
1040
2.0
1002
}
  0
LINE
  5
295
330
1F
100
AcDbEntity
  8
2
  6
Continuous
 62
    90
370
    18
100
AcDbLine
 10
478.4386631365117
 20
341.5224440896196
 30
0.0
 11
478.4386631365117
 21
346.2538744086193
 31
0.0
  0
LINE
  5
296
330
1F
100
AcDbEntity
  8
2
  6
Continuous
 62
    90
370
    18
100
AcDbLine
 10
476.4571954791111
 20
341.5224440896196
 30
0.0
 11
476.4571954791111
 21
346.2538744086193
 31
0.0
  0
LINE
  5
297
330
1F
100
AcDbEntity
  8
2
  6
Continuous
 62
    90
370
    18
100
AcDbLine
 10
476.4571954791111
 20
341.5224440896196
 30
0.0
 11
478.4386631365117
 21
341.5224440896196
 31
0.0
  0
LINE
  5
298
330
1F
100
AcDbEntity
  8
2
  6
Continuous
 62
    90
370
    18
100
AcDbLine
 10
450.6981278217111
 20
341.5224440896196
 30
0.0
 11
450.6981278217111
 21
346.2538744086193
 31
0.0
  0
LINE
  5
299
330
1F
100
AcDbEntity
  8
2
  6
Continuous
 62
    90
370
    18
100
AcDbLine
 10
448.716663136511
 20
341.5224440896196
 30
0.0
 11
448.716663136511
 21
346.2538744086193
 31
0.0
  0
LINE
  5
29A
330
1F
100
AcDbEntity
  8
2
  6
Continuous
 62
    90
370
    18
100
AcDbLine
 10
448.716663136511
 20
341.5224440896196
 30
0.0
 11
450.6981278217111
 21
341.5224440896196
 31
0.0
  0
LINE
  5
29B
330
1F
100
AcDbEntity
  8
2
  6
Continuous
 62
    90
370
    18
100
AcDbLine
 10
421.3724231365115
 20
341.5224440896196
 30
0.0
 11
421.3724231365115
 21
346.2538744086193
 31
0.0
  0
LINE
  5
29C
330
1F
100
AcDbEntity
  8
2
  6
Continuous
 62
    90
370
    18
100
AcDbLine
 10
419.390955479111
 20
341.5224440896196
 30
0.0
 11
419.390955479111
 21
346.2538744086193
 31
0.0
  0
LINE
  5
29D
330
1F
100
AcDbEntity
  8
2
  6
Continuous
 62
    90
370
    18
100
AcDbLine
 10
419.390955479111
 20
341.5224440896196
 30
0.0
 11
421.3724231365115
 21
341.5224440896196
 31
0.0
  0
LINE
  5
29E
330
1F
100
AcDbEntity
  8
2
  6
Continuous
 62
    90
370
    18
100
AcDbLine
 10
393.631887821711
 20
341.5224440896196
 30
0.0
 11
393.631887821711
 21
346.2538744086193
 31
0.0
  0
LINE
  5
29F
330
1F
100
AcDbEntity
  8
2
  6
Continuous
 62
    90
370
    18
100
AcDbLine
 10
391.6504231365118
 20
341.5224440896196
 30
0.0
 11
391.6504231365118
 21
346.2538744086193
 31
0.0
  0
LINE
  5
2A0
330
1F
100
AcDbEntity
  8
2
  6
Continuous
 62
    90
370
    18
100
AcDbLine
 10
391.6504231365118
 20
341.5224440896196
 30
0.0
 11
393.631887821711
 21
341.5224440896196
 31
0.0
  0
ARC
  5
2A1
330
1F
100
AcDbEntity
  8
2
  6
Continuous
 62
    90
370
    18
100
AcDbCircle
 10
448.6170884921114
 20
333.2804443236195
 30
0.0
 40
6.9351323426
100
AcDbArc
 50
225.000000000001
 51
269.9999999999998
  0
LINE
  5
2A2
330
1F
100
AcDbEntity
  8
2
  6
Continuous
 62
    90
370
    18
100
AcDbLine
 10
448.6170884921114
 20
326.3453090088193
 30
0.0
 11
449.7073954791115
 21
326.3453090088193
 31
0.0
  0
LINE
  5
2A3
330
1F
100
AcDbEntity
  8
2
  6
Continuous
 62
    90
370
    18
100
AcDbLine
 10
442.7722631365116
 20
329.3175090088195
 30
0.0
 11
443.7132081569118
 21
328.3765639884194
 31
0.0
  0
ARC
  5
2A4
330
1F
100
AcDbEntity
  8
2
  6
Continuous
 62
    90
370
    18
100
AcDbCircle
 10
450.7977024661116
 20
333.2804443236195
 30
0.0
 40
6.9351323426
100
AcDbArc
 50
269.9999999999998
 51
314.9999999999983
  0
LINE
  5
2A5
330
1F
100
AcDbEntity
  8
2
  6
Continuous
 62
    90
370
    18
100
AcDbLine
 10
450.7977024661116
 20
326.3453090088193
 30
0.0
 11
449.7073954791115
 21
326.3453090088193
 31
0.0
  0
LINE
  5
2A6
330
1F
100
AcDbEntity
  8
2
  6
Continuous
 62
    90
370
    18
100
AcDbLine
 10
456.6425278217114
 20
329.3175090088195
 30
0.0
 11
455.7015828013111
 21
328.3765639884194
 31
0.0
  0
ARC
  5
2A7
330
1F
100
AcDbEntity
  8
2
  6
Continuous
 62
    90
370
    18
100
AcDbCircle
 10
476.3576208347115
 20
333.2804443236195
 30
0.0
 40
6.9351323426
100
AcDbArc
 50
224.9999999999957
 51
269.9999999999998
  0
LINE
  5
2A8
330
1F
100
AcDbEntity
  8
2
  6
Continuous
 62
    90
370
    18
100
AcDbLine
 10
476.3576208347115
 20
326.3453090088193
 30
0.0
 11
477.4479278217116
 21
326.3453090088193
 31
0.0
  0
LINE
  5
2A9
330
1F
100
AcDbEntity
  8
2
  6
Continuous
 62
    90
370
    18
100
AcDbLine
 10
470.5127954791117
 20
329.3175090088195
 30
0.0
 11
471.453740499511
 21
328.3765639884194
 31
0.0
  0
ARC
  5
2AA
330
1F
100
AcDbEntity
  8
2
  6
Continuous
 62
    90
370
    18
100
AcDbCircle
 10
478.5382348087116
 20
333.2804443236195
 30
0.0
 40
6.9351323426
100
AcDbArc
 50
269.9999999999998
 51
314.9999999999983
  0
LINE
  5
2AB
330
1F
100
AcDbEntity
  8
2
  6
Continuous
 62
    90
370
    18
100
AcDbLine
 10
470.5127954791117
 20
329.3175090088195
 30
0.0
 11
456.6425278217114
 21
329.3175090088195
 31
0.0
  0
LINE
  5
2AC
330
1F
100
AcDbEntity
  8
2
  6
Continuous
 62
    90
370
    18
100
AcDbLine
 10
478.5382348087116
 20
326.3453090088193
 30
0.0
 11
477.4479278217116
 21
326.3453090088193
 31
0.0
  0
LINE
  5
2AD
330
1F
100
AcDbEntity
  8
2
  6
Continuous
 62
    90
370
    18
100
AcDbLine
 10
484.3830631365111
 20
329.3175090088195
 30
0.0
 11
483.4421151439112
 21
328.3765639884194
 31
0.0
  0
LINE
  5
2AE
330
1F
100
AcDbEntity
  8
2
  6
Continuous
 62
    90
370
    18
100
AcDbLine
 10
496.2718631365117
 20
329.3175090088195
 30
0.0
 11
484.3830631365111
 21
329.3175090088195
 31
0.0
  0
LINE
  5
2AF
330
1F
100
AcDbEntity
  8
2
  6
Continuous
 62
    90
370
    18
100
AcDbLine
 10
494.4885431365112
 20
388.4308428422195
 30
0.0
 11
494.4885431365112
 21
464.1140103714193
 31
0.0
  0
ARC
  5
2B0
330
1F
100
AcDbEntity
  8
2
  6
Continuous
 62
    90
370
    18
100
AcDbCircle
 10
421.4719948087115
 20
333.2804443236195
 30
0.0
 40
6.9351323426
100
AcDbArc
 50
269.9999999999998
 51
314.9999999999983
  0
LINE
  5
2B1
330
1F
100
AcDbEntity
  8
2
  6
Continuous
 62
    90
370
    18
100
AcDbLine
 10
421.4719948087115
 20
326.3453090088193
 30
0.0
 11
420.3816878217115
 21
326.3453090088193
 31
0.0
  0
LINE
  5
2B2
330
1F
100
AcDbEntity
  8
2
  6
Continuous
 62
    90
370
    18
100
AcDbLine
 10
427.3168231365119
 20
329.3175090088195
 30
0.0
 11
426.3758751439111
 21
328.3765639884194
 31
0.0
  0
ARC
  5
2B3
330
1F
100
AcDbEntity
  8
2
  6
Continuous
 62
    90
370
    18
100
AcDbCircle
 10
419.2913808347114
 20
333.2804443236195
 30
0.0
 40
6.9351323426
100
AcDbArc
 50
224.9999999999957
 51
269.9999999999998
  0
LINE
  5
2B4
330
1F
100
AcDbEntity
  8
2
  6
Continuous
 62
    90
370
    18
100
AcDbLine
 10
419.2913808347114
 20
326.3453090088193
 30
0.0
 11
420.3816878217115
 21
326.3453090088193
 31
0.0
  0
LINE
  5
2B5
330
1F
100
AcDbEntity
  8
2
  6
Continuous
 62
    90
370
    18
100
AcDbLine
 10
413.4465554791116
 20
329.3175090088195
 30
0.0
 11
414.3875004995109
 21
328.3765639884194
 31
0.0
  0
ARC
  5
2B6
330
1F
100
AcDbEntity
  8
2
  6
Continuous
 62
    90
370
    18
100
AcDbCircle
 10
393.7314624661115
 20
333.2804443236195
 30
0.0
 40
6.9351323426
100
AcDbArc
 50
269.9999999999998
 51
314.9999999999983
  0
LINE
  5
2B7
330
1F
100
AcDbEntity
  8
2
  6
Continuous
 62
    90
370
    18
100
AcDbLine
 10
393.7314624661115
 20
326.3453090088193
 30
0.0
 11
392.6411554791114
 21
326.3453090088193
 31
0.0
  0
LINE
  5
2B8
330
1F
100
AcDbEntity
  8
2
  6
Continuous
 62
    90
370
    18
100
AcDbLine
 10
399.5762878217113
 20
329.3175090088195
 30
0.0
 11
398.635342801311
 21
328.3765639884194
 31
0.0
  0
ARC
  5
2B9
330
1F
100
AcDbEntity
  8
2
  6
Continuous
 62
    90
370
    18
100
AcDbCircle
 10
391.5508484921113
 20
333.2804443236195
 30
0.0
 40
6.9351323426
100
AcDbArc
 50
225.000000000001
 51
269.9999999999998
  0
LINE
  5
2BA
330
1F
100
AcDbEntity
  8
2
  6
Continuous
 62
    90
370
    18
100
AcDbLine
 10
399.5762878217113
 20
329.3175090088195
 30
0.0
 11
413.4465554791116
 21
329.3175090088195
 31
0.0
  0
LINE
  5
2BB
330
1F
100
AcDbEntity
  8
2
  6
Continuous
 62
    90
370
    18
100
AcDbLine
 10
391.5508484921113
 20
326.3453090088193
 30
0.0
 11
392.6411554791114
 21
326.3453090088193
 31
0.0
  0
LINE
  5
2BC
330
1F
100
AcDbEntity
  8
2
  6
Continuous
 62
    90
370
    18
100
AcDbLine
 10
385.7060231365115
 20
329.3175090088195
 30
0.0
 11
386.6469681569113
 21
328.3765639884194
 31
0.0
  0
LINE
  5
2BD
330
1F
100
AcDbEntity
  8
2
  6
Continuous
 62
    90
370
    18
100
AcDbLine
 10
373.8172231365113
 20
329.3175090088195
 30
0.0
 11
385.7060231365115
 21
329.3175090088195
 31
0.0
  0
LINE
  5
2BE
330
1F
100
AcDbEntity
  8
2
  6
Continuous
 62
    90
370
    18
100
AcDbLine
 10
375.6005431365113
 20
388.4308428422195
 30
0.0
 11
375.6005431365113
 21
464.1140103714193
 31
0.0
  0
LINE
  5
2BF
330
1F
100
AcDbEntity
  8
2
  6
Continuous
 62
    90
370
    18
100
AcDbLine
 10
371.8357554791112
 20
466.0444334660193
 30
0.0
 11
498.2533278217118
 21
466.0444334660193
 31
0.0
  0
LINE
  5
2C0
330
1F
100
AcDbEntity
  8
2
  6
Continuous
 62
    90
370
    18
100
AcDbLine
 10
375.6005431365113
 20
464.1140103714193
 30
0.0
 11
494.4885431365112
 21
464.1140103714193
 31
0.0
  0
LINE
  5
2C1
330
1F
100
AcDbEntity
  8
2
  6
Continuous
 62
    90
370
    18
100
AcDbLine
 10
375.6005431365113
 20
388.4308428422195
 30
0.0
 11
494.4885431365112
 21
388.4308428422195
 31
0.0
  0
LINE
  5
2C2
330
1F
100
AcDbEntity
  8
2
  6
Continuous
 62
    90
370
    18
100
AcDbLine
 10
373.8172231365113
 20
353.6717871416193
 30
0.0
 11
496.2718631365117
 21
353.6717871416193
 31
0.0
  0
LINE
  5
2C3
330
1F
100
AcDbEntity
  8
2
  6
Continuous
 62
    90
370
    18
100
AcDbLine
 10
373.8172231365113
 20
346.2538744086193
 30
0.0
 11
496.2718631365117
 21
346.2538744086193
 31
0.0
  0
LINE
  5
2C4
330
1F
100
AcDbEntity
  8
2
  6
Continuous
 62
    90
370
    18
100
AcDbLine
 10
427.3168231365119
 20
329.3175090088195
 30
0.0
 11
442.7722631365116
 21
329.3175090088195
 31
0.0
  0
LINE
  5
2C5
330
1F
100
AcDbEntity
  8
1
  6
Continuous
 62
    45
370
     9
100
AcDbLine
 10
371.8357554791112
 20
357.1949379112194
 30
0.0
 11
373.8172231365113
 21
357.1949379112194
 31
0.0
  0
LINE
  5
2C6
330
1F
100
AcDbEntity
  8
1
  6
Continuous
 62
    45
370
     9
100
AcDbLine
 10
371.8357554791112
 20
353.1824738556194
 30
0.0
 11
373.8172231365113
 21
353.1824738556194
 31
0.0
  0
LINE
  5
2C7
330
1F
100
AcDbEntity
  8
1
  6
Continuous
 62
    45
370
     9
100
AcDbLine
 10
371.8357554791112
 20
345.1107335944195
 30
0.0
 11
373.8172231365113
 21
345.1107335944195
 31
0.0
  0
LINE
  5
2C8
330
1F
100
AcDbEntity
  8
1
  6
Continuous
 62
    45
370
     9
100
AcDbLine
 10
498.2533278217118
 20
357.1949379112194
 30
0.0
 11
496.2718631365117
 21
357.1949379112194
 31
0.0
  0
LINE
  5
2C9
330
1F
100
AcDbEntity
  8
1
  6
Continuous
 62
    45
370
     9
100
AcDbLine
 10
498.2533278217118
 20
353.1824738556194
 30
0.0
 11
496.2718631365117
 21
353.1824738556194
 31
0.0
  0
LINE
  5
2CA
330
1F
100
AcDbEntity
  8
1
  6
Continuous
 62
    45
370
     9
100
AcDbLine
 10
498.2533278217118
 20
345.1107335944195
 30
0.0
 11
496.2718631365117
 21
345.1107335944195
 31
0.0
  0
LINE
  5
2CB
330
1F
100
AcDbEntity
  8
1
  6
Continuous
 62
    45
370
     9
100
AcDbLine
 10
373.8172231365113
 20
350.1309220600193
 30
0.0
 11
496.2718631365117
 21
350.1309220600193
 31
0.0
  0
LINE
  5
2CC
330
1F
100
AcDbEntity
  8
1
  6
Continuous
 62
    45
370
     9
100
AcDbLine
 10
373.8172231365113
 20
350.9611942412195
 30
0.0
 11
496.2718631365117
 21
350.9611942412195
 31
0.0
  0
LINE
  5
2CD
330
1F
100
AcDbEntity
  8
1
  6
Continuous
 62
    45
370
     9
100
AcDbLine
 10
375.1051754791113
 20
455.6927750566193
 30
0.0
 11
375.1051754791113
 21
459.1603427140193
 31
0.0
  0
LINE
  5
2CE
330
1F
100
AcDbEntity
  8
1
  6
Continuous
 62
    45
370
     9
100
AcDbLine
 10
373.8172231365113
 20
457.8723903714193
 30
0.0
 11
375.1051754791113
 21
457.8723903714193
 31
0.0
  0
LINE
  5
2CF
330
1F
100
AcDbEntity
  8
1
  6
Continuous
 62
    45
370
     9
100
AcDbLine
 10
373.8172231365113
 20
453.5131627140194
 30
0.0
 11
375.1051754791113
 21
453.5131627140194
 31
0.0
  0
ARC
  5
2D0
330
1F
100
AcDbEntity
  8
1
  6
Continuous
 62
    45
370
     9
100
AcDbCircle
 10
375.6005431365113
 20
459.1603427140193
 30
0.0
 40
0.4953676574
100
AcDbArc
 50
89.99999999999991
 51
179.9999999999998
  0
ARC
  5
2D1
330
1F
100
AcDbEntity
  8
1
  6
Continuous
 62
    45
370
     9
100
AcDbCircle
 10
375.6005431365113
 20
452.2252103714194
 30
0.0
 40
0.4953676574
100
AcDbArc
 50
179.9999999999998
 51
269.9999999999998
  0
LINE
  5
2D2
330
1F
100
AcDbEntity
  8
1
  6
Continuous
 62
    45
370
     9
100
AcDbLine
 10
375.1051754791113
 20
455.6927750566193
 30
0.0
 11
375.1051754791113
 21
452.2252103714194
 31
0.0
  0
LINE
  5
2D3
330
1F
100
AcDbEntity
  8
1
  6
Continuous
 62
    45
370
     9
100
AcDbLine
 10
378.0773754791114
 20
388.4308428422195
 30
0.0
 11
378.0773754791114
 21
353.6717871416193
 31
0.0
  0
LINE
  5
2D4
330
1F
100
AcDbEntity
  8
1
  6
Continuous
 62
    45
370
     9
100
AcDbLine
 10
494.9839078217112
 20
455.6927750566193
 30
0.0
 11
494.9839078217112
 21
459.1603427140193
 31
0.0
  0
LINE
  5
2D5
330
1F
100
AcDbEntity
  8
1
  6
Continuous
 62
    45
370
     9
100
AcDbLine
 10
496.2718631365117
 20
457.8723903714193
 30
0.0
 11
494.9839078217112
 21
457.8723903714193
 31
0.0
  0
LINE
  5
2D6
330
1F
100
AcDbEntity
  8
1
  6
Continuous
 62
    45
370
     9
100
AcDbLine
 10
496.2718631365117
 20
453.5131627140194
 30
0.0
 11
494.9839078217112
 21
453.5131627140194
 31
0.0
  0
ARC
  5
2D7
330
1F
100
AcDbEntity
  8
1
  6
Continuous
 62
    45
370
     9
100
AcDbCircle
 10
494.4885431365112
 20
459.1603427140193
 30
0.0
 40
0.4953676574
100
AcDbArc
 50
0.0
 51
89.99999999999991
  0
ARC
  5
2D8
330
1F
100
AcDbEntity
  8
1
  6
Continuous
 62
    45
370
     9
100
AcDbCircle
 10
494.4885431365112
 20
452.2252103714194
 30
0.0
 40
0.4953676574
100
AcDbArc
 50
269.9999999999998
 51
0.0
  0
LINE
  5
2D9
330
1F
100
AcDbEntity
  8
1
  6
Continuous
 62
    45
370
     9
100
AcDbLine
 10
494.9839078217112
 20
455.6927750566193
 30
0.0
 11
494.9839078217112
 21
452.2252103714194
 31
0.0
  0
LINE
  5
2DA
330
1F
100
AcDbEntity
  8
1
  6
Continuous
 62
    45
370
     9
100
AcDbLine
 10
492.0117078217111
 20
388.4308428422195
 30
0.0
 11
492.0117078217111
 21
353.6717871416193
 31
0.0
  0
ARC
  5
2DB
330
1F
100
AcDbEntity
  8
1
  6
Continuous
 62
    45
370
     9
100
AcDbCircle
 10
381.2477231365112
 20
346.2538744086193
 30
0.0
 40
1.6842476574
100
AcDbArc
 50
179.9999999999998
 51
0.0
  0
ARC
  5
2DC
330
1F
100
AcDbEntity
  8
1
  6
Continuous
 62
    45
370
     9
100
AcDbCircle
 10
435.0445431365108
 20
346.2538744086193
 30
0.0
 40
1.6842476574
100
AcDbArc
 50
179.9999999999998
 51
269.9999999999998
  0
ARC
  5
2DD
330
1F
100
AcDbEntity
  8
1
  6
Continuous
 62
    45
370
     9
100
AcDbCircle
 10
407.5021554791113
 20
346.2538744086193
 30
0.0
 40
1.6842476574
100
AcDbArc
 50
179.9999999999998
 51
0.0
  0
LINE
  5
2DE
330
1F
100
AcDbEntity
  8
1
  6
Continuous
 62
    45
370
     9
100
AcDbLine
 10
385.7060231365115
 20
329.3175090088195
 30
0.0
 11
385.7060231365115
 21
346.2538744086193
 31
0.0
  0
LINE
  5
2DF
330
1F
100
AcDbEntity
  8
1
  6
Continuous
 62
    45
370
     9
100
AcDbLine
 10
399.5762878217113
 20
329.3175090088195
 30
0.0
 11
399.5762878217113
 21
346.2538744086193
 31
0.0
  0
LINE
  5
2E0
330
1F
100
AcDbEntity
  8
1
  6
Continuous
 62
    45
370
     9
100
AcDbLine
 10
413.4465554791116
 20
329.3175090088195
 30
0.0
 11
413.4465554791116
 21
346.2538744086193
 31
0.0
  0
LINE
  5
2E1
330
1F
100
AcDbEntity
  8
1
  6
Continuous
 62
    45
370
     9
100
AcDbLine
 10
427.3168231365119
 20
329.3175090088195
 30
0.0
 11
427.3168231365119
 21
346.2538744086193
 31
0.0
  0
ARC
  5
2E2
330
1F
100
AcDbEntity
  8
1
  6
Continuous
 62
    45
370
     9
100
AcDbCircle
 10
488.8413631365113
 20
346.2538744086193
 30
0.0
 40
1.6842476574
100
AcDbArc
 50
179.9999999999998
 51
0.0
  0
ARC
  5
2E3
330
1F
100
AcDbEntity
  8
1
  6
Continuous
 62
    45
370
     9
100
AcDbCircle
 10
435.0445431365108
 20
346.2538744086193
 30
0.0
 40
1.6842476574
100
AcDbArc
 50
269.9999999999998
 51
0.0
  0
ARC
  5
2E4
330
1F
100
AcDbEntity
  8
1
  6
Continuous
 62
    45
370
     9
100
AcDbCircle
 10
462.5869278217117
 20
346.2538744086193
 30
0.0
 40
1.6842476574
100
AcDbArc
 50
179.9999999999998
 51
0.0
  0
LINE
  5
2E5
330
1F
100
AcDbEntity
  8
1
  6
Continuous
 62
    45
370
     9
100
AcDbLine
 10
484.3830631365111
 20
329.3175090088195
 30
0.0
 11
484.3830631365111
 21
346.2538744086193
 31
0.0
  0
LINE
  5
2E6
330
1F
100
AcDbEntity
  8
1
  6
Continuous
 62
    45
370
     9
100
AcDbLine
 10
470.5127954791117
 20
329.3175090088195
 30
0.0
 11
470.5127954791117
 21
346.2538744086193
 31
0.0
  0
LINE
  5
2E7
330
1F
100
AcDbEntity
  8
1
  6
Continuous
 62
    45
370
     9
100
AcDbLine
 10
456.6425278217114
 20
329.3175090088195
 30
0.0
 11
456.6425278217114
 21
346.2538744086193
 31
0.0
  0
LINE
  5
2E8
330
1F
100
AcDbEntity
  8
1
  6
Continuous
 62
    45
370
     9
100
AcDbLine
 10
442.7722631365116
 20
329.3175090088195
 30
0.0
 11
442.7722631365116
 21
346.2538744086193
 31
0.0
  0
LINE
  5
2E9
330
1F
100
AcDbEntity
  8
1
  6
Continuous
 62
    45
370
     9
100
AcDbLine
 10
371.0431678217112
 20
323.2541853424194
 30
0.0
 11
371.0431678217112
 21
452.9388058694195
 31
0.0
  0
LINE
  5
2EA
330
1F
100
AcDbEntity
  8
1
  6
Continuous
 62
    45
370
     9
100
AcDbLine
 10
371.0431678217112
 20
452.9388058694195
 30
0.0
 11
371.8357554791112
 21
452.9388058694195
 31
0.0
  0
LINE
  5
2EB
330
1F
100
AcDbEntity
  8
1
  6
Continuous
 62
    45
370
     9
100
AcDbLine
 10
498.2533278217118
 20
323.2541853424194
 30
0.0
 11
499.0459154791108
 21
323.2541853424194
 31
0.0
  0
LINE
  5
2EC
330
1F
100
AcDbEntity
  8
1
  6
Continuous
 62
    45
370
     9
100
AcDbLine
 10
499.0459154791108
 20
323.2541853424194
 30
0.0
 11
499.0459154791108
 21
452.9388058694195
 31
0.0
  0
LINE
  5
2ED
330
1F
100
AcDbEntity
  8
1
  6
Continuous
 62
    45
370
     9
100
AcDbLine
 10
499.0459154791108
 20
452.9388058694195
 30
0.0
 11
498.2533278217118
 21
452.9388058694195
 31
0.0
  0
LINE
  5
2EE
330
1F
100
AcDbEntity
  8
1
  6
Continuous
 62
    45
370
     9
100
AcDbLine
 10
371.8357554791112
 20
323.2541853424194
 30
0.0
 11
371.0431678217112
 21
323.2541853424194
 31
0.0
  0
LINE
  5
2EF
330
1F
100
AcDbEntity
  8
2
  6
Continuous
 62
    90
370
    18
100
AcDbLine
 10
371.8357554791112
 20
319.0444334660193
 30
0.0
 11
373.8172231365113
 21
319.0444334660193
 31
0.0
  0
LINE
  5
2F0
330
1F
100
AcDbEntity
  8
2
  6
Continuous
 62
    90
370
    18
100
AcDbLine
 10
498.2533278217118
 20
319.0444334660193
 30
0.0
 11
496.2718631365117
 21
319.0444334660193
 31
0.0
  0
LINE
  5
2F1
330
1F
100
AcDbEntity
  8
2
  6
Continuous
 62
    90
370
    18
100
AcDbLine
 10
496.2718631365117
 20
319.0444334660193
 30
0.0
 11
496.2718631365117
 21
466.0444334660193
 31
0.0
  0
LINE
  5
2F2
330
1F
100
AcDbEntity
  8
2
  6
Continuous
 62
    90
370
    18
100
AcDbLine
 10
498.2533278217118
 20
319.0444334660193
 30
0.0
 11
498.2533278217118
 21
466.0444334660193
 31
0.0
  0
LINE
  5
2F3
330
1F
100
AcDbEntity
  8
2
  6
Continuous
 62
    90
370
    18
100
AcDbLine
 10
373.8172231365113
 20
319.0444334660193
 30
0.0
 11
373.8172231365113
 21
466.0444334660193
 31
0.0
  0
LINE
  5
2F4
330
1F
100
AcDbEntity
  8
2
  6
Continuous
 62
    90
370
    18
100
AcDbLine
 10
371.8357554791112
 20
319.0444334660193
 30
0.0
 11
371.8357554791112
 21
466.0444334660193
 31
0.0
  0
DIMENSION
  5
300
330
1F
100
AcDbEntity
  8
6
  6
Continuous
 62
     7
370
     9
100
AcDbDimension
  2
Dim19
 10
371.0431678217114
 20
517.0444334660193
 30
0.0
 11
435.0445416504115
 21
521.5444334660193
 31
0.0
 70
   160
  1
<>
 71
     5
 42
-1.0
  3
Standard
100
AcDbAlignedDimension
 13
371.0431678217112
 23
452.9388058694195
 33
0.0
 14
499.0459154791113
 24
452.9388058694195
 34
0.0
100
AcDbRotatedDimension
1001
ACAD
1000
DSTYLE
1002
{
1070
   344
1005
3C
1070
   343
1005
3C
1070
   173
1070
     1
1070
   289
1070
     2
1070
   279
1070
     2
1070
   288
1070
     1
1070
    77
1070
     3
1070
   172
1070
     1
1070
   174
1070
     0
1070
    74
1070
     0
1070
    73
1070
     0
1070
   284
1070
     8
1070
    78
1070
     8
1070
   140
1040
3.0
1070
    40
1040
3.0
1070
    42
1040
2.0
1070
    44
1040
1.0
1070
    43
1040
10.0
1070
   271
1070
     2
1070
    41
1040
2.0
1002
}
  0
DIMENSION
  5
30C
330
1F
100
AcDbEntity
  8
6
  6
Continuous
 62
     7
370
     9
100
AcDbDimension
  2
Dim20
 10
341.0431678217108
 20
466.0444334660193
 30
0.0
 11
336.5431678217108
 21
392.5466128210302
 31
0.0
 70
   160
  1
<>
 71
     5
 42
-1.0
  3
Standard
100
AcDbAlignedDimension
 13
371.8357554791112
 23
466.0444334660193
 33
0.0
 14
371.8357554791112
 24
319.0487921760409
 34
0.0
 50
89.99999999999991
100
AcDbRotatedDimension
1001
ACAD
1000
DSTYLE
1002
{
1070
   344
1005
3C
1070
   343
1005
3C
1070
   173
1070
     1
1070
   289
1070
     2
1070
   279
1070
     2
1070
   288
1070
     1
1070
    77
1070
     3
1070
   172
1070
     1
1070
   174
1070
     0
1070
    74
1070
     0
1070
    73
1070
     0
1070
   284
1070
     8
1070
    78
1070
     8
1070
   140
1040
3.0
1070
    40
1040
3.0
1070
    42
1040
2.0
1070
    44
1040
1.0
1070
    43
1040
10.0
1070
   271
1070
     2
1070
    41
1040
2.0
1002
}
  0
ARC
  5
30D
330
1F
100
AcDbEntity
  8
2
  6
Continuous
 62
    90
370
    18
100
AcDbCircle
 10
377.0866431365116
 20
233.4583707143207
 30
0.0
 40
1.4861
100
AcDbArc
 50
138.1896850000059
 51
179.9999999999998
  0
ARC
  5
30E
330
1F
100
AcDbEntity
  8
2
  6
Continuous
 62
    90
370
    18
100
AcDbCircle
 10
493.0024431365115
 20
233.4583707143207
 30
0.0
 40
1.4861
100
AcDbArc
 50
41.81031499999408
 51
89.99999999999991
  0
LINE
  5
30F
330
1F
100
AcDbEntity
  8
2
  6
Continuous
 62
    90
370
    18
100
AcDbLine
 10
493.4978078217115
 20
115.0657383717208
 30
0.0
 11
492.9763204707114
 21
116.4563623911207
 31
0.0
  0
LINE
  5
310
330
1F
100
AcDbEntity
  8
2
  6
Continuous
 62
    90
370
    18
100
AcDbLine
 10
496.2718631365113
 20
115.0657383717208
 30
0.0
 11
493.4978078217115
 21
115.0657383717208
 31
0.0
  0
ARC
  5
311
330
1F
100
AcDbEntity
  8
2
  6
Continuous
 62
    90
370
    18
100
AcDbCircle
 10
493.0024431365115
 20
233.4583707143207
 30
0.0
 40
1.4861
100
AcDbArc
 50
0.0
 51
41.81031499999408
  0
ARC
  5
312
330
1F
100
AcDbEntity
  8
2
  6
Continuous
 62
    90
370
    18
100
AcDbCircle
 10
377.0866431365116
 20
233.4583707143207
 30
0.0
 40
1.4861
100
AcDbArc
 50
89.99999999999991
 51
138.1896850000059
  0
ARC
  5
313
330
1F
100
AcDbEntity
  8
2
  6
Continuous
 62
    90
370
    18
100
AcDbCircle
 10
489.5348754791115
 20
120.0194030569206
 30
0.0
 40
4.9536676574
100
AcDbArc
 50
269.9999999999998
 51
0.0
  0
ARC
  5
314
330
1F
100
AcDbEntity
  8
2
  6
Continuous
 62
    90
370
    18
100
AcDbCircle
 10
380.5542078217113
 20
120.0194030569206
 30
0.0
 40
4.9536676574
100
AcDbArc
 50
179.9999999999998
 51
269.9999999999998
  0
LINE
  5
315
330
1F
100
AcDbEntity
  8
2
  6
Continuous
 62
    90
370
    18
100
AcDbLine
 10
380.5542078217113
 20
115.0657383717208
 30
0.0
 11
489.5348754791115
 21
115.0657383717208
 31
0.0
  0
LINE
  5
316
330
1F
100
AcDbEntity
  8
2
  6
Continuous
 62
    90
370
    18
100
AcDbLine
 10
377.0866431365116
 20
234.9444707143208
 30
0.0
 11
493.0024431365115
 21
234.9444707143208
 31
0.0
  0
LINE
  5
317
330
1F
100
AcDbEntity
  8
2
  6
Continuous
 62
    90
370
    18
100
AcDbLine
 10
494.4885431365113
 20
120.0194030569206
 30
0.0
 11
494.4885431365113
 21
233.4583707143207
 31
0.0
  0
LINE
  5
318
330
1F
100
AcDbEntity
  8
2
  6
Continuous
 62
    90
370
    18
100
AcDbLine
 10
375.6005431365113
 20
120.0194030569206
 30
0.0
 11
375.6005431365115
 21
233.4583707143207
 31
0.0
  0
LINE
  5
319
330
1F
100
AcDbEntity
  8
2
  6
Continuous
 62
    90
370
    18
100
AcDbLine
 10
371.8357554791112
 20
114.0750030569207
 30
0.0
 11
373.8172231365113
 21
114.0750030569207
 31
0.0
  0
LINE
  5
31A
330
1F
100
AcDbEntity
  8
2
  6
Continuous
 62
    90
370
    18
100
AcDbLine
 10
373.8172231365113
 20
114.0750030569207
 30
0.0
 11
373.8172231365115
 21
235.9352030569208
 31
0.0
  0
LINE
  5
31B
330
1F
100
AcDbEntity
  8
2
  6
Continuous
 62
    90
370
    18
100
AcDbLine
 10
376.5912784513114
 20
115.0657383717208
 30
0.0
 11
377.1127628301113
 21
116.4563623911207
 31
0.0
  0
LINE
  5
31C
330
1F
100
AcDbEntity
  8
2
  6
Continuous
 62
    90
370
    18
100
AcDbLine
 10
373.8172231365113
 20
115.0657383717208
 30
0.0
 11
376.5912784513114
 21
115.0657383717208
 31
0.0
  0
LINE
  5
31D
330
1F
100
AcDbEntity
  8
2
  6
Continuous
 62
    90
370
    18
100
AcDbLine
 10
371.8357554791112
 20
114.0750030569207
 30
0.0
 11
371.8357554791114
 21
242.8703383717208
 31
0.0
  0
LINE
  5
31E
330
1F
100
AcDbEntity
  8
2
  6
Continuous
 62
    90
370
    18
100
AcDbLine
 10
496.2718631365113
 20
114.0750030569207
 30
0.0
 11
498.2533278217114
 21
114.0750030569207
 31
0.0
  0
LINE
  5
31F
330
1F
100
AcDbEntity
  8
2
  6
Continuous
 62
    90
370
    18
100
AcDbLine
 10
498.2533278217114
 20
114.0750030569207
 30
0.0
 11
498.2533278217114
 21
242.8703383717208
 31
0.0
  0
LINE
  5
320
330
1F
100
AcDbEntity
  8
1
  6
DASHDOT
 62
    45
370
     9
100
AcDbLine
 10
357.9162892909545
 20
182.9309707143208
 30
0.0
 11
513.9069169652115
 21
182.9309707143208
 31
0.0
  0
LINE
  5
321
330
1F
100
AcDbEntity
  8
1
  6
Continuous
 62
    45
370
     9
100
AcDbLine
 10
371.0431678217112
 20
121.3808549333208
 30
0.0
 11
371.0431678217114
 21
237.9166707143207
 31
0.0
  0
LINE
  5
322
330
1F
100
AcDbEntity
  8
1
  6
Continuous
 62
    45
370
     9
100
AcDbLine
 10
371.0431678217112
 20
121.3808549333208
 30
0.0
 11
371.8357554791112
 21
121.3808549333208
 31
0.0
  0
LINE
  5
323
330
1F
100
AcDbEntity
  8
1
  6
Continuous
 62
    45
370
     9
100
AcDbLine
 10
371.0431678217114
 20
237.9166707143207
 30
0.0
 11
371.8357554791114
 21
237.9166707143207
 31
0.0
  0
LINE
  5
324
330
1F
100
AcDbEntity
  8
1
  6
Continuous
 62
    45
370
     9
100
AcDbLine
 10
499.0459154791114
 20
237.9166707143207
 30
0.0
 11
498.2533278217114
 21
237.9166707143207
 31
0.0
  0
LINE
  5
325
330
1F
100
AcDbEntity
  8
1
  6
Continuous
 62
    45
370
     9
100
AcDbLine
 10
499.0459154791114
 20
121.3808549333208
 30
0.0
 11
499.0459154791114
 21
237.9166707143207
 31
0.0
  0
LINE
  5
326
330
1F
100
AcDbEntity
  8
1
  6
Continuous
 62
    45
370
     9
100
AcDbLine
 10
499.0459154791114
 20
121.3808549333208
 30
0.0
 11
498.2533278217114
 21
121.3808549333208
 31
0.0
  0
LINE
  5
327
330
1F
100
AcDbEntity
  8
1
  6
Continuous
 62
    45
370
     9
100
AcDbLine
 10
494.9839078217113
 20
228.0093383717209
 30
0.0
 11
494.9839078217113
 21
231.4769030569208
 31
0.0
  0
LINE
  5
328
330
1F
100
AcDbEntity
  8
1
  6
Continuous
 62
    45
370
     9
100
AcDbLine
 10
496.2718631365113
 20
230.1889507143206
 30
0.0
 11
494.9839078217113
 21
230.1889507143206
 31
0.0
  0
LINE
  5
329
330
1F
100
AcDbEntity
  8
1
  6
Continuous
 62
    45
370
     9
100
AcDbLine
 10
496.2718631365113
 20
225.8297230569207
 30
0.0
 11
494.9839078217113
 21
225.8297230569207
 31
0.0
  0
ARC
  5
32A
330
1F
100
AcDbEntity
  8
1
  6
Continuous
 62
    45
370
     9
100
AcDbCircle
 10
494.4885431365113
 20
231.4769030569208
 30
0.0
 40
0.4953676574
100
AcDbArc
 50
0.0
 51
89.99999999999991
  0
ARC
  5
32B
330
1F
100
AcDbEntity
  8
1
  6
Continuous
 62
    45
370
     9
100
AcDbCircle
 10
494.4885431365113
 20
224.5417707143207
 30
0.0
 40
0.4953676574
100
AcDbArc
 50
269.9999999999998
 51
0.0
  0
LINE
  5
32C
330
1F
100
AcDbEntity
  8
1
  6
Continuous
 62
    45
370
     9
100
AcDbLine
 10
494.9839078217113
 20
228.0093383717209
 30
0.0
 11
494.9839078217113
 21
224.5417707143207
 31
0.0
  0
LINE
  5
32D
330
1F
100
AcDbEntity
  8
1
  6
Continuous
 62
    45
370
     9
100
AcDbLine
 10
375.1051754791114
 20
228.0093383717209
 30
0.0
 11
375.1051754791114
 21
231.4769030569208
 31
0.0
  0
LINE
  5
32E
330
1F
100
AcDbEntity
  8
1
  6
Continuous
 62
    45
370
     9
100
AcDbLine
 10
373.8172231365115
 20
230.1889507143206
 30
0.0
 11
375.1051754791114
 21
230.1889507143206
 31
0.0
  0
LINE
  5
32F
330
1F
100
AcDbEntity
  8
1
  6
Continuous
 62
    45
370
     9
100
AcDbLine
 10
373.8172231365115
 20
225.8297230569207
 30
0.0
 11
375.1051754791114
 21
225.8297230569207
 31
0.0
  0
ARC
  5
330
330
1F
100
AcDbEntity
  8
1
  6
Continuous
 62
    45
370
     9
100
AcDbCircle
 10
375.6005431365115
 20
231.4769030569208
 30
0.0
 40
0.4953676574
100
AcDbArc
 50
89.99999999999991
 51
179.9999999999998
  0
ARC
  5
331
330
1F
100
AcDbEntity
  8
1
  6
Continuous
 62
    45
370
     9
100
AcDbCircle
 10
375.6005431365115
 20
224.5417707143207
 30
0.0
 40
0.4953676574
100
AcDbArc
 50
179.9999999999998
 51
269.9999999999998
  0
LINE
  5
332
330
1F
100
AcDbEntity
  8
1
  6
Continuous
 62
    45
370
     9
100
AcDbLine
 10
375.1051754791114
 20
228.0093383717209
 30
0.0
 11
375.1051754791114
 21
224.5417707143207
 31
0.0
  0
LINE
  5
333
330
1F
100
AcDbEntity
  8
1
  6
Continuous
 62
    45
370
     9
100
AcDbLine
 10
373.8172231365113
 20
131.2543190569207
 30
0.0
 11
375.6005431365113
 21
131.2543190569207
 31
0.0
  0
LINE
  5
334
330
1F
100
AcDbEntity
  8
1
  6
Continuous
 62
    45
370
     9
100
AcDbLine
 10
496.2718631365113
 20
131.2543190569207
 30
0.0
 11
494.4885431365113
 21
131.2543190569207
 31
0.0
  0
LINE
  5
335
330
1F
100
AcDbEntity
  8
2
  6
Continuous
 62
    90
370
    18
100
AcDbLine
 10
496.2718631365113
 20
114.0750030569207
 30
0.0
 11
496.2718631365113
 21
235.9352030569208
 31
0.0
  0
DIMENSION
  5
341
330
1F
100
AcDbEntity
  8
6
  6
Continuous
 62
     7
370
     9
100
AcDbDimension
  2
Dim21
 10
341.0431678217114
 20
242.8703383717208
 30
0.0
 11
336.5431678217113
 21
178.4726707143207
 31
0.0
 70
   160
  1
<>
 71
     5
 42
-1.0
  3
Standard
100
AcDbAlignedDimension
 13
371.8357554791114
 23
242.8703383717208
 33
0.0
 14
371.8357554791112
 24
114.0750030569207
 34
0.0
 50
89.99999999999991
100
AcDbRotatedDimension
1001
ACAD
1000
DSTYLE
1002
{
1070
   344
1005
3C
1070
   343
1005
3C
1070
   173
1070
     1
1070
   289
1070
     2
1070
   279
1070
     2
1070
   288
1070
     1
1070
    77
1070
     3
1070
   172
1070
     1
1070
   174
1070
     0
1070
    74
1070
     0
1070
    73
1070
     0
1070
   284
1070
     8
1070
    78
1070
     8
1070
   140
1040
3.0
1070
    40
1040
3.0
1070
    42
1040
2.0
1070
    44
1040
1.0
1070
    43
1040
10.0
1070
   271
1070
     2
1070
    41
1040
2.0
1002
}
  0
LINE
  5
342
330
1F
100
AcDbEntity
  8
2
  6
Continuous
 62
    90
370
    18
100
AcDbLine
 10
371.8357554791114
 20
242.8703383717208
 30
0.0
 11
498.2533278217114
 21
242.8703383717208
 31
0.0
  0
LINE
  5
343
330
1F
100
AcDbEntity
  8
2
  6
Continuous
 62
    90
370
    18
100
AcDbLine
 10
373.8172231365115
 20
235.9352030569208
 30
0.0
 11
496.2718631365113
 21
235.9352030569208
 31
0.0
  0
LINE
  5
344
330
1F
100
AcDbEntity
  8
2
  6
Continuous
 62
    90
370
    18
100
AcDbLine
 10
389.8357554791114
 20
271.5469979462118
 30
0.0
 11
389.8357554791114
 21
244.0703383717212
 31
0.0
  0
LINE
  5
345
330
1F
100
AcDbEntity
  8
2
  6
Continuous
 62
    90
370
    18
100
AcDbLine
 10
479.8357554791115
 20
271.5469979462779
 30
0.0
 11
479.8357554791114
 21
244.0703383717208
 31
0.0
  0
LINE
  5
346
330
1F
100
AcDbEntity
  8
2
  6
Continuous
 62
    90
370
    18
100
AcDbLine
 10
459.8357554791115
 20
281.5469979462781
 30
0.0
 11
409.8357554791115
 21
281.5469979462782
 31
0.0
  0
ELLIPSE
  5
347
330
1F
100
AcDbEntity
  8
2
  6
Continuous
 62
    90
370
    18
100
AcDbEllipse
 10
409.8357554791114
 20
271.5469979462782
 30
0.0
 11
-20.0
 21
1.090307039623097E-13
 31
0.0
210
0.0
220
0.0
230
1.0
 40
0.5
 41
4.712388980384687
 42
6.283185307179586
  0
ELLIPSE
  5
348
330
1F
100
AcDbEntity
  8
2
  6
Continuous
 62
    90
370
    18
100
AcDbEllipse
 10
459.8357554791114
 20
271.5469979462781
 30
0.0
 11
20.0
 21
-1.292435659546069E-13
 31
0.0
210
0.0
220
0.0
230
1.0
 40
0.5
 41
0.0
 42
1.570796326794899
  0
ELLIPSE
  5
349
330
1F
100
AcDbEntity
  8
2
  6
Continuous
 62
    90
370
    18
100
AcDbEllipse
 10
463.8357554791114
 20
274.9790807627991
 30
0.0
 11
-5.25
 21
-5.659818001066025E-14
 31
0.0
210
0.0
220
0.0
230
1.0
 40
0.7071067789237792
 41
0.0
 42
3.14159265358979
  0
ELLIPSE
  5
34A
330
1F
100
AcDbEntity
  8
2
  6
Continuous
 62
    90
370
    18
100
AcDbEllipse
 10
463.8357554791114
 20
274.9790807627991
 30
0.0
 11
5.249999999997613
 21
-5.257818287676304E-14
 31
0.0
210
0.0
220
0.0
230
1.0
 40
0.8806426137197202
 41
0.0
 42
3.14159265358979
  0
ELLIPSE
  5
34B
330
1F
100
AcDbEntity
  8
1
  6
Continuous
 62
    45
370
     9
100
AcDbEllipse
 10
463.8357554791115
 20
276.8476490967884
 30
0.0
 11
3.904628603744868
 21
-3.910443367497732E-14
 31
0.0
210
0.0
220
0.0
230
1.0
 40
0.6043687199123099
 41
3.55890590328472
 42
5.865872057484681
  0
ELLIPSE
  5
34C
330
1F
100
AcDbEntity
  8
2
  6
Continuous
 62
    90
370
    18
100
AcDbEllipse
 10
405.8357551729601
 20
274.979080762799
 30
0.0
 11
5.25
 21
-5.828670879282072E-14
 31
0.0
210
0.0
220
0.0
230
1.0
 40
0.7071067789237792
 41
3.14159265358979
 42
6.283185307179586
  0
ELLIPSE
  5
34D
330
1F
100
AcDbEntity
  8
2
  6
Continuous
 62
    90
370
    18
100
AcDbEllipse
 10
405.8357551729601
 20
274.979080762799
 30
0.0
 11
-5.249999999997613
 21
-9.968812976399142E-15
 31
0.0
210
0.0
220
0.0
230
1.0
 40
0.8806426137197202
 41
3.14159265358979
 42
6.283185307179586
  0
ELLIPSE
  5
34E
330
1F
100
AcDbEntity
  8
1
  6
Continuous
 62
    45
370
     9
100
AcDbEllipse
 10
405.8357551729601
 20
276.8476490967883
 30
0.0
 11
-3.904628603744868
 21
-7.414192817723582E-15
 31
0.0
210
0.0
220
0.0
230
1.0
 40
0.6043687199123099
 41
0.4173132496949057
 42
2.724279403894866
  0
LINE
  5
34F
330
1F
100
AcDbEntity
  8
2
  6
Continuous
 62
    90
370
    18
100
AcDbLine
 10
372.0431678217114
 20
242.8703383717209
 30
0.0
 11
372.0431678217114
 21
244.070338371721
 31
0.0
  0
LINE
  5
350
330
1F
100
AcDbEntity
  8
2
  6
Continuous
 62
    90
370
    18
100
AcDbLine
 10
372.0431678217114
 20
244.070338371721
 30
0.0
 11
498.0459154791115
 21
244.0703383717208
 31
0.0
  0
LINE
  5
351
330
1F
100
AcDbEntity
  8
2
  6
Continuous
 62
    90
370
    18
100
AcDbLine
 10
498.0459154791115
 20
244.0703383717208
 30
0.0
 11
498.0459154791115
 21
242.8703383717208
 31
0.0
  0
DIMENSION
  5
35D
330
1F
100
AcDbEntity
  8
6
  6
Continuous
 62
     7
370
     9
100
AcDbDimension
  2
Dim22
 10
529.0459154791114
 20
113.2353119739204
 30
0.0
 11
524.5459154791115
 21
197.3911548291849
 31
0.0
 70
   160
  1
<>
 71
     5
 42
-1.0
  3
Standard
100
AcDbAlignedDimension
 13
498.143263036062
 23
113.2353119739207
 33
0.0
 14
465.9002970191775
 24
281.5469976844498
 34
0.0
 50
89.99999999999991
100
AcDbRotatedDimension
1001
ACAD
1000
DSTYLE
1002
{
1070
   344
1005
3C
1070
   343
1005
3C
1070
   173
1070
     1
1070
   289
1070
     2
1070
   279
1070
     2
1070
   288
1070
     1
1070
    77
1070
     3
1070
   172
1070
     1
1070
   174
1070
     0
1070
    74
1070
     0
1070
    73
1070
     0
1070
   284
1070
     8
1070
    78
1070
     8
1070
   140
1040
3.0
1070
    40
1040
3.0
1070
    42
1040
2.0
1070
    44
1040
1.0
1070
    43
1040
10.0
1070
   271
1070
     2
1070
    41
1040
2.0
1002
}
  0
LINE
  5
35E
330
1F
100
AcDbEntity
  8
8
  6
Continuous
 62
   171
370
    18
100
AcDbLine
 10
609.0
 20
219.2043750000008
 30
0.0
 11
609.0
 21
129.2043750000008
 31
0.0
  0
TEXT
  5
35F
330
1F
100
AcDbEntity
  8
8
  6
Continuous
 62
   171
370
     9
100
AcDbText
 10
639.0290533675089
 20
205.1533033734107
 30
0.0
 40
9.0
  1
色
 41
0.8000000000000002
100
AcDbText
  0
LINE
  5
360
330
1F
100
AcDbEntity
  8
8
  6
Continuous
 62
   171
370
    18
100
AcDbLine
 10
678.0
 20
219.2043750000008
 30
0.0
 11
678.0
 21
129.2043750000008
 31
0.0
  0
TEXT
  5
361
330
1F
100
AcDbEntity
  8
8
  6
Continuous
 62
   171
370
     9
100
AcDbText
 10
615.8553849348344
 20
169.8514007858474
 30
0.0
 40
9.0
  1
パステルアイボリー
 41
0.7000000000000001
100
AcDbText
  0
TEXT
  5
362
330
1F
100
AcDbEntity
  8
8
  6
Continuous
 62
   171
370
     9
100
AcDbText
 10
615.8553849348344
 20
187.6643117858478
 30
0.0
 40
9.0
  1
オフホワイト
 41
0.7000000000000001
100
AcDbText
  0
TEXT
  5
363
330
1F
100
AcDbEntity
  8
8
  6
Continuous
 62
   171
370
     9
100
AcDbText
 10
615.8553849348344
 20
152.0384777858475
 30
0.0
 40
9.0
  1
パステルピンク
 41
0.7000000000000001
100
AcDbText
  0
TEXT
  5
364
330
1F
100
AcDbEntity
  8
8
  6
Continuous
 62
   171
370
     9
100
AcDbText
 10
615.8553849348344
 20
134.0384777858475
 30
0.0
 40
9.0
  1
パステルブルー
 41
0.7000000000000001
100
AcDbText
  0
LINE
  5
365
330
1F
100
AcDbEntity
  8
8
  6
Continuous
 62
   171
370
    18
100
AcDbLine
 10
555.0
 20
219.2043750000008
 30
0.0
 11
555.0
 21
129.2043750000008
 31
0.0
  0
LINE
  5
366
330
1F
100
AcDbEntity
  8
8
  6
Continuous
 62
   171
370
    18
100
AcDbLine
 10
554.9999999999999
 20
201.2043750000008
 30
0.0
 11
678.0
 21
201.2043750000008
 31
0.0
  0
LINE
  5
367
330
1F
100
AcDbEntity
  8
8
  6
Continuous
 62
   171
370
    18
100
AcDbLine
 10
554.9999999999999
 20
219.2043750000008
 30
0.0
 11
678.0
 21
219.2043750000008
 31
0.0
  0
LINE
  5
368
330
1F
100
AcDbEntity
  8
8
  6
Continuous
 62
   171
370
    18
100
AcDbLine
 10
554.9999999999999
 20
183.2043750000008
 30
0.0
 11
678.0
 21
183.2043750000008
 31
0.0
  0
LINE
  5
369
330
1F
100
AcDbEntity
  8
8
  6
Continuous
 62
   171
370
    18
100
AcDbLine
 10
554.9999999999999
 20
165.2043750000008
 30
0.0
 11
678.0
 21
165.2043750000008
 31
0.0
  0
LINE
  5
36A
330
1F
100
AcDbEntity
  8
8
  6
Continuous
 62
   171
370
    18
100
AcDbLine
 10
554.9999999999999
 20
147.2043750000008
 30
0.0
 11
678.0
 21
147.2043750000008
 31
0.0
  0
LINE
  5
36B
330
1F
100
AcDbEntity
  8
8
  6
Continuous
 62
   171
370
    18
100
AcDbLine
 10
555.0
 20
129.2043750000008
 30
0.0
 11
678.0
 21
129.2043750000008
 31
0.0
  0
TEXT
  5
36C
330
1F
100
AcDbEntity
  8
8
  6
Continuous
 62
   171
370
     9
100
AcDbText
 10
571.2650971595427
 20
205.4984828746472
 30
0.0
 40
9.0
  1
品　番
 41
0.8000000000000002
100
AcDbText
  0
TEXT
  5
36D
330
1F
100
AcDbEntity
  8
8
  6
Continuous
 62
   171
370
     9
100
AcDbText
 10
558.713702337448
 20
223.4984828746472
 30
0.0
 40
10.5
  1
品　番　表
100
AcDbText
  0
TEXT
  5
36E
330
1F
100
AcDbEntity
  8
8
  6
Continuous
 62
   171
370
     9
100
AcDbText
 10
709.4999999999999
 20
205.7043750000008
 30
0.0
 40
9.000000000000002
  1
名　称
100
AcDbText
  0
TEXT
  5
36F
330
1F
100
AcDbEntity
  8
8
  6
Continuous
 62
   171
370
     9
100
AcDbText
 10
696.713702337448
 20
223.4984828746472
 30
0.0
 40
10.5
  1
材　質　表
100
AcDbText
  0
TEXT
  5
370
330
1F
100
AcDbEntity
  8
8
  6
Continuous
 62
   171
370
     9
100
AcDbText
 10
695.9999999999999
 20
187.7043750000008
 30
0.0
 40
9.000000000000002
  1
ﾍﾟｰﾊﾟｰﾎﾙﾀﾞｰ本体
 41
0.7999999999999997
100
AcDbText
  0
TEXT
  5
371
330
1F
100
AcDbEntity
  8
8
  6
Continuous
 62
   171
370
     9
100
AcDbText
 10
708.5999999999999
 20
169.7043750000008
 30
0.0
 40
9.000000000000002
  1
固定金具
 41
0.7999999999999997
100
AcDbText
  0
TEXT
  5
372
330
1F
100
AcDbEntity
  8
8
  6
Continuous
 62
   171
370
     9
100
AcDbText
 10
784.4999999999998
 20
205.7043750000008
 30
0.0
 40
9.000000000000002
  1
材　質
100
AcDbText
  0
LINE
  5
373
330
1F
100
AcDbEntity
  8
8
  6
Continuous
 62
   171
370
    18
100
AcDbLine
 10
693.0
 20
165.2043750000008
 30
0.0
 11
842.9999999999998
 21
165.2043750000008
 31
0.0
  0
LINE
  5
374
330
1F
100
AcDbEntity
  8
8
  6
Continuous
 62
   171
370
    18
100
AcDbLine
 10
693.0
 20
183.2043750000008
 30
0.0
 11
842.9999999999998
 21
183.2043750000008
 31
0.0
  0
LINE
  5
375
330
1F
100
AcDbEntity
  8
8
  6
Continuous
 62
   171
370
    18
100
AcDbLine
 10
693.0
 20
219.2043750000008
 30
0.0
 11
842.9999999999998
 21
219.2043750000008
 31
0.0
  0
LINE
  5
376
330
1F
100
AcDbEntity
  8
8
  6
Continuous
 62
   171
370
    18
100
AcDbLine
 10
693.0
 20
201.2043750000008
 30
0.0
 11
842.9999999999998
 21
201.2043750000008
 31
0.0
  0
TEXT
  5
377
330
1F
100
AcDbEntity
  8
8
  6
Continuous
 62
   171
370
     9
100
AcDbText
 10
754.7999999999997
 20
187.7043750000008
 30
0.0
 40
9.000000000000002
  1
ＡＢＳ樹脂＋ウレタン樹脂
 41
0.7999999999999997
100
AcDbText
  0
LINE
  5
378
330
1F
100
AcDbEntity
  8
8
  6
Continuous
 62
   171
370
    18
100
AcDbLine
 10
693.0
 20
165.2043750000007
 30
0.0
 11
693.0
 21
219.2043750000008
 31
0.0
  0
LINE
  5
379
330
1F
100
AcDbEntity
  8
8
  6
Continuous
 62
   171
370
    18
100
AcDbLine
 10
752.9999999999999
 20
165.2043750000008
 30
0.0
 11
752.9999999999999
 21
219.2043750000008
 31
0.0
  0
LINE
  5
37A
330
1F
100
AcDbEntity
  8
8
  6
Continuous
 62
   171
370
    18
100
AcDbLine
 10
842.9999999999998
 20
165.2043750000009
 30
0.0
 11
842.9999999999998
 21
219.2043750000008
 31
0.0
  0
TEXT
  5
37B
330
1F
100
AcDbEntity
  8
8
  6
Continuous
 62
   171
370
     9
100
AcDbText
 10
765.5999999999999
 20
169.7043750000008
 30
0.0
 40
9.000000000000002
  1
ＳＵＳ＋ゴム(EPDM)
 41
0.7999999999999997
100
AcDbText
  0
TEXT
  5
37C
330
1F
100
AcDbEntity
  8
8
  6
Continuous
 62
   171
370
     9
100
AcDbText
 10
560.0469629629631
 20
187.3403803734108
 30
0.0
 40
9.0
  1
ＰＲ－１Ａ－Ｓ
 41
0.7000000000000001
100
AcDbText
  0
TEXT
  5
37D
330
1F
100
AcDbEntity
  8
8
  6
Continuous
 62
   171
370
     9
100
AcDbText
 10
560.0469629629631
 20
169.5274663734104
 30
0.0
 40
9.0
  1
ＰＲ－１Ａ－ｉ
 41
0.7000000000000001
100
AcDbText
  0
TEXT
  5
37E
330
1F
100
AcDbEntity
  8
8
  6
Continuous
 62
   171
370
     9
100
AcDbText
 10
560.0469629629631
 20
151.7145433734105
 30
0.0
 40
9.0
  1
ＰＲ－１Ａ－Ｐ
 41
0.7000000000000001
100
AcDbText
  0
TEXT
  5
37F
330
1F
100
AcDbEntity
  8
8
  6
Continuous
 62
   171
370
     9
100
AcDbText
 10
560.046962962963
 20
133.7145433734105
 30
0.0
 40
9.0
  1
ＰＲ－１Ａ－Ａ
 41
0.7000000000000001
100
AcDbText
  0
LINE
  5
380
330
1F
100
AcDbEntity
  8
8
  6
Continuous
 62
   171
370
    18
100
AcDbLine
 10
855.0
 20
565.5
 30
0.0
 11
534.0
 21
565.5
 31
0.0
  0
TEXT
  5
381
330
1F
100
AcDbEntity
  8
8
  6
Continuous
 62
   171
370
     9
100
AcDbText
 10
537.0
 20
566.9999999999999
 30
0.0
 40
7.500000000000001
  1
記号
100
AcDbText
  0
TEXT
  5
382
330
1F
100
AcDbEntity
  8
8
  6
Continuous
 62
   171
370
     9
100
AcDbText
 10
598.125
 20
567.0
 30
0.0
 40
7.500000000000001
  1
訂　 正　 記　 事
100
AcDbText
  0
TEXT
  5
383
330
1F
100
AcDbEntity
  8
8
  6
Continuous
 62
   171
370
     9
100
AcDbText
 10
708.75
 20
567.0
 30
0.0
 40
7.500000000000001
  1
訂 正 年 月 日
100
AcDbText
  0
TEXT
  5
384
330
1F
100
AcDbEntity
  8
8
  6
Continuous
 62
   171
370
     9
100
AcDbText
 10
783.75
 20
567.0
 30
0.0
 40
7.500000000000001
  1
備　　　　　考
100
AcDbText
  0
LINE
  5
385
330
1F
100
AcDbEntity
  8
8
  6
Continuous
 62
   171
370
    18
100
AcDbLine
 10
855.0
 20
555.0
 30
0.0
 11
534.0
 21
555.0
 31
0.0
  0
LINE
  5
386
330
1F
100
AcDbEntity
  8
8
  6
Continuous
 62
   171
370
    18
100
AcDbLine
 10
534.0
 20
555.0
 30
0.0
 11
534.0
 21
575.9999999999994
 31
0.0
  0
LINE
  5
387
330
1F
100
AcDbEntity
  8
8
  6
Continuous
 62
   171
370
    18
100
AcDbLine
 10
555.0
 20
555.0
 30
0.0
 11
555.0
 21
575.9999999999997
 31
0.0
  0
LINE
  5
388
330
1F
100
AcDbEntity
  8
8
  6
Continuous
 62
   171
370
    18
100
AcDbLine
 10
705.0
 20
555.0
 30
0.0
 11
705.0
 21
575.9999999999997
 31
0.0
  0
LINE
  5
389
330
1F
100
AcDbEntity
  8
8
  6
Continuous
 62
   171
370
    18
100
AcDbLine
 10
765.0
 20
555.0
 30
0.0
 11
765.0
 21
575.9999999999997
 31
0.0
  0
TEXT
  5
38A
330
1F
100
AcDbEntity
  8
8
  6
Continuous
 62
   171
370
     9
100
AcDbText
 10
563.3102222222221
 20
556.5
 30
0.0
 40
7.500000000000001
  1
品番・色記号変更
100
AcDbText
  0
TEXT
  5
38B
330
1F
100
AcDbEntity
  8
8
  6
Continuous
 62
   171
370
     9
100
AcDbText
 10
708.0
 20
556.5
 30
0.0
 40
7.500000000000001
  1
２０１３．０３．１３
 41
0.72
100
AcDbText
  0
VIEWPORT
  5
2A
330
1B
100
AcDbEntity
 67
     1
  8
0
100
AcDbViewport
 10
445.5
 20
315.0
 30
0.0
 40
891.0
 41
630.0
 68
     1
 69
     1
 12
445.5
 22
315.0
 13
0.0
 23
0.0
 14
0.5
 24
0.5
 15
0.5
 25
0.5
 16
0.0
 26
0.0
 36
1.0
 17
0.0
 27
0.0
 37
0.0
 42
50.0
 43
0.0
 44
0.0
 45
9.0
 50
0.0
 51
0.0
 72
   100
 90
    32800
  1

281
     0
 71
     1
 74
     0
110
0.0
120
0.0
130
0.0
111
1.0
121
0.0
131
0.0
112
0.0
122
1.0
132
0.0
 79
     0
146
0.0
170
     0
  0
ENDSEC
  0
SECTION
  2
OBJECTS
  0
DICTIONARY
  5
C
330
0
100
AcDbDictionary
281
     1
  3
ACAD_GROUP
350
D
  3
ACAD_LAYOUT
350
1A
  3
ACAD_MLINESTYLE
350
17
  3
ACAD_PLOTSETTINGS
350
19
  3
ACAD_PLOTSTYLENAME
350
E
  0
DICTIONARY
  5
D
102
{ACAD_REACTORS
330
C
102
}
330
C
100
AcDbDictionary
281
     1
  0
DICTIONARY
  5
1A
102
{ACAD_REACTORS
330
C
102
}
330
C
100
AcDbDictionary
281
     1
  3
Layout1
350
1E
  3
Layout2
350
26
  3
Model
350
22
  0
DICTIONARY
  5
17
102
{ACAD_REACTORS
330
C
102
}
330
C
100
AcDbDictionary
281
     1
  3
Standard
350
18
  0
DICTIONARY
  5
19
102
{ACAD_REACTORS
330
C
102
}
330
C
100
AcDbDictionary
281
     1
  0
ACDBDICTIONARYWDFLT
  5
E
102
{ACAD_REACTORS
330
C
102
}
330
C
100
AcDbDictionary
281
     1
  3
Normal
350
F
100
AcDbDictionaryWithDefault
340
F
  0
LAYOUT
  5
1E
102
{ACAD_REACTORS
330
1A
102
}
330
1A
100
AcDbPlotSettings
  1

  2

  4

  6

 40
0.0
 41
0.0
 42
0.0
 43
0.0
 44
0.0
 45
0.0
 46
0.0
 47
0.0
 48
0.0
 49
0.0
140
0.0
141
0.0
142
1.0
143
1.0
 70
   688
 72
     0
 73
     0
 74
     5
  7

 75
    16
 76
     0
 77
     2
 78
   300
147
1.0
148
0.0
149
0.0
100
AcDbLayout
  1
Layout1
 70
     1
 71
     1
 10
0.0
 20
0.0
 11
297.0
 21
210.0
 12
0.0
 22
0.0
 32
0.0
 14
0.0
 24
0.0
 34
0.0
 15
297.0
 25
210.0
 35
0.0
146
0.0
 13
0.0
 23
0.0
 33
0.0
 16
1.0
 26
0.0
 36
0.0
 17
0.0
 27
1.0
 37
0.0
 76
     0
330
1B
331
2A
  0
LAYOUT
  5
26
102
{ACAD_REACTORS
330
1A
102
}
330
1A
100
AcDbPlotSettings
  1

  2

  4

  6

 40
0.0
 41
0.0
 42
0.0
 43
0.0
 44
0.0
 45
0.0
 46
0.0
 47
0.0
 48
0.0
 49
0.0
140
0.0
141
0.0
142
1.0
143
1.0
 70
   688
 72
     0
 73
     0
 74
     5
  7

 75
    16
 76
     0
 77
     2
 78
   300
147
1.0
148
0.0
149
0.0
100
AcDbLayout
  1
Layout2
 70
     1
 71
     2
 10
0.0
 20
0.0
 11
0.0
 21
0.0
 12
0.0
 22
0.0
 32
0.0
 14
0.0
 24
0.0
 34
0.0
 15
0.0
 25
0.0
 35
0.0
146
0.0
 13
0.0
 23
0.0
 33
0.0
 16
1.0
 26
0.0
 36
0.0
 17
0.0
 27
1.0
 37
0.0
 76
     0
330
23
  0
LAYOUT
  5
22
102
{ACAD_REACTORS
330
1A
102
}
330
1A
100
AcDbPlotSettings
  1

  2

  4

  6

 40
0.0
 41
0.0
 42
0.0
 43
0.0
 44
0.0
 45
0.0
 46
0.0
 47
0.0
 48
0.0
 49
0.0
140
0.0
141
0.0
142
1.0
143
1.0
 70
  1712
 72
     0
 73
     0
 74
     0
  7

 75
     0
 76
     0
 77
     2
 78
   300
147
1.0
148
0.0
149
0.0
100
AcDbLayout
  1
Model
 70
     1
 71
     0
 10
0.0
 20
0.0
 11
891.0
 21
630.0
 12
0.0
 22
0.0
 32
0.0
 14
0.0
 24
0.0
 34
0.0
 15
891.0
 25
630.0
 35
0.0
146
0.0
 13
0.0
 23
0.0
 33
0.0
 16
1.0
 26
0.0
 36
0.0
 17
0.0
 27
1.0
 37
0.0
 76
     0
330
1F
  0
MLINESTYLE
  5
18
102
{ACAD_REACTORS
330
17
102
}
330
17
100
AcDbMlineStyle
  2
Standard
 70
     0
  3

 62
   256
 51
90.0
 52
90.0
 71
     2
 49
0.5
 62
   256
  6
BYLAYER
 49
-0.5
 62
   256
  6
BYLAYER
  0
ACDBPLACEHOLDER
  5
F
102
{ACAD_REACTORS
330
E
102
}
330
E
  0
ENDSEC
  0
EOF
