  0
SECTION
  2
HEADER
  9
$ACADVER
  1
AC1018
  9
$ACADMAINTVER
 70
     0
  9
$DWGCODEPAGE
  3
ANSI_932
  9
$INSBASE
 10
0.0
 20
0.0
 30
0.0
  9
$EXTMIN
 10
0.0
 20
0.0
 30
0.0
  9
$EXTMAX
 10
2376.0
 20
1680.0
 30
0.0
  9
$LIMMIN
 10
0.0
 20
0.0
  9
$LIMMAX
 10
2376.0
 20
1680.0
  9
$ORTHOMODE
 70
     0
  9
$REGENMODE
 70
     1
  9
$FILLMODE
 70
     1
  9
$QTEXTMODE
 70
     0
  9
$MIRRTEXT
 70
     1
  9
$LTSCALE
 40
2.0
  9
$ATTMODE
 70
     1
  9
$TEXTSIZE
 40
24.0
  9
$TRACEWID
 40
0.05
  9
$TEXTSTYLE
  7
Standard
  9
$CLAYER
  8
0
  9
$CELTYPE
  6
ByLayer
  9
$CECOLOR
 62
   256
  9
$CELTSCALE
 40
1.0
  9
$DISPSILH
 70
     0
  9
$DIMSCALE
 40
8.0
  9
$DIMASZ
 40
2.0
  9
$DIMEXO
 40
2.0
  9
$DIMDLI
 40
10.0
  9
$DIMRND
 40
0.0
  9
$DIMDLE
 40
0.0
  9
$DIMEXE
 40
1.0
  9
$DIMTP
 40
0.0
  9
$DIMTM
 40
0.0
  9
$DIMTXT
 40
3.0
  9
$DIMCEN
 40
0.09
  9
$DIMTSZ
 40
0.0
  9
$DIMTOL
 70
     0
  9
$DIMLIM
 70
     0
  9
$DIMTIH
 70
     0
  9
$DIMTOH
 70
     0
  9
$DIMSE1
 70
     0
  9
$DIMSE2
 70
     0
  9
$DIMTAD
 70
     3
  9
$DIMZIN
 70
     8
  9
$DIMBLK
  1

  9
$DIMASO
 70
     1
  9
$DIMSHO
 70
     1
  9
$DIMPOST
  1

  9
$DIMAPOST
  1

  9
$DIMALT
 70
     0
  9
$DIMALTD
 70
     2
  9
$DIMALTF
 40
25.4
  9
$DIMLFAC
 40
1.0
  9
$DIMTOFL
 70
     1
  9
$DIMTVP
 40
0.7
  9
$DIMTIX
 70
     0
  9
$DIMSOXD
 70
     0
  9
$DIMSAH
 70
     0
  9
$DIMBLK1
  1

  9
$DIMBLK2
  1

  9
$DIMSTYLE
  2
Standard
  9
$DIMCLRD
 70
     0
  9
$DIMCLRE
 70
     0
  9
$DIMCLRT
 70
     0
  9
$DIMTFAC
 40
0.5
  9
$DIMGAP
 40
0.09
  9
$DIMJUST
 70
     0
  9
$DIMSD1
 70
     0
  9
$DIMSD2
 70
     0
  9
$DIMTOLJ
 70
     1
  9
$DIMTZIN
 70
     8
  9
$DIMALTZ
 70
     0
  9
$DIMALTTZ
 70
     0
  9
$DIMUPT
 70
     1
  9
$DIMDEC
 70
     2
  9
$DIMTDEC
 70
     4
  9
$DIMALTU
 70
     2
  9
$DIMALTTD
 70
     2
  9
$DIMTXSTY
  7
Standard
  9
$DIMAUNIT
 70
     0
  9
$DIMADEC
 70
     0
  9
$DIMALTRND
 40
0.0
  9
$DIMAZIN
 70
     0
  9
$DIMDSEP
 70
    46
  9
$DIMATFIT
 70
     2
  9
$DIMFRAC
 70
     0
  9
$DIMLDRBLK
  1

  9
$DIMLUNIT
 70
     2
  9
$DIMLWD
 70
    -2
  9
$DIMLWE
 70
    -2
  9
$DIMTMOVE
 70
     2
  9
$LUNITS
 70
     2
  9
$LUPREC
 70
     4
  9
$SKETCHINC
 40
0.1
  9
$FILLETRAD
 40
0.5
  9
$AUNITS
 70
     0
  9
$AUPREC
 70
     0
  9
$MENU
  1
.
  9
$ELEVATION
 40
0.0
  9
$PELEVATION
 40
0.0
  9
$THICKNESS
 40
0.0
  9
$LIMCHECK
 70
     0
  9
$CHAMFERA
 40
0.5
  9
$CHAMFERB
 40
0.5
  9
$CHAMFERC
 40
1.0
  9
$CHAMFERD
 40
0.0
  9
$SKPOLY
 70
     0
  9
$TDCREATE
 40
2456421.934131945
  9
$TDUCREATE
 40
2456421.559131945
  9
$TDUPDATE
 40
2456421.934131945
  9
$TDUUPDATE
 40
2456421.559131945
  9
$TDINDWG
 40
0.0000000116
  9
$TDUSRTIMER
 40
0.0000000116
  9
$USRTIMER
 70
     1
  9
$ANGBASE
 50
0.0
  9
$ANGDIR
 70
     0
  9
$PDMODE
 70
     0
  9
$PDSIZE
 40
0.0
  9
$PLINEWID
 40
0.0
  9
$SPLFRAME
 70
     0
  9
$SPLINETYPE
 70
     6
  9
$SPLINESEGS
 70
     8
  9
$HANDSEED
  5
35C
  9
$SURFTAB1
 70
     6
  9
$SURFTAB2
 70
     6
  9
$SURFTYPE
 70
     6
  9
$SURFU
 70
     6
  9
$SURFV
 70
     6
  9
$UCSBASE
  2

  9
$UCSNAME
  2

  9
$UCSORG
 10
0.0
 20
0.0
 30
0.0
  9
$UCSXDIR
 10
1.0
 20
0.0
 30
0.0
  9
$UCSYDIR
 10
0.0
 20
1.0
 30
0.0
  9
$UCSORTHOREF
  2

  9
$UCSORTHOVIEW
 70
     0
  9
$UCSORGTOP
 10
0.0
 20
0.0
 30
0.0
  9
$UCSORGBOTTOM
 10
0.0
 20
0.0
 30
0.0
  9
$UCSORGLEFT
 10
0.0
 20
0.0
 30
0.0
  9
$UCSORGRIGHT
 10
0.0
 20
0.0
 30
0.0
  9
$UCSORGFRONT
 10
0.0
 20
0.0
 30
0.0
  9
$UCSORGBACK
 10
0.0
 20
0.0
 30
0.0
  9
$PUCSBASE
  2

  9
$PUCSNAME
  2

  9
$PUCSORG
 10
0.0
 20
0.0
 30
0.0
  9
$PUCSXDIR
 10
1.0
 20
0.0
 30
0.0
  9
$PUCSYDIR
 10
0.0
 20
1.0
 30
0.0
  9
$PUCSORTHOREF
  2

  9
$PUCSORTHOVIEW
 70
     0
  9
$PUCSORGTOP
 10
0.0
 20
0.0
 30
0.0
  9
$PUCSORGBOTTOM
 10
0.0
 20
0.0
 30
0.0
  9
$PUCSORGLEFT
 10
0.0
 20
0.0
 30
0.0
  9
$PUCSORGRIGHT
 10
0.0
 20
0.0
 30
0.0
  9
$PUCSORGFRONT
 10
0.0
 20
0.0
 30
0.0
  9
$PUCSORGBACK
 10
0.0
 20
0.0
 30
0.0
  9
$USERI1
 70
     0
  9
$USERI2
 70
     0
  9
$USERI3
 70
     0
  9
$USERI4
 70
     0
  9
$USERI5
 70
     0
  9
$USERR1
 40
0.0
  9
$USERR2
 40
0.0
  9
$USERR3
 40
0.0
  9
$USERR4
 40
0.0
  9
$USERR5
 40
0.0
  9
$WORLDVIEW
 70
     1
  9
$SHADEDGE
 70
     3
  9
$SHADEDIF
 70
    70
  9
$TILEMODE
 70
     1
  9
$MAXACTVP
 70
    64
  9
$PINSBASE
 10
0.0
 20
0.0
 30
0.0
  9
$PLIMCHECK
 70
     0
  9
$PEXTMIN
 10
0.0
 20
0.0
 30
0.0
  9
$PEXTMAX
 10
297.0
 20
210.0
 30
0.0
  9
$PLIMMIN
 10
0.0
 20
0.0
  9
$PLIMMAX
 10
297.0
 20
210.0
  9
$UNITMODE
 70
     0
  9
$VISRETAIN
 70
     1
  9
$PLINEGEN
 70
     0
  9
$PSLTSCALE
 70
     1
  9
$TREEDEPTH
 70
  3020
  9
$CMLSTYLE
  2
Standard
  9
$CMLJUST
 70
     0
  9
$CMLSCALE
 40
1.0
  9
$PROXYGRAPHICS
 70
     1
  9
$MEASUREMENT
 70
     1
  9
$CELWEIGHT
370
    -1
  9
$ENDCAPS
280
     0
  9
$JOINSTYLE
280
     0
  9
$LWDISPLAY
290
     0
  9
$INSUNITS
 70
     4
  9
$HYPERLINKBASE
  1

  9
$STYLESHEET
  1

  9
$XEDIT
290
     1
  9
$CEPSNTYPE
380
     0
  9
$PSTYLEMODE
290
     1
  9
$FINGERPRINTGUID
  2
{610C10D1-0BF7-4426-AB79-C821A4E96C45}
  9
$VERSIONGUID
  2
{FAEB1C32-E019-11D5-929B-00C0DF256EC4}
  9
$EXTNAMES
290
     1
  9
$PSVPSCALE
 40
0.0
  9
$OLESTARTUP
290
     0
  9
$SORTENTS
280
   127
  9
$INDEXCTL
280
     0
  9
$HIDETEXT
280
     1
  9
$XCLIPFRAME
290
     0
  9
$HALOGAP
280
     0
  9
$OBSCOLOR
 70
   257
  9
$OBSLTYPE
280
     0
  9
$INTERSECTIONDISPLAY
280
     0
  9
$INTERSECTIONCOLOR
 70
   257
  9
$DIMASSOC
280
     1
  9
$PROJECTNAME
  1

  0
ENDSEC
  0
SECTION
  2
CLASSES
  0
CLASS
  1
ACDBDICTIONARYWDFLT
  2
AcDbDictionaryWithDefault
  3
ObjectDBX Classes
 90
        0
 91
        3
280
     0
281
     0
  0
ENDSEC
  0
SECTION
  2
TABLES
  0
TABLE
  2
VPORT
  5
8
330
0
100
AcDbSymbolTable
 70
     1
  0
VPORT
  5
29
330
8
100
AcDbSymbolTableRecord
100
AcDbViewportTableRecord
  2
*Active
 70
     0
 10
0.0
 20
0.0
 11
1.0
 21
1.0
 12
10.42990654205607
 22
4.5
 13
0.0
 23
0.0
 14
0.5
 24
0.5
 15
0.5
 25
0.5
 16
0.0
 26
0.0
 36
1.0
 17
0.0
 27
0.0
 37
0.0
 40
9.0
 41
1.972972972850329
 42
50.0
 43
0.0
 44
0.0
 50
0.0
 51
0.0
 71
     0
 72
   100
 73
     1
 74
     3
 75
     0
 76
     0
 77
     0
 78
     0
281
     0
 65
     1
110
0.0
120
0.0
130
0.0
111
1.0
121
0.0
131
0.0
112
0.0
122
1.0
132
0.0
 79
     0
146
0.0
  0
ENDTAB
  0
TABLE
  2
LTYPE
  5
5
330
0
100
AcDbSymbolTable
 70
     9
  0
LTYPE
  5
14
330
5
100
AcDbSymbolTableRecord
100
AcDbLinetypeTableRecord
  2
ByBlock
 70
     0
  3

 72
    65
 73
     0
 40
0.0
  0
LTYPE
  5
15
330
5
100
AcDbSymbolTableRecord
100
AcDbLinetypeTableRecord
  2
ByLayer
 70
     0
  3

 72
    65
 73
     0
 40
0.0
  0
LTYPE
  5
16
330
5
100
AcDbSymbolTableRecord
100
AcDbLinetypeTableRecord
  2
Continuous
 70
     0
  3
Solid line
 72
    65
 73
     0
 40
0.0
  0
LTYPE
  5
68
330
5
100
AcDbSymbolTableRecord
100
AcDbLinetypeTableRecord
  2
DOT
 70
     0
  3
DOT
 72
    65
 73
     2
 40
4.0
 49
6.0
 74
     0
 49
-2.0
 74
     0
  0
LTYPE
  5
69
330
5
100
AcDbSymbolTableRecord
100
AcDbLinetypeTableRecord
  2
HIDDEN
 70
     0
  3
HIDDEN
 72
    65
 73
     2
 40
4.2
 49
8.4
 74
     0
 49
-4.2
 74
     0
  0
LTYPE
  5
6A
330
5
100
AcDbSymbolTableRecord
100
AcDbLinetypeTableRecord
  2
DASHDOT
 70
     0
  3
DASHDOT
 72
    65
 73
     4
 40
14.5
 49
30.0
 74
     0
 49
-9.0
 74
     0
 49
2.5
 74
     0
 49
-9.0
 74
     0
  0
LTYPE
  5
6B
330
5
100
AcDbSymbolTableRecord
100
AcDbLinetypeTableRecord
  2
PHANTOM
 70
     0
  3
PHANTOM
 72
    65
 73
     6
 40
12.0
 49
30.0
 74
     0
 49
-9.0
 74
     0
 49
2.5
 74
     0
 49
-5.0
 74
     0
 49
2.5
 74
     0
 49
-9.0
 74
     0
  0
LTYPE
  5
6C
330
5
100
AcDbSymbolTableRecord
100
AcDbLinetypeTableRecord
  2
ACAD_ISO14W100
 70
     0
  3
ACAD_ISO14W100
 72
    65
 73
     8
 40
1.5
 49
12.0
 74
     0
 49
-3.0
 74
     0
 49
0.5
 74
     0
 49
-3.0
 74
     0
 49
0.5
 74
     0
 49
-3.0
 74
     0
 49
0.5
 74
     0
 49
-3.0
 74
     0
  0
LTYPE
  5
6D
330
5
100
AcDbSymbolTableRecord
100
AcDbLinetypeTableRecord
  2
ACAD_ISO06W100
 70
     0
  3
ACAD_ISO06W100
 72
    65
 73
     8
 40
13.5
 49
24.0
 74
     0
 49
-3.0
 74
     0
 49
0.5
 74
     0
 49
-3.0
 74
     0
 49
0.5
 74
     0
 49
-3.0
 74
     0
 49
0.5
 74
     0
 49
-3.0
 74
     0
  0
LTYPE
  5
6E
330
5
100
AcDbSymbolTableRecord
100
AcDbLinetypeTableRecord
  2
ACAD_ISO11W100
 70
     0
  3
ACAD_ISO11W100
 72
    65
 73
     6
 40
15.5
 49
12.0
 74
     0
 49
-3.0
 74
     0
 49
12.0
 74
     0
 49
-3.0
 74
     0
 49
0.5
 74
     0
 49
-3.0
 74
     0
  0
LTYPE
  5
6F
330
5
100
AcDbSymbolTableRecord
100
AcDbLinetypeTableRecord
  2
ACAD_ISO13W100
 70
     0
  3
ACAD_ISO13W100
 72
    65
 73
     8
 40
13.0
 49
12.0
 74
     0
 49
-3.0
 74
     0
 49
12.0
 74
     0
 49
-3.0
 74
     0
 49
0.5
 74
     0
 49
-3.0
 74
     0
 49
0.5
 74
     0
 49
-3.0
 74
     0
  0
ENDTAB
  0
TABLE
  2
LAYER
  5
2
330
0
100
AcDbSymbolTable
 70
    38
  0
LAYER
  5
10
330
2
100
AcDbSymbolTableRecord
100
AcDbLayerTableRecord
  2
0
 70
     0
 62
     7
  6
Continuous
370
    -3
390
F
  0
LAYER
  5
70
330
2
100
AcDbSymbolTableRecord
100
AcDbLayerTableRecord
  2
1
 70
     0
 62
    45
  6
Continuous
370
    -3
390
F
  0
LAYER
  5
71
330
2
100
AcDbSymbolTableRecord
100
AcDbLayerTableRecord
  2
2
 70
     0
 62
    90
  6
Continuous
370
    -3
390
F
  0
LAYER
  5
72
330
2
100
AcDbSymbolTableRecord
100
AcDbLayerTableRecord
  2
3
 70
     0
 62
     6
  6
Continuous
370
    -3
390
F
  0
LAYER
  5
73
330
2
100
AcDbSymbolTableRecord
100
AcDbLayerTableRecord
  2
4
 70
     0
 62
    30
  6
Continuous
370
    -3
390
F
  0
LAYER
  5
74
330
2
100
AcDbSymbolTableRecord
100
AcDbLayerTableRecord
  2
5
 70
     0
 62
     2
  6
Continuous
370
    -3
390
F
  0
LAYER
  5
75
330
2
100
AcDbSymbolTableRecord
100
AcDbLayerTableRecord
  2
6
 70
     0
 62
     7
  6
Continuous
370
    -3
390
F
  0
LAYER
  5
76
330
2
100
AcDbSymbolTableRecord
100
AcDbLayerTableRecord
  2
7
 70
     0
 62
   132
  6
Continuous
370
    -3
390
F
  0
LAYER
  5
77
330
2
100
AcDbSymbolTableRecord
100
AcDbLayerTableRecord
  2
8
 70
     0
 62
   171
  6
Continuous
370
    -3
390
F
  0
LAYER
  5
78
330
2
100
AcDbSymbolTableRecord
100
AcDbLayerTableRecord
  2
9
 70
     0
 62
   170
  6
Continuous
370
    -3
390
F
  0
LAYER
  5
79
330
2
100
AcDbSymbolTableRecord
100
AcDbLayerTableRecord
  2
10
 70
     0
 62
   172
  6
Continuous
370
    -3
390
F
  0
LAYER
  5
7A
330
2
100
AcDbSymbolTableRecord
100
AcDbLayerTableRecord
  2
11
 70
     0
 62
    16
  6
Continuous
370
    -3
390
F
  0
LAYER
  5
7B
330
2
100
AcDbSymbolTableRecord
100
AcDbLayerTableRecord
  2
12
 70
     0
 62
   136
  6
Continuous
370
    -3
390
F
  0
LAYER
  5
7C
330
2
100
AcDbSymbolTableRecord
100
AcDbLayerTableRecord
  2
13
 70
     0
 62
   216
  6
Continuous
370
    -3
390
F
  0
LAYER
  5
7D
330
2
100
AcDbSymbolTableRecord
100
AcDbLayerTableRecord
  2
14
 70
     0
 62
     7
  6
Continuous
370
    -3
390
F
  0
LAYER
  5
7E
330
2
100
AcDbSymbolTableRecord
100
AcDbLayerTableRecord
  2
15
 70
     0
 62
    14
  6
Continuous
370
    -3
390
F
  0
LAYER
  5
7F
330
2
100
AcDbSymbolTableRecord
100
AcDbLayerTableRecord
  2
16
 70
     0
 62
    94
  6
Continuous
370
    -3
390
F
  0
LAYER
  5
80
330
2
100
AcDbSymbolTableRecord
100
AcDbLayerTableRecord
  2
17
 70
     0
 62
   230
  6
Continuous
370
    -3
390
F
  0
LAYER
  5
81
330
2
100
AcDbSymbolTableRecord
100
AcDbLayerTableRecord
  2
18
 70
     0
 62
     7
  6
Continuous
370
    -3
390
F
  0
LAYER
  5
82
330
2
100
AcDbSymbolTableRecord
100
AcDbLayerTableRecord
  2
19
 70
     0
 62
    52
  6
Continuous
370
    -3
390
F
  0
LAYER
  5
83
330
2
100
AcDbSymbolTableRecord
100
AcDbLayerTableRecord
  2
20
 70
     0
 62
   134
  6
Continuous
370
    -3
390
F
  0
LAYER
  5
84
330
2
100
AcDbSymbolTableRecord
100
AcDbLayerTableRecord
  2
21
 70
     0
 62
   214
  6
Continuous
370
    -3
390
F
  0
LAYER
  5
85
330
2
100
AcDbSymbolTableRecord
100
AcDbLayerTableRecord
  2
22
 70
     0
 62
     7
  6
Continuous
370
    -3
390
F
  0
LAYER
  5
86
330
2
100
AcDbSymbolTableRecord
100
AcDbLayerTableRecord
  2
128
 70
     0
 62
     7
  6
Continuous
370
    -3
390
F
  0
LAYER
  5
87
330
2
100
AcDbSymbolTableRecord
100
AcDbLayerTableRecord
  2
129
 70
     0
 62
     7
  6
Continuous
370
    -3
390
F
  0
LAYER
  5
88
330
2
100
AcDbSymbolTableRecord
100
AcDbLayerTableRecord
  2
130
 70
     0
 62
     7
  6
Continuous
370
    -3
390
F
  0
LAYER
  5
89
330
2
100
AcDbSymbolTableRecord
100
AcDbLayerTableRecord
  2
131
 70
     0
 62
     7
  6
Continuous
370
    -3
390
F
  0
LAYER
  5
8A
330
2
100
AcDbSymbolTableRecord
100
AcDbLayerTableRecord
  2
132
 70
     0
 62
     7
  6
Continuous
370
    -3
390
F
  0
LAYER
  5
8B
330
2
100
AcDbSymbolTableRecord
100
AcDbLayerTableRecord
  2
133
 70
     0
 62
     4
  6
Continuous
370
    -3
390
F
  0
LAYER
  5
8C
330
2
100
AcDbSymbolTableRecord
100
AcDbLayerTableRecord
  2
134
 70
     0
 62
     7
  6
Continuous
370
    -3
390
F
  0
LAYER
  5
8D
330
2
100
AcDbSymbolTableRecord
100
AcDbLayerTableRecord
  2
135
 70
     0
 62
     4
  6
Continuous
370
    -3
390
F
  0
LAYER
  5
8E
330
2
100
AcDbSymbolTableRecord
100
AcDbLayerTableRecord
  2
136
 70
     0
 62
     7
  6
Continuous
370
    -3
390
F
  0
LAYER
  5
8F
330
2
100
AcDbSymbolTableRecord
100
AcDbLayerTableRecord
  2
137
 70
     0
 62
     3
  6
Continuous
370
    -3
390
F
  0
LAYER
  5
90
330
2
100
AcDbSymbolTableRecord
100
AcDbLayerTableRecord
  2
138
 70
     0
 62
     7
  6
Continuous
370
    -3
390
F
  0
LAYER
  5
91
330
2
100
AcDbSymbolTableRecord
100
AcDbLayerTableRecord
  2
139
 70
     0
 62
     6
  6
Continuous
370
    -3
390
F
  0
LAYER
  5
92
330
2
100
AcDbSymbolTableRecord
100
AcDbLayerTableRecord
  2
140
 70
     0
 62
     1
  6
Continuous
370
    -3
390
F
  0
LAYER
  5
93
330
2
100
AcDbSymbolTableRecord
100
AcDbLayerTableRecord
  2
141
 70
     0
 62
     7
  6
Continuous
370
    -3
390
F
  0
LAYER
  5
94
330
2
100
AcDbSymbolTableRecord
100
AcDbLayerTableRecord
  2
142
 70
     0
 62
     7
  6
Continuous
370
    -3
390
F
  0
ENDTAB
  0
TABLE
  2
STYLE
  5
3
330
0
100
AcDbSymbolTable
 70
     2
  0
STYLE
  5
11
330
3
100
AcDbSymbolTableRecord
100
AcDbTextStyleTableRecord
  2
Standard
 70
     0
 40
0.0
 41
1.0
 50
0.0
 71
     0
 42
0.2
  3
txt
  4
bigfont
  0
STYLE
  5
2C
330
3
100
AcDbSymbolTableRecord
100
AcDbTextStyleTableRecord
  2
T_STANDARD
 70
     4
 40
10.0
 41
1.0
 50
0.0
 71
     0
 42
10.0
  3
txt
  4
bigfont
  0
ENDTAB
  0
TABLE
  2
VIEW
  5
6
330
0
100
AcDbSymbolTable
 70
     0
  0
ENDTAB
  0
TABLE
  2
UCS
  5
7
330
0
100
AcDbSymbolTable
 70
     0
  0
ENDTAB
  0
TABLE
  2
APPID
  5
9
330
0
100
AcDbSymbolTable
 70
     2
  0
APPID
  5
12
330
9
100
AcDbSymbolTableRecord
100
AcDbRegAppTableRecord
  2
ACAD
 70
     0
  0
APPID
  5
2B
330
9
100
AcDbSymbolTableRecord
100
AcDbRegAppTableRecord
  2
ODA
 70
     0
  0
ENDTAB
  0
TABLE
  2
DIMSTYLE
  5
A
330
0
100
AcDbSymbolTable
 70
     1
100
AcDbDimStyleTable
  0
DIMSTYLE
105
27
102
{ACAD_REACTORS
330
12F
330
224
330
249
330
254
330
25E
330
26A
330
276
330
282
330
2BE
330
2C9
330
2D4
330
2DE
330
313
330
334
330
34D
330
35B
102
}
330
A
100
AcDbSymbolTableRecord
100
AcDbDimStyleTableRecord
  2
Standard
 70
     0
340
11
  0
ENDTAB
  0
TABLE
  2
BLOCK_RECORD
  5
1
330
0
100
AcDbSymbolTable
 70
    34
  0
BLOCK_RECORD
  5
1F
330
1
100
AcDbSymbolTableRecord
100
AcDbBlockTableRecord
  2
*Model_Space
340
22
  0
BLOCK_RECORD
  5
1B
330
1
100
AcDbSymbolTableRecord
100
AcDbBlockTableRecord
  2
*Paper_Space
340
1E
  0
BLOCK_RECORD
  5
23
330
1
100
AcDbSymbolTableRecord
100
AcDbBlockTableRecord
  2
*Paper_Space0
340
26
  0
BLOCK_RECORD
  5
2D
330
1
100
AcDbSymbolTableRecord
100
AcDbBlockTableRecord
  2
_ORIGIN
340
0
  0
BLOCK_RECORD
  5
32
330
1
100
AcDbSymbolTableRecord
100
AcDbBlockTableRecord
  2
_DOTBLANK
340
0
  0
BLOCK_RECORD
  5
37
330
1
100
AcDbSymbolTableRecord
100
AcDbBlockTableRecord
  2
_DOT
340
0
  0
BLOCK_RECORD
  5
3C
330
1
100
AcDbSymbolTableRecord
100
AcDbBlockTableRecord
  2
_OPEN
340
0
  0
BLOCK_RECORD
  5
42
330
1
100
AcDbSymbolTableRecord
100
AcDbBlockTableRecord
  2
_CLOSED
340
0
  0
BLOCK_RECORD
  5
49
330
1
100
AcDbSymbolTableRecord
100
AcDbBlockTableRecord
  2
_CLOSEDBLANK
340
0
  0
BLOCK_RECORD
  5
4F
330
1
100
AcDbSymbolTableRecord
100
AcDbBlockTableRecord
  2
_BOXBLANK
340
0
  0
BLOCK_RECORD
  5
57
330
1
100
AcDbSymbolTableRecord
100
AcDbBlockTableRecord
  2
_BOXFILLED
340
0
  0
BLOCK_RECORD
  5
5C
330
1
100
AcDbSymbolTableRecord
100
AcDbBlockTableRecord
  2
_INTEGRAL
340
0
  0
BLOCK_RECORD
  5
61
330
1
100
AcDbSymbolTableRecord
100
AcDbBlockTableRecord
  2
_OBLIQUE
340
0
  0
BLOCK_RECORD
  5
65
330
1
100
AcDbSymbolTableRecord
100
AcDbBlockTableRecord
  2
_NONE
340
0
  0
BLOCK_RECORD
  5
95
330
1
100
AcDbSymbolTableRecord
100
AcDbBlockTableRecord
  2
*G12
340
0
102
{BLKREFS
331
9C
102
}
  0
BLOCK_RECORD
  5
124
330
1
100
AcDbSymbolTableRecord
100
AcDbBlockTableRecord
  2
Dim1
340
0
  0
BLOCK_RECORD
  5
193
330
1
100
AcDbSymbolTableRecord
100
AcDbBlockTableRecord
  2
*G14
340
0
102
{BLKREFS
331
19A
102
}
  0
BLOCK_RECORD
  5
1F3
330
1
100
AcDbSymbolTableRecord
100
AcDbBlockTableRecord
  2
*G15
340
0
102
{BLKREFS
331
1FA
102
}
  0
BLOCK_RECORD
  5
219
330
1
100
AcDbSymbolTableRecord
100
AcDbBlockTableRecord
  2
Dim2
340
0
  0
BLOCK_RECORD
  5
23F
330
1
100
AcDbSymbolTableRecord
100
AcDbBlockTableRecord
  2
Dim3
340
0
  0
BLOCK_RECORD
  5
24A
330
1
100
AcDbSymbolTableRecord
100
AcDbBlockTableRecord
  2
Dim4
340
0
  0
BLOCK_RECORD
  5
255
330
1
100
AcDbSymbolTableRecord
100
AcDbBlockTableRecord
  2
Dim5
340
0
  0
BLOCK_RECORD
  5
25F
330
1
100
AcDbSymbolTableRecord
100
AcDbBlockTableRecord
  2
Dim6
340
0
  0
BLOCK_RECORD
  5
26B
330
1
100
AcDbSymbolTableRecord
100
AcDbBlockTableRecord
  2
Dim7
340
0
  0
BLOCK_RECORD
  5
277
330
1
100
AcDbSymbolTableRecord
100
AcDbBlockTableRecord
  2
Dim8
340
0
  0
BLOCK_RECORD
  5
2AB
330
1
100
AcDbSymbolTableRecord
100
AcDbBlockTableRecord
  2
*G23
340
0
102
{BLKREFS
331
2B3
102
}
  0
BLOCK_RECORD
  5
2B4
330
1
100
AcDbSymbolTableRecord
100
AcDbBlockTableRecord
  2
Dim9
340
0
  0
BLOCK_RECORD
  5
2BF
330
1
100
AcDbSymbolTableRecord
100
AcDbBlockTableRecord
  2
Dim10
340
0
  0
BLOCK_RECORD
  5
2CA
330
1
100
AcDbSymbolTableRecord
100
AcDbBlockTableRecord
  2
Dim11
340
0
  0
BLOCK_RECORD
  5
2D5
330
1
100
AcDbSymbolTableRecord
100
AcDbBlockTableRecord
  2
Dim12
340
0
  0
BLOCK_RECORD
  5
2E4
330
1
100
AcDbSymbolTableRecord
100
AcDbBlockTableRecord
  2
*G28
340
0
102
{BLKREFS
331
2EB
102
}
  0
BLOCK_RECORD
  5
308
330
1
100
AcDbSymbolTableRecord
100
AcDbBlockTableRecord
  2
Dim13
340
0
  0
BLOCK_RECORD
  5
329
330
1
100
AcDbSymbolTableRecord
100
AcDbBlockTableRecord
  2
Dim14
340
0
  0
BLOCK_RECORD
  5
33B
330
1
100
AcDbSymbolTableRecord
100
AcDbBlockTableRecord
  2
*G31
340
0
102
{BLKREFS
331
340
102
}
  0
BLOCK_RECORD
  5
342
330
1
100
AcDbSymbolTableRecord
100
AcDbBlockTableRecord
  2
Dim15
340
0
  0
BLOCK_RECORD
  5
352
330
1
100
AcDbSymbolTableRecord
100
AcDbBlockTableRecord
  2
Dim16
340
0
  0
ENDTAB
  0
ENDSEC
  0
SECTION
  2
BLOCKS
  0
BLOCK
  5
20
330
1F
100
AcDbEntity
  8
0
100
AcDbBlockBegin
  2
*Model_Space
 70
     0
 71
     0
 10
0.0
 20
0.0
 30
0.0
  3
*Model_Space
  1

  0
ENDBLK
  5
21
330
1F
100
AcDbEntity
  8
0
100
AcDbBlockEnd
  0
BLOCK
  5
1C
330
1B
100
AcDbEntity
 67
     1
  8
0
100
AcDbBlockBegin
  2
*Paper_Space
 70
     0
 71
     0
 10
0.0
 20
0.0
 30
0.0
  3
*Paper_Space
  1

  0
ENDBLK
  5
1D
330
1B
100
AcDbEntity
 67
     1
  8
0
100
AcDbBlockEnd
  0
BLOCK
  5
24
330
23
100
AcDbEntity
  8
0
100
AcDbBlockBegin
  2
*Paper_Space0
 70
     0
 71
     0
 10
0.0
 20
0.0
 30
0.0
  3
*Paper_Space0
  1

  0
ENDBLK
  5
25
330
23
100
AcDbEntity
  8
0
100
AcDbBlockEnd
  0
BLOCK
  5
30
330
2D
100
AcDbEntity
  8
0
100
AcDbBlockBegin
  2
_ORIGIN
 70
     0
 71
     0
 10
0.0
 20
0.0
 30
0.0
  3
_ORIGIN
  1

  0
CIRCLE
  5
2E
330
2D
100
AcDbEntity
  8
0
100
AcDbCircle
 10
0.0
 20
0.0
 30
0.0
 40
0.5
  0
LINE
  5
2F
330
2D
100
AcDbEntity
  8
0
100
AcDbLine
 10
0.0
 20
0.0
 30
0.0
 11
-1.0
 21
0.0
 31
0.0
  0
ENDBLK
  5
31
330
2D
100
AcDbEntity
  8
0
100
AcDbBlockEnd
  0
BLOCK
  5
35
330
32
100
AcDbEntity
  8
0
100
AcDbBlockBegin
  2
_DOTBLANK
 70
     0
 71
     0
 10
0.0
 20
0.0
 30
0.0
  3
_DOTBLANK
  1

  0
CIRCLE
  5
33
330
32
100
AcDbEntity
  8
0
100
AcDbCircle
 10
0.0
 20
0.0
 30
0.0
 40
0.5
  0
LINE
  5
34
330
32
100
AcDbEntity
  8
0
100
AcDbLine
 10
-0.5
 20
0.0
 30
0.0
 11
-1.0
 21
0.0
 31
0.0
  0
ENDBLK
  5
36
330
32
100
AcDbEntity
  8
0
100
AcDbBlockEnd
  0
BLOCK
  5
3A
330
37
100
AcDbEntity
  8
0
100
AcDbBlockBegin
  2
_DOT
 70
     0
 71
     0
 10
0.0
 20
0.0
 30
0.0
  3
_DOT
  1

  0
LWPOLYLINE
  5
38
330
37
100
AcDbEntity
  8
0
100
AcDbPolyline
 90
        2
 70
     1
 43
0.5
 10
-0.25
 20
0.0
 42
1.0
 10
0.25
 20
0.0
 42
1.0
  0
LINE
  5
39
330
37
100
AcDbEntity
  8
0
100
AcDbLine
 10
-0.5
 20
0.0
 30
0.0
 11
-1.0
 21
0.0
 31
0.0
  0
ENDBLK
  5
3B
330
37
100
AcDbEntity
  8
0
100
AcDbBlockEnd
  0
BLOCK
  5
40
330
3C
100
AcDbEntity
  8
0
100
AcDbBlockBegin
  2
_OPEN
 70
     0
 71
     0
 10
0.0
 20
0.0
 30
0.0
  3
_OPEN
  1

  0
LINE
  5
3D
330
3C
100
AcDbEntity
  8
0
100
AcDbLine
 10
-1.0
 20
0.1666666666666667
 30
0.0
 11
0.0
 21
0.0
 31
0.0
  0
LINE
  5
3E
330
3C
100
AcDbEntity
  8
0
100
AcDbLine
 10
-1.0
 20
-0.1666666666666667
 30
0.0
 11
0.0
 21
0.0
 31
0.0
  0
LINE
  5
3F
330
3C
100
AcDbEntity
  8
0
100
AcDbLine
 10
0.0
 20
0.0
 30
0.0
 11
-1.0
 21
0.0
 31
0.0
  0
ENDBLK
  5
41
330
3C
100
AcDbEntity
  8
0
100
AcDbBlockEnd
  0
BLOCK
  5
47
330
42
100
AcDbEntity
  8
0
100
AcDbBlockBegin
  2
_CLOSED
 70
     0
 71
     0
 10
0.0
 20
0.0
 30
0.0
  3
_CLOSED
  1

  0
LINE
  5
43
330
42
100
AcDbEntity
  8
0
100
AcDbLine
 10
-1.0
 20
0.1666666666666667
 30
0.0
 11
0.0
 21
0.0
 31
0.0
  0
LINE
  5
44
330
42
100
AcDbEntity
  8
0
100
AcDbLine
 10
0.0
 20
0.0
 30
0.0
 11
-1.0
 21
-0.1666666666666667
 31
0.0
  0
LINE
  5
45
330
42
100
AcDbEntity
  8
0
100
AcDbLine
 10
-1.0
 20
0.1666666666666667
 30
0.0
 11
-1.0
 21
-0.1666666666666667
 31
0.0
  0
LINE
  5
46
330
42
100
AcDbEntity
  8
0
100
AcDbLine
 10
0.0
 20
0.0
 30
0.0
 11
-1.0
 21
0.0
 31
0.0
  0
ENDBLK
  5
48
330
42
100
AcDbEntity
  8
0
100
AcDbBlockEnd
  0
BLOCK
  5
4D
330
49
100
AcDbEntity
  8
0
100
AcDbBlockBegin
  2
_CLOSEDBLANK
 70
     0
 71
     0
 10
0.0
 20
0.0
 30
0.0
  3
_CLOSEDBLANK
  1

  0
LINE
  5
4A
330
49
100
AcDbEntity
  8
0
100
AcDbLine
 10
-1.0
 20
0.1666666666666667
 30
0.0
 11
0.0
 21
0.0
 31
0.0
  0
LINE
  5
4B
330
49
100
AcDbEntity
  8
0
100
AcDbLine
 10
0.0
 20
0.0
 30
0.0
 11
-1.0
 21
-0.1666666666666667
 31
0.0
  0
LINE
  5
4C
330
49
100
AcDbEntity
  8
0
100
AcDbLine
 10
-1.0
 20
0.1666666666666667
 30
0.0
 11
-1.0
 21
-0.1666666666666667
 31
0.0
  0
ENDBLK
  5
4E
330
49
100
AcDbEntity
  8
0
100
AcDbBlockEnd
  0
BLOCK
  5
55
330
4F
100
AcDbEntity
  8
0
100
AcDbBlockBegin
  2
_BOXBLANK
 70
     0
 71
     0
 10
0.0
 20
0.0
 30
0.0
  3
_BOXBLANK
  1

  0
LINE
  5
50
330
4F
100
AcDbEntity
  8
0
100
AcDbLine
 10
-0.5
 20
-0.5
 30
0.0
 11
0.5
 21
-0.5
 31
0.0
  0
LINE
  5
51
330
4F
100
AcDbEntity
  8
0
100
AcDbLine
 10
0.5
 20
-0.5
 30
0.0
 11
0.5
 21
0.5
 31
0.0
  0
LINE
  5
52
330
4F
100
AcDbEntity
  8
0
100
AcDbLine
 10
0.5
 20
0.5
 30
0.0
 11
-0.5
 21
0.5
 31
0.0
  0
LINE
  5
53
330
4F
100
AcDbEntity
  8
0
100
AcDbLine
 10
-0.5
 20
0.5
 30
0.0
 11
-0.5
 21
-0.5
 31
0.0
  0
LINE
  5
54
330
4F
100
AcDbEntity
  8
0
100
AcDbLine
 10
-0.5
 20
0.0
 30
0.0
 11
-1.0
 21
0.0
 31
0.0
  0
ENDBLK
  5
56
330
4F
100
AcDbEntity
  8
0
100
AcDbBlockEnd
  0
BLOCK
  5
5A
330
57
100
AcDbEntity
  8
0
100
AcDbBlockBegin
  2
_BOXFILLED
 70
     0
 71
     0
 10
0.0
 20
0.0
 30
0.0
  3
_BOXFILLED
  1

  0
SOLID
  5
58
330
57
100
AcDbEntity
  8
0
100
AcDbTrace
 10
-0.5
 20
0.5
 30
0.0
 11
0.5
 21
0.5
 31
0.0
 12
-0.5
 22
-0.5
 32
0.0
 13
0.5
 23
-0.5
 33
0.0
  0
LINE
  5
59
330
57
100
AcDbEntity
  8
0
100
AcDbLine
 10
-0.5
 20
0.0
 30
0.0
 11
-1.0
 21
0.0
 31
0.0
  0
ENDBLK
  5
5B
330
57
100
AcDbEntity
  8
0
100
AcDbBlockEnd
  0
BLOCK
  5
5F
330
5C
100
AcDbEntity
  8
0
100
AcDbBlockBegin
  2
_INTEGRAL
 70
     0
 71
     0
 10
0.0
 20
0.0
 30
0.0
  3
_INTEGRAL
  1

  0
ARC
  5
5D
330
5C
100
AcDbEntity
  8
0
100
AcDbCircle
 10
0.444888
 20
-0.0913346
 30
0.0
 40
0.4541666
100
AcDbArc
 50
5844.169510334396
 51
9625.69095819783
  0
ARC
  5
5E
330
5C
100
AcDbEntity
  8
0
100
AcDbCircle
 10
-0.444888
 20
0.0913346
 30
0.0
 40
0.4541666
100
AcDbArc
 50
16157.40982268921
 51
19938.93127055265
  0
ENDBLK
  5
60
330
5C
100
AcDbEntity
  8
0
100
AcDbBlockEnd
  0
BLOCK
  5
63
330
61
100
AcDbEntity
  8
0
100
AcDbBlockBegin
  2
_OBLIQUE
 70
     0
 71
     0
 10
0.0
 20
0.0
 30
0.0
  3
_OBLIQUE
  1

  0
LINE
  5
62
330
61
100
AcDbEntity
  8
0
100
AcDbLine
 10
-0.5
 20
-0.5
 30
0.0
 11
0.5
 21
0.5
 31
0.0
  0
ENDBLK
  5
64
330
61
100
AcDbEntity
  8
0
100
AcDbBlockEnd
  0
BLOCK
  5
66
330
65
100
AcDbEntity
  8
0
100
AcDbBlockBegin
  2
_NONE
 70
     0
 71
     0
 10
0.0
 20
0.0
 30
0.0
  3
_NONE
  1

  0
ENDBLK
  5
67
330
65
100
AcDbEntity
  8
0
100
AcDbBlockEnd
  0
BLOCK
  5
96
330
95
100
AcDbEntity
  8
0
100
AcDbBlockBegin
  2
*G12
 70
     1
 71
     0
 10
0.0
 20
0.0
 30
0.0
  3
*G12
  1

  0
LINE
  5
98
330
95
100
AcDbEntity
  8
9
  6
Continuous
 62
   170
370
    30
100
AcDbLine
 10
96.00000000000037
 20
96.0
 30
0.0
 11
96.00000000000037
 21
1536.0
 31
0.0
  0
LINE
  5
99
330
95
100
AcDbEntity
  8
9
  6
Continuous
 62
   170
370
    30
100
AcDbLine
 10
96.00000000000037
 20
1536.0
 30
0.0
 11
2280.0
 21
1536.0
 31
0.0
  0
LINE
  5
9A
330
95
100
AcDbEntity
  8
9
  6
Continuous
 62
   170
370
    30
100
AcDbLine
 10
2280.0
 20
1536.0
 30
0.0
 11
2280.0
 21
96.0
 31
0.0
  0
LINE
  5
9B
330
95
100
AcDbEntity
  8
9
  6
Continuous
 62
   170
370
    30
100
AcDbLine
 10
2280.0
 20
96.0
 30
0.0
 11
96.00000000000037
 21
96.0
 31
0.0
  0
ENDBLK
  5
97
330
95
100
AcDbEntity
  8
0
100
AcDbBlockEnd
  0
BLOCK
  5
125
330
124
100
AcDbEntity
  8
0
100
AcDbBlockBegin
  2
Dim1
 70
     0
 71
     0
 10
0.0
 20
0.0
 30
0.0
  3
Dim1
  1

  0
LINE
  5
127
330
124
100
AcDbEntity
  8
6
  6
Continuous
 62
     7
370
     9
100
AcDbLine
 10
297.8136823654925
 20
257.3931834661068
 30
0.0
 11
430.8136823654914
 21
257.3931834661068
 31
0.0
  0
LINE
  5
128
330
124
100
AcDbEntity
  8
6
  6
Continuous
 62
     7
370
     9
100
AcDbLine
 10
297.8136823654924
 20
249.3931834661068
 30
0.0
 11
297.8136823654928
 21
321.3931834661068
 31
0.0
  0
LINE
  5
129
330
124
100
AcDbEntity
  8
6
  6
Continuous
 62
     7
370
     9
100
AcDbLine
 10
430.8136823654914
 20
249.3931834661068
 30
0.0
 11
430.8136823654928
 21
508.3931834661068
 31
0.0
  0
LINE
  5
12A
330
124
100
AcDbEntity
  8
6
  6
Continuous
 62
     7
370
     9
100
AcDbLine
 10
297.8136823654925
 20
257.3931834661068
 30
0.0
 11
313.2684955861176
 21
261.5342881877472
 31
0.0
  0
LINE
  5
12B
330
124
100
AcDbEntity
  8
6
  6
Continuous
 62
     7
370
     9
100
AcDbLine
 10
297.8136823654925
 20
257.3931834661068
 30
0.0
 11
313.2684955861176
 21
253.2520787444665
 31
0.0
  0
LINE
  5
12C
330
124
100
AcDbEntity
  8
6
  6
Continuous
 62
     7
370
     9
100
AcDbLine
 10
430.8136823654914
 20
257.3931834661068
 30
0.0
 11
415.3588691448663
 21
253.2520787444666
 31
0.0
  0
LINE
  5
12D
330
124
100
AcDbEntity
  8
6
  6
Continuous
 62
     7
370
     9
100
AcDbLine
 10
430.8136823654914
 20
257.3931834661068
 30
0.0
 11
415.3588691448664
 21
261.5342881877472
 31
0.0
  0
MTEXT
  5
12E
330
124
100
AcDbEntity
  8
6
  6
Continuous
 62
     7
370
     9
100
AcDbMText
 10
364.313682365492
 20
269.3931834661068
 30
0.0
 40
24.0
 41
0.0
 71
     8
 72
     1
  1
133
 73
     1
 44
1.0
  0
ENDBLK
  5
126
330
124
100
AcDbEntity
  8
0
100
AcDbBlockEnd
  0
BLOCK
  5
194
330
193
100
AcDbEntity
  8
0
100
AcDbBlockBegin
  2
*G14
 70
     1
 71
     0
 10
0.0
 20
0.0
 30
0.0
  3
*G14
  1

  0
LINE
  5
196
330
193
100
AcDbEntity
  8
2
  6
Continuous
 62
    90
370
    18
100
AcDbLine
 10
842.7494178293719
 20
394.3931834661068
 30
0.0
 11
842.7494178293719
 21
516.3931834661068
 31
0.0
  0
ARC
  5
197
330
193
100
AcDbEntity
  8
2
  6
Continuous
 62
    90
370
    18
100
AcDbCircle
 10
845.7494178293719
 20
516.3931834661068
 30
0.0
 40
3.0
100
AcDbArc
 50
89.99999999999991
 51
179.9999999999998
  0
LINE
  5
198
330
193
100
AcDbEntity
  8
2
  6
Continuous
 62
    90
370
    18
100
AcDbLine
 10
872.7494178293719
 20
519.3931834661068
 30
0.0
 11
872.7494178293719
 21
484.3931834661068
 31
0.0
  0
LINE
  5
199
330
193
100
AcDbEntity
  8
2
  6
Continuous
 62
    90
370
    18
100
AcDbLine
 10
843.7494178293716
 20
394.3931834661068
 30
0.0
 11
842.7494178293719
 21
394.3931834661068
 31
0.0
  0
ENDBLK
  5
195
330
193
100
AcDbEntity
  8
0
100
AcDbBlockEnd
  0
BLOCK
  5
1F4
330
1F3
100
AcDbEntity
  8
0
100
AcDbBlockBegin
  2
*G15
 70
     1
 71
     0
 10
0.0
 20
0.0
 30
0.0
  3
*G15
  1

  0
LINE
  5
1F6
330
1F3
100
AcDbEntity
  8
2
  6
Continuous
 62
    90
370
    18
100
AcDbLine
 10
1105.752165486771
 20
394.3931834661068
 30
0.0
 11
1105.752165486771
 21
516.3931834661068
 31
0.0
  0
ARC
  5
1F7
330
1F3
100
AcDbEntity
  8
2
  6
Continuous
 62
    90
370
    18
100
AcDbCircle
 10
1102.752165486771
 20
516.3931834661068
 30
0.0
 40
3.0
100
AcDbArc
 50
0.0
 51
89.99999999999991
  0
LINE
  5
1F8
330
1F3
100
AcDbEntity
  8
2
  6
Continuous
 62
    90
370
    18
100
AcDbLine
 10
1075.752165486771
 20
519.3931834661068
 30
0.0
 11
1075.752165486771
 21
484.3931834661068
 31
0.0
  0
LINE
  5
1F9
330
1F3
100
AcDbEntity
  8
2
  6
Continuous
 62
    90
370
    18
100
AcDbLine
 10
1104.752165486771
 20
394.3931834661068
 30
0.0
 11
1105.752165486771
 21
394.3931834661068
 31
0.0
  0
ENDBLK
  5
1F5
330
1F3
100
AcDbEntity
  8
0
100
AcDbBlockEnd
  0
BLOCK
  5
21A
330
219
100
AcDbEntity
  8
0
100
AcDbBlockBegin
  2
Dim2
 70
     0
 71
     0
 10
0.0
 20
0.0
 30
0.0
  3
Dim2
  1

  0
LINE
  5
21C
330
219
100
AcDbEntity
  8
6
  6
Continuous
 62
     7
370
     9
100
AcDbLine
 10
764.7494178293707
 20
964.5128821577948
 30
0.0
 11
893.1787770526482
 21
964.5128821577948
 31
0.0
  0
LINE
  5
21D
330
219
100
AcDbEntity
  8
6
  6
Continuous
 62
     7
370
     9
100
AcDbLine
 10
804.7494178293707
 20
972.5128821577948
 30
0.0
 11
804.7494178293705
 21
904.9128821577899
 31
0.0
  0
LINE
  5
21E
330
219
100
AcDbEntity
  8
6
  6
Continuous
 62
     7
370
     9
100
AcDbLine
 10
836.74941782938
 20
972.5128821577948
 30
0.0
 11
836.7494178293798
 21
904.9128821577899
 31
0.0
  0
LINE
  5
21F
330
219
100
AcDbEntity
  8
6
  6
Continuous
 62
     7
370
     9
100
AcDbLine
 10
804.7494178293707
 20
964.5128821577948
 30
0.0
 11
789.2946046087457
 21
960.3717774361545
 31
0.0
  0
LINE
  5
220
330
219
100
AcDbEntity
  8
6
  6
Continuous
 62
     7
370
     9
100
AcDbLine
 10
804.7494178293707
 20
964.5128821577948
 30
0.0
 11
789.2946046087457
 21
968.6539868794353
 31
0.0
  0
LINE
  5
221
330
219
100
AcDbEntity
  8
6
  6
Continuous
 62
     7
370
     9
100
AcDbLine
 10
836.74941782938
 20
964.5128821577948
 30
0.0
 11
852.2042310500052
 21
968.653986879435
 31
0.0
  0
LINE
  5
222
330
219
100
AcDbEntity
  8
6
  6
Continuous
 62
     7
370
     9
100
AcDbLine
 10
836.74941782938
 20
964.5128821577948
 30
0.0
 11
852.2042310500051
 21
960.3717774361544
 31
0.0
  0
MTEXT
  5
223
330
219
100
AcDbEntity
  8
6
  6
Continuous
 62
     7
370
     9
100
AcDbMText
 10
869.1787770526482
 20
976.5128821577948
 30
0.0
 40
24.0
 41
0.0
 71
     8
 72
     1
  1
φ32
 73
     1
 44
1.0
  0
ENDBLK
  5
21B
330
219
100
AcDbEntity
  8
0
100
AcDbBlockEnd
  0
BLOCK
  5
240
330
23F
100
AcDbEntity
  8
0
100
AcDbBlockBegin
  2
Dim3
 70
     0
 71
     0
 10
0.0
 20
0.0
 30
0.0
  3
Dim3
  1

  0
LINE
  5
242
330
23F
100
AcDbEntity
  8
6
  6
Continuous
 62
     7
370
     9
100
AcDbLine
 10
724.7494178293841
 20
571.3271421040574
 30
0.0
 11
724.7494178293841
 21
519.3931834661068
 31
0.0
  0
LINE
  5
243
330
23F
100
AcDbEntity
  8
6
  6
Continuous
 62
     7
370
     9
100
AcDbLine
 10
716.7494178293841
 20
519.3931834661068
 30
0.0
 11
788.7494178293716
 21
519.3931834661068
 31
0.0
  0
LINE
  5
244
330
23F
100
AcDbEntity
  8
6
  6
Continuous
 62
     7
370
     9
100
AcDbLine
 10
724.7494178293841
 20
539.3931834661068
 30
0.0
 11
720.6083131077438
 21
554.8479966867319
 31
0.0
  0
LINE
  5
245
330
23F
100
AcDbEntity
  8
6
  6
Continuous
 62
     7
370
     9
100
AcDbLine
 10
724.7494178293841
 20
539.3931834661068
 30
0.0
 11
728.8905225510244
 21
554.8479966867319
 31
0.0
  0
LINE
  5
246
330
23F
100
AcDbEntity
  8
6
  6
Continuous
 62
     7
370
     9
100
AcDbLine
 10
724.7494178293841
 20
519.3931834661068
 30
0.0
 11
728.8905225510244
 21
503.9383702454817
 31
0.0
  0
LINE
  5
247
330
23F
100
AcDbEntity
  8
6
  6
Continuous
 62
     7
370
     9
100
AcDbLine
 10
724.7494178293841
 20
519.3931834661068
 30
0.0
 11
720.6083131077438
 21
503.9383702454817
 31
0.0
  0
MTEXT
  5
248
330
23F
100
AcDbEntity
  8
6
  6
Continuous
 62
     7
370
     9
100
AcDbMText
 10
712.7494178293841
 20
559.3271421040574
 30
0.0
 40
24.0
 41
0.0
 71
     8
 72
     1
  1
20
 11
1.615544574432587E-15
 21
1.0
 31
0.0
 73
     1
 44
1.0
  0
ENDBLK
  5
241
330
23F
100
AcDbEntity
  8
0
100
AcDbBlockEnd
  0
BLOCK
  5
24B
330
24A
100
AcDbEntity
  8
0
100
AcDbBlockBegin
  2
Dim4
 70
     0
 71
     0
 10
0.0
 20
0.0
 30
0.0
  3
Dim4
  1

  0
LINE
  5
24D
330
24A
100
AcDbEntity
  8
6
  6
Continuous
 62
     7
370
     9
100
AcDbLine
 10
724.7494178293841
 20
519.3931834661068
 30
0.0
 11
724.7494178293841
 21
484.3931834661068
 31
0.0
  0
LINE
  5
24E
330
24A
100
AcDbEntity
  8
6
  6
Continuous
 62
     7
370
     9
100
AcDbLine
 10
716.7494178293841
 20
484.3931834661068
 30
0.0
 11
826.7494178293719
 21
484.3931834661069
 31
0.0
  0
LINE
  5
24F
330
24A
100
AcDbEntity
  8
6
  6
Continuous
 62
     7
370
     9
100
AcDbLine
 10
724.7494178293841
 20
519.3931834661068
 30
0.0
 11
728.8905225510244
 21
503.9383702454817
 31
0.0
  0
LINE
  5
250
330
24A
100
AcDbEntity
  8
6
  6
Continuous
 62
     7
370
     9
100
AcDbLine
 10
724.7494178293841
 20
519.3931834661068
 30
0.0
 11
720.6083131077438
 21
503.9383702454817
 31
0.0
  0
LINE
  5
251
330
24A
100
AcDbEntity
  8
6
  6
Continuous
 62
     7
370
     9
100
AcDbLine
 10
724.7494178293841
 20
484.3931834661068
 30
0.0
 11
720.6083131077438
 21
499.847996686732
 31
0.0
  0
LINE
  5
252
330
24A
100
AcDbEntity
  8
6
  6
Continuous
 62
     7
370
     9
100
AcDbLine
 10
724.7494178293841
 20
484.3931834661068
 30
0.0
 11
728.8905225510244
 21
499.847996686732
 31
0.0
  0
MTEXT
  5
253
330
24A
100
AcDbEntity
  8
6
  6
Continuous
 62
     7
370
     9
100
AcDbMText
 10
712.7494178293841
 20
501.8931834661068
 30
0.0
 40
24.0
 41
0.0
 71
     8
 72
     1
  1
35
 11
1.615544574432587E-15
 21
1.0
 31
0.0
 73
     1
 44
1.0
  0
ENDBLK
  5
24C
330
24A
100
AcDbEntity
  8
0
100
AcDbBlockEnd
  0
BLOCK
  5
256
330
255
100
AcDbEntity
  8
0
100
AcDbBlockBegin
  2
Dim5
 70
     0
 71
     0
 10
0.0
 20
0.0
 30
0.0
  3
Dim5
  1

  0
LINE
  5
258
330
255
100
AcDbEntity
  8
6
  6
Continuous
 62
     7
370
     9
100
AcDbLine
 10
724.7494178293841
 20
484.3931834661068
 30
0.0
 11
724.7494178293846
 21
337.3931834661068
 31
0.0
  0
LINE
  5
259
330
255
100
AcDbEntity
  8
6
  6
Continuous
 62
     7
370
     9
100
AcDbLine
 10
724.7494178293841
 20
484.3931834661068
 30
0.0
 11
728.8905225510246
 21
468.9383702454818
 31
0.0
  0
LINE
  5
25A
330
255
100
AcDbEntity
  8
6
  6
Continuous
 62
     7
370
     9
100
AcDbLine
 10
724.7494178293841
 20
484.3931834661068
 30
0.0
 11
720.6083131077438
 21
468.9383702454817
 31
0.0
  0
LINE
  5
25B
330
255
100
AcDbEntity
  8
6
  6
Continuous
 62
     7
370
     9
100
AcDbLine
 10
724.7494178293846
 20
337.3931834661068
 30
0.0
 11
720.6083131077443
 21
352.847996686732
 31
0.0
  0
LINE
  5
25C
330
255
100
AcDbEntity
  8
6
  6
Continuous
 62
     7
370
     9
100
AcDbLine
 10
724.7494178293846
 20
337.3931834661068
 30
0.0
 11
728.8905225510249
 21
352.847996686732
 31
0.0
  0
MTEXT
  5
25D
330
255
100
AcDbEntity
  8
6
  6
Continuous
 62
     7
370
     9
100
AcDbMText
 10
712.7494178293844
 20
410.8931834661068
 30
0.0
 40
24.0
 41
0.0
 71
     8
 72
     1
  1
147
 11
6.123233995736766E-17
 21
1.0
 31
0.0
 73
     1
 44
1.0
  0
ENDBLK
  5
257
330
255
100
AcDbEntity
  8
0
100
AcDbBlockEnd
  0
BLOCK
  5
260
330
25F
100
AcDbEntity
  8
0
100
AcDbBlockBegin
  2
Dim6
 70
     0
 71
     0
 10
0.0
 20
0.0
 30
0.0
  3
Dim6
  1

  0
LINE
  5
262
330
25F
100
AcDbEntity
  8
6
  6
Continuous
 62
     7
370
     9
100
AcDbLine
 10
668.7494178293846
 20
539.3931834661073
 30
0.0
 11
668.749417829385
 21
337.3931834661073
 31
0.0
  0
LINE
  5
263
330
25F
100
AcDbEntity
  8
6
  6
Continuous
 62
     7
370
     9
100
AcDbLine
 10
660.7494178293846
 20
539.3931834661073
 30
0.0
 11
788.7494178293714
 21
539.3931834661068
 31
0.0
  0
LINE
  5
264
330
25F
100
AcDbEntity
  8
6
  6
Continuous
 62
     7
370
     9
100
AcDbLine
 10
660.749417829385
 20
337.3931834661073
 30
0.0
 11
826.7494178293716
 21
337.3931834661069
 31
0.0
  0
LINE
  5
265
330
25F
100
AcDbEntity
  8
6
  6
Continuous
 62
     7
370
     9
100
AcDbLine
 10
668.7494178293846
 20
539.3931834661073
 30
0.0
 11
672.8905225510249
 21
523.9383702454822
 31
0.0
  0
LINE
  5
266
330
25F
100
AcDbEntity
  8
6
  6
Continuous
 62
     7
370
     9
100
AcDbLine
 10
668.7494178293846
 20
539.3931834661073
 30
0.0
 11
664.6083131077442
 21
523.9383702454822
 31
0.0
  0
LINE
  5
267
330
25F
100
AcDbEntity
  8
6
  6
Continuous
 62
     7
370
     9
100
AcDbLine
 10
668.749417829385
 20
337.3931834661073
 30
0.0
 11
664.6083131077447
 21
352.8479966867324
 31
0.0
  0
LINE
  5
268
330
25F
100
AcDbEntity
  8
6
  6
Continuous
 62
     7
370
     9
100
AcDbLine
 10
668.749417829385
 20
337.3931834661073
 30
0.0
 11
672.8905225510254
 21
352.8479966867324
 31
0.0
  0
MTEXT
  5
269
330
25F
100
AcDbEntity
  8
6
  6
Continuous
 62
     7
370
     9
100
AcDbMText
 10
656.7494178293848
 20
438.3931834661073
 30
0.0
 40
24.0
 41
0.0
 71
     8
 72
     1
  1
202
 11
9.494107596574928E-16
 21
1.0
 31
0.0
 73
     1
 44
1.0
  0
ENDBLK
  5
261
330
25F
100
AcDbEntity
  8
0
100
AcDbBlockEnd
  0
BLOCK
  5
26C
330
26B
100
AcDbEntity
  8
0
100
AcDbBlockBegin
  2
Dim7
 70
     0
 71
     0
 10
0.0
 20
0.0
 30
0.0
  3
Dim7
  1

  0
LINE
  5
26E
330
26B
100
AcDbEntity
  8
6
  6
Continuous
 62
     7
370
     9
100
AcDbLine
 10
668.7494178293846
 20
639.3931834661073
 30
0.0
 11
668.7494178293846
 21
539.3931834661073
 31
0.0
  0
LINE
  5
26F
330
26B
100
AcDbEntity
  8
6
  6
Continuous
 62
     7
370
     9
100
AcDbLine
 10
660.7494178293846
 20
639.3931834661073
 30
0.0
 11
788.7494178293716
 21
639.3931834661068
 31
0.0
  0
LINE
  5
270
330
26B
100
AcDbEntity
  8
6
  6
Continuous
 62
     7
370
     9
100
AcDbLine
 10
660.7494178293846
 20
539.3931834661073
 30
0.0
 11
788.7494178293714
 21
539.3931834661068
 31
0.0
  0
LINE
  5
271
330
26B
100
AcDbEntity
  8
6
  6
Continuous
 62
     7
370
     9
100
AcDbLine
 10
668.7494178293846
 20
639.3931834661073
 30
0.0
 11
672.8905225510249
 21
623.9383702454822
 31
0.0
  0
LINE
  5
272
330
26B
100
AcDbEntity
  8
6
  6
Continuous
 62
     7
370
     9
100
AcDbLine
 10
668.7494178293846
 20
639.3931834661073
 30
0.0
 11
664.6083131077443
 21
623.9383702454822
 31
0.0
  0
LINE
  5
273
330
26B
100
AcDbEntity
  8
6
  6
Continuous
 62
     7
370
     9
100
AcDbLine
 10
668.7494178293846
 20
539.3931834661073
 30
0.0
 11
664.6083131077443
 21
554.8479966867324
 31
0.0
  0
LINE
  5
274
330
26B
100
AcDbEntity
  8
6
  6
Continuous
 62
     7
370
     9
100
AcDbLine
 10
668.7494178293846
 20
539.3931834661073
 30
0.0
 11
672.8905225510249
 21
554.8479966867324
 31
0.0
  0
MTEXT
  5
275
330
26B
100
AcDbEntity
  8
6
  6
Continuous
 62
     7
370
     9
100
AcDbMText
 10
656.7494178293846
 20
589.3931834661073
 30
0.0
 40
24.0
 41
0.0
 71
     8
 72
     1
  1
(100)
 11
1.615544574432587E-15
 21
1.0
 31
0.0
 73
     1
 44
1.0
  0
ENDBLK
  5
26D
330
26B
100
AcDbEntity
  8
0
100
AcDbBlockEnd
  0
BLOCK
  5
278
330
277
100
AcDbEntity
  8
0
100
AcDbBlockBegin
  2
Dim8
 70
     0
 71
     0
 10
0.0
 20
0.0
 30
0.0
  3
Dim8
  1

  0
LINE
  5
27A
330
277
100
AcDbEntity
  8
6
  6
Continuous
 62
     7
370
     9
100
AcDbLine
 10
804.7494178293689
 20
201.3931834661068
 30
0.0
 11
1404.749417829369
 21
201.3931834661068
 31
0.0
  0
LINE
  5
27B
330
277
100
AcDbEntity
  8
6
  6
Continuous
 62
     7
370
     9
100
AcDbLine
 10
804.7494178293688
 20
193.3931834661068
 30
0.0
 11
804.7494178293715
 21
503.3931834661068
 31
0.0
  0
LINE
  5
27C
330
277
100
AcDbEntity
  8
6
  6
Continuous
 62
     7
370
     9
100
AcDbLine
 10
1404.749417829369
 20
193.3931834661068
 30
0.0
 11
1404.749417829371
 21
505.3931834661068
 31
0.0
  0
LINE
  5
27D
330
277
100
AcDbEntity
  8
6
  6
Continuous
 62
     7
370
     9
100
AcDbLine
 10
804.7494178293689
 20
201.3931834661068
 30
0.0
 11
820.204231049994
 21
205.5342881877472
 31
0.0
  0
LINE
  5
27E
330
277
100
AcDbEntity
  8
6
  6
Continuous
 62
     7
370
     9
100
AcDbLine
 10
804.7494178293689
 20
201.3931834661068
 30
0.0
 11
820.204231049994
 21
197.2520787444665
 31
0.0
  0
LINE
  5
27F
330
277
100
AcDbEntity
  8
6
  6
Continuous
 62
     7
370
     9
100
AcDbLine
 10
1404.749417829369
 20
201.3931834661068
 30
0.0
 11
1389.294604608744
 21
197.2520787444666
 31
0.0
  0
LINE
  5
280
330
277
100
AcDbEntity
  8
6
  6
Continuous
 62
     7
370
     9
100
AcDbLine
 10
1404.749417829369
 20
201.3931834661068
 30
0.0
 11
1389.294604608744
 21
205.5342881877472
 31
0.0
  0
MTEXT
  5
281
330
277
100
AcDbEntity
  8
6
  6
Continuous
 62
     7
370
     9
100
AcDbMText
 10
1104.749417829369
 20
213.3931834661068
 30
0.0
 40
24.0
 41
0.0
 71
     8
 72
     1
  1
600
 73
     1
 44
1.0
  0
ENDBLK
  5
279
330
277
100
AcDbEntity
  8
0
100
AcDbBlockEnd
  0
BLOCK
  5
2AC
330
2AB
100
AcDbEntity
  8
0
100
AcDbBlockBegin
  2
*G23
 70
     1
 71
     0
 10
0.0
 20
0.0
 30
0.0
  3
*G23
  1

  0
ARC
  5
2AE
330
2AB
100
AcDbEntity
  8
2
  6
Continuous
 62
    90
370
    18
100
AcDbCircle
 10
299.8136823654929
 20
537.3931834661068
 30
0.0
 40
2.0
100
AcDbArc
 50
89.99999999999991
 51
179.999999999987
  0
LINE
  5
2AF
330
2AB
100
AcDbEntity
  8
2
  6
Continuous
 62
    90
370
    18
100
AcDbLine
 10
297.8136823654929
 20
521.3931834661073
 30
0.0
 11
297.8136823654929
 21
537.3931834661073
 31
0.0
  0
ARC
  5
2B0
330
2AB
100
AcDbEntity
  8
2
  6
Continuous
 62
    90
370
    18
100
AcDbCircle
 10
299.8136823654929
 20
521.3931834661068
 30
0.0
 40
2.0
100
AcDbArc
 50
179.999999999987
 51
269.9999999999998
  0
LINE
  5
2B1
330
2AB
100
AcDbEntity
  8
2
  6
Continuous
 62
    90
370
    18
100
AcDbLine
 10
299.8136823654929
 20
539.3931834661068
 30
0.0
 11
420.8136823654929
 21
539.3931834661068
 31
0.0
  0
LINE
  5
2B2
330
2AB
100
AcDbEntity
  8
2
  6
Continuous
 62
    90
370
    18
100
AcDbLine
 10
420.8136823654929
 20
519.3931834661068
 30
0.0
 11
299.8136823654929
 21
519.3931834661068
 31
0.0
  0
ENDBLK
  5
2AD
330
2AB
100
AcDbEntity
  8
0
100
AcDbBlockEnd
  0
BLOCK
  5
2B5
330
2B4
100
AcDbEntity
  8
0
100
AcDbBlockBegin
  2
Dim9
 70
     0
 71
     0
 10
0.0
 20
0.0
 30
0.0
  3
Dim9
  1

  0
LINE
  5
2B7
330
2B4
100
AcDbEntity
  8
6
  6
Continuous
 62
     7
370
     9
100
AcDbLine
 10
804.7494178293712
 20
257.3931834661073
 30
0.0
 11
842.7494178293714
 21
257.3931834661073
 31
0.0
  0
LINE
  5
2B8
330
2B4
100
AcDbEntity
  8
6
  6
Continuous
 62
     7
370
     9
100
AcDbLine
 10
842.7494178293714
 20
249.3931834661073
 30
0.0
 11
842.7494178293716
 21
321.3931834661068
 31
0.0
  0
LINE
  5
2B9
330
2B4
100
AcDbEntity
  8
6
  6
Continuous
 62
     7
370
     9
100
AcDbLine
 10
804.7494178293712
 20
257.3931834661073
 30
0.0
 11
820.2042310499962
 21
261.5342881877476
 31
0.0
  0
LINE
  5
2BA
330
2B4
100
AcDbEntity
  8
6
  6
Continuous
 62
     7
370
     9
100
AcDbLine
 10
804.7494178293712
 20
257.3931834661073
 30
0.0
 11
820.2042310499962
 21
253.252078744467
 31
0.0
  0
LINE
  5
2BB
330
2B4
100
AcDbEntity
  8
6
  6
Continuous
 62
     7
370
     9
100
AcDbLine
 10
842.7494178293714
 20
257.3931834661073
 30
0.0
 11
827.2946046087463
 21
253.252078744467
 31
0.0
  0
LINE
  5
2BC
330
2B4
100
AcDbEntity
  8
6
  6
Continuous
 62
     7
370
     9
100
AcDbLine
 10
842.7494178293714
 20
257.3931834661073
 30
0.0
 11
827.2946046087463
 21
261.5342881877477
 31
0.0
  0
MTEXT
  5
2BD
330
2B4
100
AcDbEntity
  8
6
  6
Continuous
 62
     7
370
     9
100
AcDbMText
 10
823.7494178293709
 20
269.3931834661073
 30
0.0
 40
24.0
 41
0.0
 71
     8
 72
     1
  1
38
 73
     1
 44
1.0
  0
ENDBLK
  5
2B6
330
2B4
100
AcDbEntity
  8
0
100
AcDbBlockEnd
  0
BLOCK
  5
2C0
330
2BF
100
AcDbEntity
  8
0
100
AcDbBlockBegin
  2
Dim10
 70
     0
 71
     0
 10
0.0
 20
0.0
 30
0.0
  3
Dim10
  1

  0
LINE
  5
2C2
330
2BF
100
AcDbEntity
  8
6
  6
Continuous
 62
     7
370
     9
100
AcDbLine
 10
842.7494178293714
 20
257.3931834661073
 30
0.0
 11
1105.752165486771
 21
257.3931834661073
 31
0.0
  0
LINE
  5
2C3
330
2BF
100
AcDbEntity
  8
6
  6
Continuous
 62
     7
370
     9
100
AcDbLine
 10
1105.752165486771
 20
249.3931834661073
 30
0.0
 11
1105.752165486771
 21
321.3931834661068
 31
0.0
  0
LINE
  5
2C4
330
2BF
100
AcDbEntity
  8
6
  6
Continuous
 62
     7
370
     9
100
AcDbLine
 10
842.7494178293714
 20
257.3931834661073
 30
0.0
 11
858.2042310499965
 21
261.5342881877476
 31
0.0
  0
LINE
  5
2C5
330
2BF
100
AcDbEntity
  8
6
  6
Continuous
 62
     7
370
     9
100
AcDbLine
 10
842.7494178293714
 20
257.3931834661073
 30
0.0
 11
858.2042310499965
 21
253.252078744467
 31
0.0
  0
LINE
  5
2C6
330
2BF
100
AcDbEntity
  8
6
  6
Continuous
 62
     7
370
     9
100
AcDbLine
 10
1105.752165486771
 20
257.3931834661073
 30
0.0
 11
1090.297352266146
 21
253.252078744467
 31
0.0
  0
LINE
  5
2C7
330
2BF
100
AcDbEntity
  8
6
  6
Continuous
 62
     7
370
     9
100
AcDbLine
 10
1105.752165486771
 20
257.3931834661073
 30
0.0
 11
1090.297352266146
 21
261.5342881877477
 31
0.0
  0
MTEXT
  5
2C8
330
2BF
100
AcDbEntity
  8
6
  6
Continuous
 62
     7
370
     9
100
AcDbMText
 10
974.2507916580716
 20
269.3931834661073
 30
0.0
 40
24.0
 41
0.0
 71
     8
 72
     1
  1
263
 73
     1
 44
1.0
  0
ENDBLK
  5
2C1
330
2BF
100
AcDbEntity
  8
0
100
AcDbBlockEnd
  0
BLOCK
  5
2CB
330
2CA
100
AcDbEntity
  8
0
100
AcDbBlockBegin
  2
Dim11
 70
     0
 71
     0
 10
0.0
 20
0.0
 30
0.0
  3
Dim11
  1

  0
LINE
  5
2CD
330
2CA
100
AcDbEntity
  8
6
  6
Continuous
 62
     7
370
     9
100
AcDbLine
 10
1105.752165486771
 20
257.3931834661073
 30
0.0
 11
1362.74941752322
 21
257.3931834661073
 31
0.0
  0
LINE
  5
2CE
330
2CA
100
AcDbEntity
  8
6
  6
Continuous
 62
     7
370
     9
100
AcDbLine
 10
1362.74941752322
 20
249.3931834661073
 30
0.0
 11
1362.74941752322
 21
440.4041388508792
 31
0.0
  0
LINE
  5
2CF
330
2CA
100
AcDbEntity
  8
6
  6
Continuous
 62
     7
370
     9
100
AcDbLine
 10
1105.752165486771
 20
257.3931834661073
 30
0.0
 11
1121.206978707396
 21
261.5342881877476
 31
0.0
  0
LINE
  5
2D0
330
2CA
100
AcDbEntity
  8
6
  6
Continuous
 62
     7
370
     9
100
AcDbLine
 10
1105.752165486771
 20
257.3931834661073
 30
0.0
 11
1121.206978707396
 21
253.252078744467
 31
0.0
  0
LINE
  5
2D1
330
2CA
100
AcDbEntity
  8
6
  6
Continuous
 62
     7
370
     9
100
AcDbLine
 10
1362.74941752322
 20
257.3931834661073
 30
0.0
 11
1347.294604302595
 21
253.252078744467
 31
0.0
  0
LINE
  5
2D2
330
2CA
100
AcDbEntity
  8
6
  6
Continuous
 62
     7
370
     9
100
AcDbLine
 10
1362.74941752322
 20
257.3931834661073
 30
0.0
 11
1347.294604302595
 21
261.5342881877477
 31
0.0
  0
MTEXT
  5
2D3
330
2CA
100
AcDbEntity
  8
6
  6
Continuous
 62
     7
370
     9
100
AcDbMText
 10
1234.250791504996
 20
269.3931834661073
 30
0.0
 40
24.0
 41
0.0
 71
     8
 72
     1
  1
257
 73
     1
 44
1.0
  0
ENDBLK
  5
2CC
330
2CA
100
AcDbEntity
  8
0
100
AcDbBlockEnd
  0
BLOCK
  5
2D6
330
2D5
100
AcDbEntity
  8
0
100
AcDbBlockBegin
  2
Dim12
 70
     0
 71
     0
 10
0.0
 20
0.0
 30
0.0
  3
Dim12
  1

  0
LINE
  5
2D8
330
2D5
100
AcDbEntity
  8
6
  6
Continuous
 62
     7
370
     9
100
AcDbLine
 10
1362.74941752322
 20
257.3931834661073
 30
0.0
 11
1404.749417829371
 21
257.3931834661073
 31
0.0
  0
LINE
  5
2D9
330
2D5
100
AcDbEntity
  8
6
  6
Continuous
 62
     7
370
     9
100
AcDbLine
 10
1362.74941752322
 20
257.3931834661073
 30
0.0
 11
1378.204230743845
 21
261.5342881877476
 31
0.0
  0
LINE
  5
2DA
330
2D5
100
AcDbEntity
  8
6
  6
Continuous
 62
     7
370
     9
100
AcDbLine
 10
1362.74941752322
 20
257.3931834661073
 30
0.0
 11
1378.204230743845
 21
253.252078744467
 31
0.0
  0
LINE
  5
2DB
330
2D5
100
AcDbEntity
  8
6
  6
Continuous
 62
     7
370
     9
100
AcDbLine
 10
1404.749417829371
 20
257.3931834661073
 30
0.0
 11
1389.294604608746
 21
253.252078744467
 31
0.0
  0
LINE
  5
2DC
330
2D5
100
AcDbEntity
  8
6
  6
Continuous
 62
     7
370
     9
100
AcDbLine
 10
1404.749417829371
 20
257.3931834661073
 30
0.0
 11
1389.294604608746
 21
261.5342881877477
 31
0.0
  0
MTEXT
  5
2DD
330
2D5
100
AcDbEntity
  8
6
  6
Continuous
 62
     7
370
     9
100
AcDbMText
 10
1383.749417676295
 20
269.3931834661073
 30
0.0
 40
24.0
 41
0.0
 71
     8
 72
     1
  1
42
 73
     1
 44
1.0
  0
ENDBLK
  5
2D7
330
2D5
100
AcDbEntity
  8
0
100
AcDbBlockEnd
  0
BLOCK
  5
2E5
330
2E4
100
AcDbEntity
  8
0
100
AcDbBlockBegin
  2
*G28
 70
     1
 71
     0
 10
0.0
 20
0.0
 30
0.0
  3
*G28
  1

  0
ARC
  5
2E7
330
2E4
100
AcDbEntity
  8
2
  6
Continuous
 62
    90
370
    18
100
AcDbCircle
 10
1335.749417829372
 20
516.3931834661068
 30
0.0
 40
3.0
100
AcDbArc
 50
89.99999999999991
 51
179.9999999999998
  0
LINE
  5
2E8
330
2E4
100
AcDbEntity
  8
2
  6
Continuous
 62
    90
370
    18
100
AcDbLine
 10
1362.749417829372
 20
519.3931834661068
 30
0.0
 11
1362.749417829372
 21
461.3931834661073
 31
0.0
  0
ARC
  5
2E9
330
2E4
100
AcDbEntity
  8
2
  6
Continuous
 62
    90
370
    18
100
AcDbCircle
 10
1357.749417829372
 20
461.3931834661068
 30
0.0
 40
5.0
100
AcDbArc
 50
269.9999999999998
 51
0.000000000005211
  0
LINE
  5
2EA
330
2E4
100
AcDbEntity
  8
2
  6
Continuous
 62
    90
370
    18
100
AcDbLine
 10
1332.749417829372
 20
461.3931834661073
 30
0.0
 11
1332.749417829372
 21
516.3931834661068
 31
0.0
  0
ENDBLK
  5
2E6
330
2E4
100
AcDbEntity
  8
0
100
AcDbBlockEnd
  0
BLOCK
  5
309
330
308
100
AcDbEntity
  8
0
100
AcDbBlockBegin
  2
Dim13
 70
     0
 71
     0
 10
0.0
 20
0.0
 30
0.0
  3
Dim13
  1

  0
LINE
  5
30B
330
308
100
AcDbEntity
  8
6
  6
Continuous
 62
     7
370
     9
100
AcDbLine
 10
297.8136823654932
 20
1356.893183772257
 30
0.0
 11
368.813682365492
 21
1356.893183772257
 31
0.0
  0
LINE
  5
30C
330
308
100
AcDbEntity
  8
6
  6
Continuous
 62
     7
370
     9
100
AcDbLine
 10
297.8136823654932
 20
1364.893183772257
 30
0.0
 11
297.813682365493
 21
1292.893183772267
 31
0.0
  0
LINE
  5
30D
330
308
100
AcDbEntity
  8
6
  6
Continuous
 62
     7
370
     9
100
AcDbLine
 10
368.813682365492
 20
1364.893183772257
 30
0.0
 11
368.8136823654918
 21
1292.893183772267
 31
0.0
  0
LINE
  5
30E
330
308
100
AcDbEntity
  8
6
  6
Continuous
 62
     7
370
     9
100
AcDbLine
 10
297.8136823654932
 20
1356.893183772257
 30
0.0
 11
313.2684955861183
 21
1361.034288493898
 31
0.0
  0
LINE
  5
30F
330
308
100
AcDbEntity
  8
6
  6
Continuous
 62
     7
370
     9
100
AcDbLine
 10
297.8136823654932
 20
1356.893183772257
 30
0.0
 11
313.2684955861183
 21
1352.752079050617
 31
0.0
  0
LINE
  5
310
330
308
100
AcDbEntity
  8
6
  6
Continuous
 62
     7
370
     9
100
AcDbLine
 10
368.813682365492
 20
1356.893183772257
 30
0.0
 11
353.3588691448669
 21
1352.752079050617
 31
0.0
  0
LINE
  5
311
330
308
100
AcDbEntity
  8
6
  6
Continuous
 62
     7
370
     9
100
AcDbLine
 10
368.813682365492
 20
1356.893183772257
 30
0.0
 11
353.358869144867
 21
1361.034288493898
 31
0.0
  0
MTEXT
  5
312
330
308
100
AcDbEntity
  8
6
  6
Continuous
 62
     7
370
     9
100
AcDbMText
 10
333.3136823654926
 20
1368.893183772257
 30
0.0
 40
24.0
 41
0.0
 71
     8
 72
     1
  1
71
 73
     1
 44
1.0
  0
ENDBLK
  5
30A
330
308
100
AcDbEntity
  8
0
100
AcDbBlockEnd
  0
BLOCK
  5
32A
330
329
100
AcDbEntity
  8
0
100
AcDbBlockBegin
  2
Dim14
 70
     0
 71
     0
 10
0.0
 20
0.0
 30
0.0
  3
Dim14
  1

  0
LINE
  5
32C
330
329
100
AcDbEntity
  8
6
  6
Continuous
 62
     7
370
     9
100
AcDbLine
 10
217.813682365493
 20
658.143183772257
 30
0.0
 11
217.813682365493
 21
1258.143183772257
 31
0.0
  0
LINE
  5
32D
330
329
100
AcDbEntity
  8
6
  6
Continuous
 62
     7
370
     9
100
AcDbLine
 10
209.813682365493
 20
658.143183772257
 30
0.0
 11
281.8136823654929
 21
658.1431837722567
 31
0.0
  0
LINE
  5
32E
330
329
100
AcDbEntity
  8
6
  6
Continuous
 62
     7
370
     9
100
AcDbLine
 10
209.813682365493
 20
1258.143183772257
 30
0.0
 11
281.8136823654929
 21
1258.143183772257
 31
0.0
  0
LINE
  5
32F
330
329
100
AcDbEntity
  8
6
  6
Continuous
 62
     7
370
     9
100
AcDbLine
 10
217.813682365493
 20
658.143183772257
 30
0.0
 11
213.6725776438527
 21
673.597996992882
 31
0.0
  0
LINE
  5
330
330
329
100
AcDbEntity
  8
6
  6
Continuous
 62
     7
370
     9
100
AcDbLine
 10
217.813682365493
 20
658.143183772257
 30
0.0
 11
221.9547870871333
 21
673.597996992882
 31
0.0
  0
LINE
  5
331
330
329
100
AcDbEntity
  8
6
  6
Continuous
 62
     7
370
     9
100
AcDbLine
 10
217.813682365493
 20
1258.143183772257
 30
0.0
 11
221.9547870871333
 21
1242.688370551632
 31
0.0
  0
LINE
  5
332
330
329
100
AcDbEntity
  8
6
  6
Continuous
 62
     7
370
     9
100
AcDbLine
 10
217.813682365493
 20
1258.143183772257
 30
0.0
 11
213.6725776438527
 21
1242.688370551632
 31
0.0
  0
MTEXT
  5
333
330
329
100
AcDbEntity
  8
6
  6
Continuous
 62
     7
370
     9
100
AcDbMText
 10
205.813682365493
 20
958.1431837722571
 30
0.0
 40
24.0
 41
0.0
 71
     8
 72
     1
  1
600
 11
1.615544574432587E-15
 21
1.0
 31
0.0
 73
     1
 44
1.0
  0
ENDBLK
  5
32B
330
329
100
AcDbEntity
  8
0
100
AcDbBlockEnd
  0
BLOCK
  5
33C
330
33B
100
AcDbEntity
  8
0
100
AcDbBlockBegin
  2
*G31
 70
     1
 71
     0
 10
0.0
 20
0.0
 30
0.0
  3
*G31
  1

  0
LINE
  5
33E
330
33B
100
AcDbEntity
  8
2
  6
Continuous
 62
    90
370
    18
100
AcDbLine
 10
814.7494178293716
 20
539.3931834661068
 30
0.0
 11
1394.749417829372
 21
539.3931834661068
 31
0.0
  0
LINE
  5
33F
330
33B
100
AcDbEntity
  8
2
  6
Continuous
 62
    90
370
    18
100
AcDbLine
 10
1394.749417829372
 20
519.3931834661068
 30
0.0
 11
814.7494178293716
 21
519.3931834661068
 31
0.0
  0
ENDBLK
  5
33D
330
33B
100
AcDbEntity
  8
0
100
AcDbBlockEnd
  0
BLOCK
  5
343
330
342
100
AcDbEntity
  8
0
100
AcDbBlockBegin
  2
Dim15
 70
     0
 71
     0
 10
0.0
 20
0.0
 30
0.0
  3
Dim15
  1

  0
LINE
  5
345
330
342
100
AcDbEntity
  8
6
  6
Continuous
 62
     7
370
     9
100
AcDbLine
 10
668.7494178293848
 20
1276.893183772267
 30
0.0
 11
668.7494178293848
 21
639.3931834661068
 31
0.0
  0
LINE
  5
346
330
342
100
AcDbEntity
  8
6
  6
Continuous
 62
     7
370
     9
100
AcDbLine
 10
660.7494178293848
 20
1276.893183772267
 30
0.0
 11
788.7494178293719
 21
1276.893183772267
 31
0.0
  0
LINE
  5
347
330
342
100
AcDbEntity
  8
6
  6
Continuous
 62
     7
370
     9
100
AcDbLine
 10
660.7494178293848
 20
639.3931834661068
 30
0.0
 11
788.7494178293719
 21
639.3931834661068
 31
0.0
  0
LINE
  5
348
330
342
100
AcDbEntity
  8
6
  6
Continuous
 62
     7
370
     9
100
AcDbLine
 10
668.7494178293848
 20
1276.893183772267
 30
0.0
 11
672.8905225510251
 21
1261.438370551642
 31
0.0
  0
LINE
  5
349
330
342
100
AcDbEntity
  8
6
  6
Continuous
 62
     7
370
     9
100
AcDbLine
 10
668.7494178293848
 20
1276.893183772267
 30
0.0
 11
664.6083131077445
 21
1261.438370551642
 31
0.0
  0
LINE
  5
34A
330
342
100
AcDbEntity
  8
6
  6
Continuous
 62
     7
370
     9
100
AcDbLine
 10
668.7494178293848
 20
639.3931834661068
 30
0.0
 11
664.6083131077445
 21
654.8479966867319
 31
0.0
  0
LINE
  5
34B
330
342
100
AcDbEntity
  8
6
  6
Continuous
 62
     7
370
     9
100
AcDbLine
 10
668.7494178293848
 20
639.3931834661068
 30
0.0
 11
672.8905225510251
 21
654.8479966867319
 31
0.0
  0
MTEXT
  5
34C
330
342
100
AcDbEntity
  8
6
  6
Continuous
 62
     7
370
     9
100
AcDbMText
 10
656.7494178293848
 20
958.143183619187
 30
0.0
 40
24.0
 41
0.0
 71
     8
 72
     1
  1
638
 11
1.615544574432587E-15
 21
1.0
 31
0.0
 73
     1
 44
1.0
  0
ENDBLK
  5
344
330
342
100
AcDbEntity
  8
0
100
AcDbBlockEnd
  0
BLOCK
  5
353
330
352
100
AcDbEntity
  8
0
100
AcDbBlockBegin
  2
Dim16
 70
     0
 71
     0
 10
0.0
 20
0.0
 30
0.0
  3
Dim16
  1

  0
LINE
  5
355
330
352
100
AcDbEntity
  8
6
  6
Continuous
 62
     7
370
     9
100
AcDbLine
 10
257.8136823654929
 20
964.5128821577948
 30
0.0
 11
449.4475939643346
 21
964.5128821577948
 31
0.0
  0
LINE
  5
356
330
352
100
AcDbEntity
  8
6
  6
Continuous
 62
     7
370
     9
100
AcDbLine
 10
297.8136823654929
 20
964.5128821577948
 30
0.0
 11
282.3588691448678
 21
960.3717774361545
 31
0.0
  0
LINE
  5
357
330
352
100
AcDbEntity
  8
6
  6
Continuous
 62
     7
370
     9
100
AcDbLine
 10
297.8136823654929
 20
964.5128821577948
 30
0.0
 11
282.3588691448679
 21
968.6539868794353
 31
0.0
  0
LINE
  5
358
330
352
100
AcDbEntity
  8
6
  6
Continuous
 62
     7
370
     9
100
AcDbLine
 10
369.31368236549
 20
964.5128821577948
 30
0.0
 11
384.7684955861151
 21
968.653986879435
 31
0.0
  0
LINE
  5
359
330
352
100
AcDbEntity
  8
6
  6
Continuous
 62
     7
370
     9
100
AcDbLine
 10
369.31368236549
 20
964.5128821577948
 30
0.0
 11
384.768495586115
 21
960.3717774361544
 31
0.0
  0
MTEXT
  5
35A
330
352
100
AcDbEntity
  8
6
  6
Continuous
 62
     7
370
     9
100
AcDbMText
 10
425.4475939643346
 20
976.5128821577948
 30
0.0
 40
24.0
 41
0.0
 71
     8
 72
     1
  1
71.5
 73
     1
 44
1.0
  0
ENDBLK
  5
354
330
352
100
AcDbEntity
  8
0
100
AcDbBlockEnd
  0
ENDSEC
  0
SECTION
  2
ENTITIES
  0
INSERT
  5
9C
330
1F
100
AcDbEntity
  8
0
100
AcDbBlockReference
  2
*G12
 10
0.0
 20
0.0
 30
0.0
  0
LINE
  5
9D
330
1F
100
AcDbEntity
  8
8
  6
Continuous
 62
   171
370
    18
100
AcDbLine
 10
1896.0
 20
287.9999999999999
 30
0.0
 11
1896.0
 21
160.0
 31
0.0
  0
TEXT
  5
9E
330
1F
100
AcDbEntity
  8
8
  6
Continuous
 62
   171
370
     9
100
AcDbText
 10
1500.0
 20
156.0
 30
0.0
 40
28.0
  1
備考
 50
-0.0000000000000891
  7
T_STANDARD
100
AcDbText
  0
TEXT
  5
9F
330
1F
100
AcDbEntity
  8
8
  6
Continuous
 62
   171
370
     9
100
AcDbText
 10
1500.0
 20
220.0
 30
0.0
 40
28.0
  1
品番
 50
-0.0000000000000891
  7
T_STANDARD
100
AcDbText
  0
TEXT
  5
A0
330
1F
100
AcDbEntity
  8
8
  6
Continuous
 62
   171
370
     9
100
AcDbText
 10
1500.0
 20
283.9999999999999
 30
0.0
 40
28.0
  1
品名
 50
-0.0000000000000891
  7
T_STANDARD
100
AcDbText
  0
LINE
  5
A1
330
1F
100
AcDbEntity
  8
8
  6
Continuous
 62
   171
370
    18
100
AcDbLine
 10
1896.0
 20
224.0
 30
0.0
 11
1480.0
 21
224.0
 31
0.0
  0
LINE
  5
A2
330
1F
100
AcDbEntity
  8
8
  6
Continuous
 62
   171
370
    18
100
AcDbLine
 10
1520.0
 20
287.9999999999999
 30
0.0
 11
1520.0
 21
96.0
 31
0.0
  0
LINE
  5
A3
330
1F
100
AcDbEntity
  8
9
  6
Continuous
 62
   170
370
    30
100
AcDbLine
 10
2280.0
 20
287.9999999999999
 30
0.0
 11
1480.0
 21
287.9999999999999
 31
0.0
  0
LINE
  5
A4
330
1F
100
AcDbEntity
  8
9
  6
Continuous
 62
   170
370
    30
100
AcDbLine
 10
1480.0
 20
287.9999999999999
 30
0.0
 11
1480.0
 21
96.0
 31
0.0
  0
LINE
  5
A5
330
1F
100
AcDbEntity
  8
8
  6
Continuous
 62
   171
370
    18
100
AcDbLine
 10
1992.0
 20
287.9999999999999
 30
0.0
 11
1992.0
 21
96.0
 31
0.0
  0
TEXT
  5
A6
330
1F
100
AcDbEntity
  8
8
  6
Continuous
 62
   171
370
     9
100
AcDbText
 10
1908.0
 20
256.0
 30
0.0
 40
24.0
  1
縮　尺
100
AcDbText
  0
LINE
  5
A7
330
1F
100
AcDbEntity
  8
8
  6
Continuous
 62
   171
370
    18
100
AcDbLine
 10
1896.0
 20
248.0
 30
0.0
 11
1992.0
 21
248.0
 31
0.0
  0
LINE
  5
A8
330
1F
100
AcDbEntity
  8
8
  6
Continuous
 62
   171
370
    18
100
AcDbLine
 10
1992.0
 20
160.0
 30
0.0
 11
1480.0
 21
160.0
 31
0.0
  0
LINE
  5
A9
330
1F
100
AcDbEntity
  8
8
  6
Continuous
 62
   171
370
    18
100
AcDbLine
 10
2280.0
 20
144.0
 30
0.0
 11
1992.0
 21
144.0
 31
0.0
  0
LINE
  5
AA
330
1F
100
AcDbEntity
  8
8
  6
Continuous
 62
   171
370
    18
100
AcDbLine
 10
1992.0
 20
192.0
 30
0.0
 11
2280.0
 21
192.0
 31
0.0
  0
LINE
  5
AB
330
1F
100
AcDbEntity
  8
8
  6
Continuous
 62
   171
370
    18
100
AcDbLine
 10
2280.0
 20
224.0
 30
0.0
 11
1992.0
 21
224.0
 31
0.0
  0
TEXT
  5
AC
330
1F
100
AcDbEntity
  8
8
  6
Continuous
 62
   171
370
     9
100
AcDbText
 10
2008.0
 20
236.0
 30
0.0
 40
40.0
  1
株式会社シマブン
 41
0.8
100
AcDbText
  0
TEXT
  5
AD
330
1F
100
AcDbEntity
  8
8
  6
Continuous
 62
   171
370
     9
100
AcDbText
 10
2004.0
 20
95.99999999999994
 30
0.0
 40
24.0
  1
年月日
100
AcDbText
  0
TEXT
  5
AE
330
1F
100
AcDbEntity
  8
8
  6
Continuous
 62
   171
370
     9
100
AcDbText
 10
2004.0
 20
120.0
 30
0.0
 40
24.0
  1
作　成
100
AcDbText
  0
TEXT
  5
AF
330
1F
100
AcDbEntity
  8
8
  6
Continuous
 62
   171
370
     9
100
AcDbText
 10
2010.0
 20
196.0
 30
0.0
 40
24.0
  1
承 認
100
AcDbText
  0
LINE
  5
B0
330
1F
100
AcDbEntity
  8
8
  6
Continuous
 62
   171
370
    18
100
AcDbLine
 10
2088.0
 20
224.0
 30
0.0
 11
2088.0
 21
96.0
 31
0.0
  0
TEXT
  5
B1
330
1F
100
AcDbEntity
  8
8
  6
Continuous
 62
   171
370
     9
100
AcDbText
 10
2106.0
 20
196.0
 30
0.0
 40
24.0
  1
検 図
100
AcDbText
  0
LINE
  5
B2
330
1F
100
AcDbEntity
  8
8
  6
Continuous
 62
   171
370
    18
100
AcDbLine
 10
2184.0
 20
224.0
 30
0.0
 11
2184.0
 21
144.0
 31
0.0
  0
TEXT
  5
B3
330
1F
100
AcDbEntity
  8
8
  6
Continuous
 62
   171
370
     9
100
AcDbText
 10
2200.0
 20
152.0
 30
0.0
 40
32.0
  1
藤戸
100
AcDbText
  0
TEXT
  5
B4
330
1F
100
AcDbEntity
  8
8
  6
Continuous
 62
   171
370
     9
100
AcDbText
 10
2202.0
 20
196.0
 30
0.0
 40
24.0
  1
設 計
100
AcDbText
  0
LINE
  5
B5
330
1F
100
AcDbEntity
  8
8
  6
Continuous
 62
   171
370
    18
100
AcDbLine
 10
2040.0
 20
1508.0
 30
0.0
 11
2040.0
 21
1535.999999999999
 31
0.0
  0
LINE
  5
B6
330
1F
100
AcDbEntity
  8
8
  6
Continuous
 62
   171
370
    18
100
AcDbLine
 10
1880.0
 20
1508.0
 30
0.0
 11
1880.0
 21
1535.999999999999
 31
0.0
  0
LINE
  5
B7
330
1F
100
AcDbEntity
  8
8
  6
Continuous
 62
   171
370
    18
100
AcDbLine
 10
1480.0
 20
1508.0
 30
0.0
 11
1480.0
 21
1535.999999999999
 31
0.0
  0
LINE
  5
B8
330
1F
100
AcDbEntity
  8
8
  6
Continuous
 62
   171
370
    18
100
AcDbLine
 10
1424.0
 20
1508.0
 30
0.0
 11
1424.0
 21
1535.999999999999
 31
0.0
  0
LINE
  5
B9
330
1F
100
AcDbEntity
  8
8
  6
Continuous
 62
   171
370
    18
100
AcDbLine
 10
2280.0
 20
1508.0
 30
0.0
 11
1424.0
 21
1508.0
 31
0.0
  0
TEXT
  5
BA
330
1F
100
AcDbEntity
  8
8
  6
Continuous
 62
   171
370
     9
100
AcDbText
 10
1432.0
 20
1512.0
 30
0.0
 40
20.0
  1
記号
100
AcDbText
  0
TEXT
  5
BB
330
1F
100
AcDbEntity
  8
8
  6
Continuous
 62
   171
370
     9
100
AcDbText
 10
1595.0
 20
1512.0
 30
0.0
 40
20.0
  1
訂　 正　 記　 事
100
AcDbText
  0
TEXT
  5
BC
330
1F
100
AcDbEntity
  8
8
  6
Continuous
 62
   171
370
     9
100
AcDbText
 10
1890.0
 20
1512.0
 30
0.0
 40
20.0
  1
訂 正 年 月 日
100
AcDbText
  0
TEXT
  5
BD
330
1F
100
AcDbEntity
  8
8
  6
Continuous
 62
   171
370
     9
100
AcDbText
 10
2090.0
 20
1512.0
 30
0.0
 40
20.0
  1
備　　　　　考
100
AcDbText
  0
TEXT
  5
BE
330
1F
100
AcDbEntity
  8
8
  6
Continuous
 62
   171
370
     9
100
AcDbText
 10
1544.8
 20
239.9999999999999
 30
0.0
 40
32.0
  1
ペーパーホルダー「おくだけ」
 41
0.6000000000000001
100
AcDbText
  0
TEXT
  5
BF
330
1F
100
AcDbEntity
  8
8
  6
Continuous
 62
   171
370
     9
100
AcDbText
 10
1536.8
 20
111.9999999999997
 30
0.0
 40
32.00000000000001
  1
色については品番表参照のこと
 41
0.5999999999999998
100
AcDbText
  0
TEXT
  5
C0
330
1F
100
AcDbEntity
  8
8
  6
Continuous
 62
   171
370
     9
100
AcDbText
 10
1910.4
 20
188.0
 30
0.0
 40
32.0
  1
１：８
 41
0.7000000000000002
100
AcDbText
  0
LINE
  5
C1
330
1F
100
AcDbEntity
  8
2
  6
Continuous
 62
    90
370
    18
100
AcDbLine
 10
297.8136823654929
 20
519.3931834661068
 30
0.0
 11
387.8136823654929
 21
519.3931834661068
 31
0.0
  0
LINE
  5
C2
330
1F
100
AcDbEntity
  8
2
  6
Continuous
 62
    90
370
    18
100
AcDbLine
 10
387.8136823654929
 20
519.3931834661068
 30
0.0
 11
387.8136823654929
 21
516.3931834661068
 31
0.0
  0
LINE
  5
C3
330
1F
100
AcDbEntity
  8
2
  6
Continuous
 62
    90
370
    18
100
AcDbLine
 10
297.8136823654929
 20
519.3931834661068
 30
0.0
 11
297.8136823654929
 21
394.3931834661068
 31
0.0
  0
LINE
  5
C4
330
1F
100
AcDbEntity
  8
2
  6
Continuous
 62
    90
370
    18
100
AcDbLine
 10
297.8136823654929
 20
394.3931834661068
 30
0.0
 11
300.8136823654929
 21
394.3931834661068
 31
0.0
  0
LINE
  5
C5
330
1F
100
AcDbEntity
  8
2
  6
Continuous
 62
    90
370
    18
100
AcDbLine
 10
300.8136823654929
 20
491.3931834661068
 30
0.0
 11
358.6715467417655
 21
491.3931834661068
 31
0.0
  0
LINE
  5
C6
330
1F
100
AcDbEntity
  8
2
  6
Continuous
 62
    90
370
    18
100
AcDbLine
 10
387.8136823654929
 20
516.3931834661068
 30
0.0
 11
365.7426145536317
 21
494.322115654242
 31
0.0
  0
ARC
  5
C7
330
1F
100
AcDbEntity
  8
2
  6
Continuous
 62
    90
370
    18
100
AcDbCircle
 10
358.6715467417655
 20
501.3931834661068
 30
0.0
 40
10.0
100
AcDbArc
 50
269.9999999999998
 51
315.0000000000052
  0
LINE
  5
C8
330
1F
100
AcDbEntity
  8
2
  6
Continuous
 62
    90
370
    18
100
AcDbLine
 10
300.8136823654929
 20
394.3931834661068
 30
0.0
 11
300.8136823654929
 21
491.3931834661068
 31
0.0
  0
LINE
  5
C9
330
1F
100
AcDbEntity
  8
2
  6
Continuous
 62
    90
370
    18
100
AcDbLine
 10
300.8136823654929
 20
394.2364511235071
 30
0.0
 11
300.8136823654929
 21
484.3931834661068
 31
0.0
  0
LINE
  5
CA
330
1F
100
AcDbEntity
  8
2
  6
Continuous
 62
    90
370
    18
100
AcDbLine
 10
352.1672202164934
 20
342.882913272507
 30
0.0
 11
300.8136823654929
 21
394.2364511235071
 31
0.0
  0
ARC
  5
CB
330
1F
100
AcDbEntity
  8
2
  6
Continuous
 62
    90
370
    18
100
AcDbCircle
 10
330.1840384112936
 20
457.4822931983069
 30
0.0
 40
14.861
100
AcDbArc
 50
89.00000000000118
 51
96.29635500000076
  0
LINE
  5
CC
330
1F
100
AcDbEntity
  8
2
  6
HIDDEN
 62
    90
370
    18
100
AcDbLine
 10
326.2698144822932
 20
482.3227221963068
 30
0.0
 11
318.2470679658934
 21
482.4627603715069
 31
0.0
  0
LINE
  5
CD
330
1F
100
AcDbEntity
  8
2
  6
Continuous
 62
    90
370
    18
100
AcDbLine
 10
354.3832925364929
 20
471.9231578673068
 30
0.0
 11
330.4433985276935
 21
472.3410283819069
 31
0.0
  0
ARC
  5
CE
330
1F
100
AcDbEntity
  8
2
  6
Continuous
 62
    90
370
    18
100
AcDbCircle
 10
371.7960451244933
 20
453.7833011323071
 30
0.0
 40
17.8332
100
AcDbArc
 50
67.89025200000017
 51
88.99999999999942
  0
ARC
  5
CF
330
1F
100
AcDbEntity
  8
2
  6
Continuous
 62
    90
370
    18
100
AcDbCircle
 10
347.5280975128933
 20
394.0477104791069
 30
0.0
 40
82.3101243426
100
AcDbArc
 50
24.69329099999998
 51
67.89025200000023
  0
ARC
  5
D0
330
1F
100
AcDbEntity
  8
2
  6
HIDDEN
 62
    90
370
    18
100
AcDbCircle
 10
330.1840384112936
 20
457.4822931983069
 30
0.0
 40
14.861
100
AcDbArc
 50
96.29635500000076
 51
112.8093760000001
  0
ARC
  5
D1
330
1F
100
AcDbEntity
  8
2
  6
HIDDEN
 62
    90
370
    18
100
AcDbCircle
 10
321.1582962550935
 20
478.943847959107
 30
0.0
 40
8.4212323426
100
AcDbArc
 50
268.9999999999987
 51
292.8093760000012
  0
ARC
  5
D2
330
1F
100
AcDbEntity
  8
2
  6
HIDDEN
 62
    90
370
    18
100
AcDbCircle
 10
319.1425502150939
 20
476.9972650131069
 30
0.0
 40
6.4397676574
100
AcDbArc
 50
178.9999999999999
 51
268.9999999999953
  0
ARC
  5
D3
330
1F
100
AcDbEntity
  8
2
  6
HIDDEN
 62
    90
370
    18
100
AcDbCircle
 10
318.151969454693
 20
477.0145572727072
 30
0.0
 40
5.4490323426
100
AcDbArc
 50
88.99999999999412
 51
179.0000000000036
  0
CIRCLE
  5
D4
330
1F
100
AcDbEntity
  8
2
  6
Continuous
 62
    90
370
    18
100
AcDbCircle
 10
321.1237147080935
 20
476.9626834661069
 30
0.0
 40
2.37776
  0
LINE
  5
D5
330
1F
100
AcDbEntity
  8
2
  6
Continuous
 62
    90
370
    18
100
AcDbLine
 10
371.7808869044936
 20
481.528324469107
 30
0.0
 11
326.2698144822932
 21
482.3227221963068
 31
0.0
  0
ARC
  5
D6
330
1F
100
AcDbEntity
  8
2
  6
Continuous
 62
    90
370
    18
100
AcDbCircle
 10
371.296748218693
 20
453.7920156227071
 30
0.0
 40
27.7405323426
100
AcDbArc
 50
64.24666799999974
 51
88.99999999999885
  0
ARC
  5
D7
330
1F
100
AcDbEntity
  8
2
  6
Continuous
 62
    90
370
    18
100
AcDbCircle
 10
348.9122421362933
 20
407.3910249097069
 30
0.0
 40
79.25866765739998
100
AcDbArc
 50
16.00000000000014
 51
64.24666800000027
  0
LINE
  5
D8
330
1F
100
AcDbEntity
  8
2
  6
Continuous
 62
    90
370
    18
100
AcDbLine
 10
430.4487087632931
 20
410.5864698239068
 30
0.0
 11
425.100561805293
 21
429.2376727635071
 31
0.0
  0
LINE
  5
D9
330
1F
100
AcDbEntity
  8
2
  6
Continuous
 62
    90
370
    18
100
AcDbLine
 10
430.3819828732937
 20
406.763831265707
 30
0.0
 11
429.4789928468933
 21
406.7795928423072
 31
0.0
  0
LINE
  5
DA
330
1F
100
AcDbEntity
  8
2
  6
Continuous
 62
    90
370
    18
100
AcDbLine
 10
354.3832925364929
 20
471.9231578673068
 30
0.0
 11
372.1072760752938
 21
471.6137845415071
 31
0.0
  0
LINE
  5
DB
330
1F
100
AcDbEntity
  8
2
  6
Continuous
 62
    90
370
    18
100
AcDbLine
 10
430.4487087632931
 20
410.5864698239068
 30
0.0
 11
430.3819828732937
 21
406.763831265707
 31
0.0
  0
LINE
  5
DC
330
1F
100
AcDbEntity
  8
2
  6
Continuous
 62
    90
370
    18
100
AcDbLine
 10
314.1885823654936
 20
473.4951187809072
 30
0.0
 11
313.7157796504932
 21
473.4951187809072
 31
0.0
  0
LINE
  5
DD
330
1F
100
AcDbEntity
  8
2
  6
Continuous
 62
    90
370
    18
100
AcDbLine
 10
321.1237147080935
 20
484.3931834661068
 30
0.0
 11
300.8136823654929
 21
484.3931834661068
 31
0.0
  0
LINE
  5
DE
330
1F
100
AcDbEntity
  8
2
  6
Continuous
 62
    90
370
    18
100
AcDbLine
 10
429.6090147080938
 20
366.1851693265073
 30
0.0
 11
429.6090147080938
 21
368.5879493061068
 31
0.0
  0
ARC
  5
DF
330
1F
100
AcDbEntity
  8
2
  6
Continuous
 62
    90
370
    18
100
AcDbCircle
 10
426.6368147080937
 20
366.1851693265073
 30
0.0
 40
2.9722
100
AcDbArc
 50
293.4999999999939
 51
0.0
  0
ARC
  5
E0
330
1F
100
AcDbEntity
  8
2
  6
Continuous
 62
    90
370
    18
100
AcDbCircle
 10
426.6368147080937
 20
368.5879493061068
 30
0.0
 40
2.9722
100
AcDbArc
 50
0.0
 51
82.00000000000854
  0
ARC
  5
E1
330
1F
100
AcDbEntity
  8
2
  6
Continuous
 62
    90
370
    18
100
AcDbCircle
 10
397.2190372112934
 20
357.7153028753071
 30
0.0
 40
17.8332
100
AcDbArc
 50
81.99999999999905
 51
113.5000000000007
  0
LINE
  5
E2
330
1F
100
AcDbEntity
  8
2
  6
Continuous
 62
    90
370
    18
100
AcDbLine
 10
427.0504646986935
 20
371.5312238557069
 30
0.0
 11
399.7009401270932
 21
375.3749501729069
 31
0.0
  0
ARC
  5
E3
330
1F
100
AcDbEntity
  8
2
  6
Continuous
 62
    90
370
    18
100
AcDbCircle
 10
373.2958231888931
 20
386.2053021977069
 30
0.0
 40
17.8332
100
AcDbArc
 50
225.0000000000007
 51
293.4999999999998
  0
LINE
  5
E4
330
1F
100
AcDbEntity
  8
2
  6
Continuous
 62
    90
370
    18
100
AcDbLine
 10
390.1080665444931
 20
374.0694172673068
 30
0.0
 11
380.406796827893
 21
369.8511848335072
 31
0.0
  0
ARC
  5
E5
330
1F
100
AcDbEntity
  8
2
  6
Continuous
 62
    90
370
    18
100
AcDbCircle
 10
346.387414708093
 20
413.113710678507
 30
0.0
 40
17.8332
100
AcDbArc
 50
179.9999999999998
 51
225.0000000000007
  0
LINE
  5
E6
330
1F
100
AcDbEntity
  8
2
  6
Continuous
 62
    90
370
    18
100
AcDbLine
 10
360.6858485808932
 20
373.595324617507
 30
0.0
 11
333.7774401000931
 21
400.5037330983071
 31
0.0
  0
ARC
  5
E7
330
1F
100
AcDbEntity
  8
2
  6
Continuous
 62
    90
370
    18
100
AcDbCircle
 10
364.7771977966929
 20
355.4928878805069
 30
0.0
 40
17.8332
100
AcDbArc
 50
224.9999999999996
 51
293.5000000000003
  0
LINE
  5
E8
330
1F
100
AcDbEntity
  8
2
  6
Continuous
 62
    90
370
    18
100
AcDbLine
 10
427.8219764858929
 20
363.459483594507
 30
0.0
 11
371.8881714356937
 21
339.1387734885068
 31
0.0
  0
ARC
  5
E9
330
1F
100
AcDbEntity
  8
2
  6
Continuous
 62
    90
370
    18
100
AcDbCircle
 10
321.1237147080935
 20
476.9626834661069
 30
0.0
 40
7.4305
100
AcDbArc
 50
0.0
 51
89.99999999999991
  0
LINE
  5
EA
330
1F
100
AcDbEntity
  8
2
  6
Continuous
 62
    90
370
    18
100
AcDbLine
 10
328.5542147080939
 20
413.113710678507
 30
0.0
 11
328.5542147080939
 21
476.9626834661069
 31
0.0
  0
CIRCLE
  5
EB
330
1F
100
AcDbEntity
  8
7
  6
HIDDEN
 62
   132
370
     9
100
AcDbCircle
 10
366.6530899378938
 20
416.2930373521069
 30
0.0
 40
56.96716765739993
  0
LINE
  5
EC
330
1F
100
AcDbEntity
  8
7
  6
Continuous
 62
   132
370
     9
100
AcDbLine
 10
300.8136823654929
 20
461.6638669889069
 30
0.0
 11
300.811265966893
 21
461.6680191523071
 31
0.0
  0
LINE
  5
ED
330
1F
100
AcDbEntity
  8
7
  6
Continuous
 62
   132
370
     9
100
AcDbLine
 10
300.8083353776935
 20
416.6638699611069
 30
0.0
 11
300.8059219512932
 21
416.6680221245072
 31
0.0
  0
LINE
  5
EE
330
1F
100
AcDbEntity
  8
1
  6
Continuous
 62
    45
370
     9
100
AcDbLine
 10
305.7673500228937
 20
396.288327226707
 30
0.0
 11
305.7673500228937
 21
468.5414511235069
 31
0.0
  0
LINE
  5
EF
330
1F
100
AcDbEntity
  8
1
  6
Continuous
 62
    45
370
     9
100
AcDbLine
 10
323.6005500228928
 20
413.113710678507
 30
0.0
 11
323.6005500228928
 21
468.5414511235069
 31
0.0
  0
LINE
  5
F0
330
1F
100
AcDbEntity
  8
1
  6
Continuous
 62
    45
370
     9
100
AcDbLine
 10
318.6468823654939
 20
473.4951187809072
 30
0.0
 11
310.721014708093
 21
473.4951187809072
 31
0.0
  0
ARC
  5
F1
330
1F
100
AcDbEntity
  8
1
  6
Continuous
 62
    45
370
     9
100
AcDbCircle
 10
310.721014708093
 20
468.5414511235069
 30
0.0
 40
4.9536676574
100
AcDbArc
 50
89.99999999999991
 51
179.9999999999998
  0
ARC
  5
F2
330
1F
100
AcDbEntity
  8
1
  6
Continuous
 62
    45
370
     9
100
AcDbCircle
 10
318.6468823654939
 20
468.5414511235069
 30
0.0
 40
4.9536676574
100
AcDbArc
 50
0.0
 51
89.99999999999991
  0
CIRCLE
  5
F3
330
1F
100
AcDbEntity
  8
1
  6
HIDDEN
 62
    45
370
     9
100
AcDbCircle
 10
321.1237147080935
 20
476.9626834661069
 30
0.0
 40
2.4768323426
  0
LINE
  5
F4
330
1F
100
AcDbEntity
  8
1
  6
Continuous
 62
    45
370
     9
100
AcDbLine
 10
355.6699935828935
 20
346.3856836667071
 30
0.0
 11
305.7673500228937
 21
396.288327226707
 31
0.0
  0
LINE
  5
F5
330
1F
100
AcDbEntity
  8
1
  6
Continuous
 62
    45
370
     9
100
AcDbLine
 10
357.1830752144931
 20
370.0925542233069
 30
0.0
 11
330.2746667336939
 21
397.000962704107
 31
0.0
  0
ARC
  5
F6
330
1F
100
AcDbEntity
  8
1
  6
Continuous
 62
    45
370
     9
100
AcDbCircle
 10
346.387414708093
 20
413.113710678507
 30
0.0
 40
22.7868676574
100
AcDbArc
 50
179.9999999999998
 51
225.0000000000004
  0
LINE
  5
F7
330
1F
100
AcDbEntity
  8
1
  6
Continuous
 62
    45
370
     9
100
AcDbLine
 10
423.579853508493
 20
367.0166393043071
 30
0.0
 11
369.9129008152938
 21
343.6815820511072
 31
0.0
  0
ARC
  5
F8
330
1F
100
AcDbEntity
  8
1
  6
Continuous
 62
    45
370
     9
100
AcDbCircle
 10
364.7771977966929
 20
355.4928878805069
 30
0.0
 40
12.8795323426
100
AcDbArc
 50
224.9999999999996
 51
293.5000000000007
  0
LINE
  5
F9
330
1F
100
AcDbEntity
  8
1
  6
Continuous
 62
    45
370
     9
100
AcDbLine
 10
392.0833341926934
 20
369.5266087047069
 30
0.0
 11
382.3820644760933
 21
365.3083762709073
 31
0.0
  0
ARC
  5
FA
330
1F
100
AcDbEntity
  8
1
  6
Continuous
 62
    45
370
     9
100
AcDbCircle
 10
373.2958231888931
 20
386.2053021977069
 30
0.0
 40
22.7868676574
100
AcDbArc
 50
225.0000000000004
 51
293.5000000000002
  0
LINE
  5
FB
330
1F
100
AcDbEntity
  8
1
  6
Continuous
 62
    45
370
     9
100
AcDbLine
 10
423.579853508493
 20
367.0166393043071
 30
0.0
 11
399.0115205038935
 21
370.4694915995071
 31
0.0
  0
ARC
  5
FC
330
1F
100
AcDbEntity
  8
1
  6
Continuous
 62
    45
370
     9
100
AcDbCircle
 10
397.2190372112934
 20
357.7153028753071
 30
0.0
 40
12.8795323426
100
AcDbArc
 50
81.99999999999923
 51
113.500000000001
  0
CIRCLE
  5
FD
330
1F
100
AcDbEntity
  8
1
  6
HIDDEN
 62
    45
370
     9
100
AcDbCircle
 10
321.1237147080935
 20
476.9626834661069
 30
0.0
 40
3.9629323426
  0
CIRCLE
  5
FE
330
1F
100
AcDbEntity
  8
1
  6
HIDDEN
 62
    45
370
     9
100
AcDbCircle
 10
321.1237147080935
 20
476.9626834661069
 30
0.0
 40
3.9629323426
  0
ARC
  5
FF
330
1F
100
AcDbEntity
  8
1
  6
HIDDEN
 62
    45
370
     9
100
AcDbCircle
 10
318.151969454693
 20
477.0145572727072
 30
0.0
 40
3.4675676574
100
AcDbArc
 50
88.99999999998514
 51
179.0000000000002
  0
LINE
  5
100
330
1F
100
AcDbEntity
  8
1
  6
HIDDEN
 62
    45
370
     9
100
AcDbLine
 10
314.6849308488934
 20
477.0750742369071
 30
0.0
 11
314.6330570422931
 21
474.103326011307
 31
0.0
  0
LINE
  5
101
330
1F
100
AcDbEntity
  8
1
  6
HIDDEN
 62
    45
370
     9
100
AcDbLine
 10
314.1291205322939
 20
473.6166817609071
 30
0.0
 11
313.6563891500934
 21
473.624932588107
 31
0.0
  0
ARC
  5
102
330
1F
100
AcDbEntity
  8
1
  6
HIDDEN
 62
    45
370
     9
100
AcDbCircle
 10
314.1377666620936
 20
474.1119721411071
 30
0.0
 40
0.4953676574
100
AcDbArc
 50
268.9999999999519
 51
359.0000000000036
  0
LINE
  5
103
330
1F
100
AcDbEntity
  8
1
  6
HIDDEN
 62
    45
370
     9
100
AcDbLine
 10
327.7550139056937
 20
480.3150308183069
 30
0.0
 11
323.1024865800935
 21
480.3962402389068
 31
0.0
  0
LINE
  5
104
330
1F
100
AcDbEntity
  8
1
  6
HIDDEN
 62
    45
370
     9
100
AcDbLine
 10
319.2659797366939
 20
480.4632068771068
 30
0.0
 11
318.2124864188934
 21
480.4815958785073
 31
0.0
  0
LINE
  5
105
330
1F
100
AcDbEntity
  8
2
  6
HIDDEN
 62
    90
370
    18
100
AcDbLine
 10
321.1582962550935
 20
470.522615616507
 30
0.0
 11
319.0301607725748
 21
470.522615616507
 31
0.0
  0
ARC
  5
106
330
1F
100
AcDbEntity
  8
1
  6
HIDDEN
 62
    45
370
     9
100
AcDbCircle
 10
371.296748218693
 20
453.7920156227071
 30
0.0
 40
25.7590676574
100
AcDbArc
 50
64.24666799999873
 51
88.99999999999801
  0
ARC
  5
107
330
1F
100
AcDbEntity
  8
1
  6
HIDDEN
 62
    45
370
     9
100
AcDbCircle
 10
348.9122421362933
 20
407.3910249097069
 30
0.0
 40
77.2772
100
AcDbArc
 50
16.00000000000005
 51
64.24666800000018
  0
LINE
  5
108
330
1F
100
AcDbEntity
  8
1
  6
HIDDEN
 62
    45
370
     9
100
AcDbLine
 10
371.7463053574936
 20
479.547159976107
 30
0.0
 11
327.7550139056937
 21
480.3150308183069
 31
0.0
  0
LINE
  5
109
330
1F
100
AcDbEntity
  8
2
  6
Continuous
 62
    90
370
    18
100
AcDbLine
 10
337.3136823654929
 20
716.8931834661087
 30
0.0
 11
369.3136823654886
 21
716.8931834661068
 31
0.0
  0
LINE
  5
10A
330
1F
100
AcDbEntity
  8
2
  6
Continuous
 62
    90
370
    18
100
AcDbLine
 10
368.8136823654929
 20
640.8931837722569
 30
0.0
 11
366.8136823654929
 21
639.3931837722569
 31
0.0
  0
LINE
  5
10B
330
1F
100
AcDbEntity
  8
2
  6
Continuous
 62
    90
370
    18
100
AcDbLine
 10
297.8136823654929
 20
639.3931837722569
 30
0.0
 11
339.8972743654929
 21
639.3931837722569
 31
0.0
  0
LINE
  5
10C
330
1F
100
AcDbEntity
  8
2
  6
Continuous
 62
    90
370
    18
100
AcDbLine
 10
297.8136823654929
 20
639.3931837722569
 30
0.0
 11
297.8136823654929
 21
641.3931837722569
 31
0.0
  0
LINE
  5
10D
330
1F
100
AcDbEntity
  8
2
  6
Continuous
 62
    90
370
    18
100
AcDbLine
 10
339.8136823654929
 20
639.3931837722569
 30
0.0
 11
366.8136823654929
 21
639.3931837722569
 31
0.0
  0
LINE
  5
10E
330
1F
100
AcDbEntity
  8
2
  6
Continuous
 62
    90
370
    18
100
AcDbLine
 10
368.8136823654929
 20
640.8931837722569
 30
0.0
 11
368.8136823654929
 21
693.3931837722569
 31
0.0
  0
LINE
  5
10F
330
1F
100
AcDbEntity
  8
2
  6
Continuous
 62
    90
370
    18
100
AcDbLine
 10
337.6136823654929
 20
693.3931837722569
 30
0.0
 11
337.8136823654929
 21
693.3931837722569
 31
0.0
  0
LINE
  5
110
330
1F
100
AcDbEntity
  8
2
  6
Continuous
 62
    90
370
    18
100
AcDbLine
 10
337.6136823654927
 20
716.8931837722569
 30
0.0
 11
369.0136823654925
 21
716.8931837722569
 31
0.0
  0
LINE
  5
111
330
1F
100
AcDbEntity
  8
2
  6
Continuous
 62
    90
370
    18
100
AcDbLine
 10
369.3136823654929
 20
693.693183772257
 30
0.0
 11
369.3136823654927
 21
716.5931837722571
 31
0.0
  0
ARC
  5
112
330
1F
100
AcDbEntity
  8
2
  6
Continuous
 62
    90
370
    18
100
AcDbCircle
 10
369.0136823654925
 20
716.5931837722571
 30
0.0
 40
0.3
100
AcDbArc
 50
0.0
 51
89.99999999999991
  0
ARC
  5
113
330
1F
100
AcDbEntity
  8
2
  6
Continuous
 62
    90
370
    18
100
AcDbCircle
 10
369.013682365493
 20
693.693183772257
 30
0.0
 40
0.3
100
AcDbArc
 50
269.9999999999998
 51
0.0
  0
LINE
  5
114
330
1F
100
AcDbEntity
  8
2
  6
Continuous
 62
    90
370
    18
100
AcDbLine
 10
337.3136823654927
 20
716.5931837722567
 30
0.0
 11
337.3136823654929
 21
693.693183772257
 31
0.0
  0
ARC
  5
115
330
1F
100
AcDbEntity
  8
2
  6
Continuous
 62
    90
370
    18
100
AcDbCircle
 10
337.6136823654927
 20
716.5931837722567
 30
0.0
 40
0.3
100
AcDbArc
 50
89.99999999999991
 51
179.9999999999998
  0
ARC
  5
116
330
1F
100
AcDbEntity
  8
2
  6
Continuous
 62
    90
370
    18
100
AcDbCircle
 10
337.6136823654929
 20
693.693183772257
 30
0.0
 40
0.3
100
AcDbArc
 50
179.9999999999998
 51
269.9999999999998
  0
LINE
  5
117
330
1F
100
AcDbEntity
  8
2
  6
Continuous
 62
    90
370
    18
100
AcDbLine
 10
337.8136823654929
 20
676.8931837722569
 30
0.0
 11
297.8136823654929
 21
676.8931837722569
 31
0.0
  0
LINE
  5
118
330
1F
100
AcDbEntity
  8
2
  6
Continuous
 62
    90
370
    18
100
AcDbLine
 10
297.8136823654929
 20
676.8931837722569
 30
0.0
 11
297.8136823654929
 21
641.3931837722569
 31
0.0
  0
LINE
  5
119
330
1F
100
AcDbEntity
  8
2
  6
Continuous
 62
    90
370
    18
100
AcDbLine
 10
337.8136823654929
 20
693.3931837722569
 30
0.0
 11
337.8136823654929
 21
676.8931837722569
 31
0.0
  0
LINE
  5
11A
330
1F
100
AcDbEntity
  8
1
  6
Continuous
 62
    45
370
     9
100
AcDbLine
 10
345.2708283854929
 20
674.8931837722569
 30
0.0
 11
297.8136823654929
 21
674.8931837722569
 31
0.0
  0
LINE
  5
11B
330
1F
100
AcDbEntity
  8
1
  6
Continuous
 62
    45
370
     9
100
AcDbLine
 10
343.023177385493
 20
676.8931837722569
 30
0.0
 11
345.2708283854929
 21
674.8931837722569
 31
0.0
  0
LINE
  5
11C
330
1F
100
AcDbEntity
  8
1
  6
Continuous
 62
    45
370
     9
100
AcDbLine
 10
343.023177385493
 20
676.8931837722569
 30
0.0
 11
337.8136823654929
 21
676.8931837722569
 31
0.0
  0
LINE
  5
11D
330
1F
100
AcDbEntity
  8
1
  6
Continuous
 62
    45
370
     9
100
AcDbLine
 10
345.2708283854929
 20
640.8931837722569
 30
0.0
 11
345.2708283854929
 21
693.3931837722569
 31
0.0
  0
LINE
  5
11E
330
1F
100
AcDbEntity
  8
1
  6
Continuous
 62
    45
370
     9
100
AcDbLine
 10
297.8136823654929
 20
640.8931837722569
 30
0.0
 11
368.8136823654929
 21
640.8931837722569
 31
0.0
  0
LINE
  5
11F
330
1F
100
AcDbEntity
  8
1
  6
Continuous
 62
    45
370
     9
100
AcDbLine
 10
345.2708283854929
 20
640.8931837722569
 30
0.0
 11
345.851276585493
 21
639.3931837722569
 31
0.0
  0
LINE
  5
120
330
1F
100
AcDbEntity
  8
2
  6
Continuous
 62
    90
370
    18
100
AcDbLine
 10
337.8136823654929
 20
693.3931837722569
 30
0.0
 11
369.013682365493
 21
693.3931837722569
 31
0.0
  0
ARC
  5
121
330
1F
100
AcDbEntity
  8
2
  6
Continuous
 62
    90
370
    18
100
AcDbCircle
 10
347.5280975128933
 20
394.0477104791069
 30
0.0
 40
82.3101243426
100
AcDbArc
 50
17.39754849624271
 51
24.69329099999998
  0
LINE
  5
122
330
1F
100
AcDbEntity
  8
1
  6
HIDDEN
 62
    45
370
     9
100
AcDbLine
 10
426.072790692119
 20
418.658434618708
 30
0.0
 11
423.1958541850934
 21
428.6915072359068
 31
0.0
  0
LINE
  5
123
330
1F
100
AcDbEntity
  8
2
  6
Continuous
 62
    90
370
    18
100
AcDbLine
 10
429.4789928468933
 20
406.7795928423072
 30
0.0
 11
426.072790692119
 21
418.658434618708
 31
0.0
  0
DIMENSION
  5
12F
330
1F
100
AcDbEntity
  8
6
  6
Continuous
 62
     7
370
     9
100
AcDbDimension
  2
Dim1
 10
297.8136823654925
 20
257.3931834661068
 30
0.0
 11
364.313682365492
 21
269.3931834661068
 31
0.0
 70
   160
  1
<>
 71
     5
 42
-1.0
  3
Standard
100
AcDbAlignedDimension
 13
297.8136823654929
 23
337.3931834661068
 33
0.0
 14
430.8136823654929
 24
524.3931834661068
 34
0.0
100
AcDbRotatedDimension
1001
ACAD
1000
DSTYLE
1002
{
1070
   344
1005
3C
1070
   343
1005
3C
1070
   173
1070
     1
1070
   289
1070
     2
1070
   279
1070
     2
1070
   288
1070
     1
1070
    77
1070
     3
1070
   172
1070
     1
1070
   174
1070
     0
1070
    74
1070
     0
1070
    73
1070
     0
1070
   284
1070
     8
1070
    78
1070
     8
1070
   140
1040
3.0
1070
    40
1040
8.0
1070
    42
1040
2.0
1070
    44
1040
1.0
1070
    43
1040
10.0
1070
   271
1070
     2
1070
    41
1040
2.0
1002
}
  0
LINE
  5
130
330
1F
100
AcDbEntity
  8
2
  6
Continuous
 62
    90
370
    18
100
AcDbLine
 10
1084.144913144172
 20
359.8711940897072
 30
0.0
 11
1084.144913144172
 21
364.6026244087068
 31
0.0
  0
LINE
  5
131
330
1F
100
AcDbEntity
  8
2
  6
Continuous
 62
    90
370
    18
100
AcDbLine
 10
1082.163445486771
 20
359.8711940897072
 30
0.0
 11
1082.163445486771
 21
364.6026244087068
 31
0.0
  0
LINE
  5
132
330
1F
100
AcDbEntity
  8
2
  6
Continuous
 62
    90
370
    18
100
AcDbLine
 10
1082.163445486771
 20
359.8711940897072
 30
0.0
 11
1084.144913144172
 21
359.8711940897072
 31
0.0
  0
LINE
  5
133
330
1F
100
AcDbEntity
  8
2
  6
Continuous
 62
    90
370
    18
100
AcDbLine
 10
1056.404377829371
 20
359.8711940897072
 30
0.0
 11
1056.404377829371
 21
364.6026244087068
 31
0.0
  0
LINE
  5
134
330
1F
100
AcDbEntity
  8
2
  6
Continuous
 62
    90
370
    18
100
AcDbLine
 10
1054.422913144171
 20
359.8711940897072
 30
0.0
 11
1054.422913144171
 21
364.6026244087068
 31
0.0
  0
LINE
  5
135
330
1F
100
AcDbEntity
  8
2
  6
Continuous
 62
    90
370
    18
100
AcDbLine
 10
1054.422913144171
 20
359.8711940897072
 30
0.0
 11
1056.404377829371
 21
359.8711940897072
 31
0.0
  0
LINE
  5
136
330
1F
100
AcDbEntity
  8
2
  6
Continuous
 62
    90
370
    18
100
AcDbLine
 10
1027.078673144172
 20
359.8711940897072
 30
0.0
 11
1027.078673144172
 21
364.6026244087068
 31
0.0
  0
LINE
  5
137
330
1F
100
AcDbEntity
  8
2
  6
Continuous
 62
    90
370
    18
100
AcDbLine
 10
1025.097205486771
 20
359.8711940897072
 30
0.0
 11
1025.097205486771
 21
364.6026244087068
 31
0.0
  0
LINE
  5
138
330
1F
100
AcDbEntity
  8
2
  6
Continuous
 62
    90
370
    18
100
AcDbLine
 10
1025.097205486771
 20
359.8711940897072
 30
0.0
 11
1027.078673144172
 21
359.8711940897072
 31
0.0
  0
LINE
  5
139
330
1F
100
AcDbEntity
  8
2
  6
Continuous
 62
    90
370
    18
100
AcDbLine
 10
999.3381378293714
 20
359.8711940897072
 30
0.0
 11
999.3381378293714
 21
364.6026244087068
 31
0.0
  0
LINE
  5
13A
330
1F
100
AcDbEntity
  8
2
  6
Continuous
 62
    90
370
    18
100
AcDbLine
 10
997.3566731441722
 20
359.8711940897072
 30
0.0
 11
997.3566731441722
 21
364.6026244087068
 31
0.0
  0
LINE
  5
13B
330
1F
100
AcDbEntity
  8
2
  6
Continuous
 62
    90
370
    18
100
AcDbLine
 10
997.3566731441722
 20
359.8711940897072
 30
0.0
 11
999.3381378293714
 21
359.8711940897072
 31
0.0
  0
ARC
  5
13C
330
1F
100
AcDbEntity
  8
2
  6
Continuous
 62
    90
370
    18
100
AcDbCircle
 10
1054.323338499772
 20
351.6291943237072
 30
0.0
 40
6.9351323426
100
AcDbArc
 50
225.0000000000023
 51
269.9999999999998
  0
LINE
  5
13D
330
1F
100
AcDbEntity
  8
2
  6
Continuous
 62
    90
370
    18
100
AcDbLine
 10
1054.323338499772
 20
344.6940590089068
 30
0.0
 11
1055.413645486772
 21
344.6940590089068
 31
0.0
  0
LINE
  5
13E
330
1F
100
AcDbEntity
  8
2
  6
Continuous
 62
    90
370
    18
100
AcDbLine
 10
1048.478513144172
 20
347.666259008907
 30
0.0
 11
1049.419458164572
 21
346.7253139885072
 31
0.0
  0
ARC
  5
13F
330
1F
100
AcDbEntity
  8
2
  6
Continuous
 62
    90
370
    18
100
AcDbCircle
 10
1056.503952473772
 20
351.6291943237072
 30
0.0
 40
6.9351323426
100
AcDbArc
 50
269.9999999999998
 51
314.999999999997
  0
LINE
  5
140
330
1F
100
AcDbEntity
  8
2
  6
Continuous
 62
    90
370
    18
100
AcDbLine
 10
1056.503952473772
 20
344.6940590089068
 30
0.0
 11
1055.413645486772
 21
344.6940590089068
 31
0.0
  0
LINE
  5
141
330
1F
100
AcDbEntity
  8
2
  6
Continuous
 62
    90
370
    18
100
AcDbLine
 10
1062.348777829372
 20
347.666259008907
 30
0.0
 11
1061.407832808972
 21
346.7253139885072
 31
0.0
  0
ARC
  5
142
330
1F
100
AcDbEntity
  8
2
  6
Continuous
 62
    90
370
    18
100
AcDbCircle
 10
1082.063870842372
 20
351.6291943237072
 30
0.0
 40
6.9351323426
100
AcDbArc
 50
224.999999999997
 51
269.9999999999998
  0
LINE
  5
143
330
1F
100
AcDbEntity
  8
2
  6
Continuous
 62
    90
370
    18
100
AcDbLine
 10
1082.063870842372
 20
344.6940590089068
 30
0.0
 11
1083.154177829372
 21
344.6940590089068
 31
0.0
  0
LINE
  5
144
330
1F
100
AcDbEntity
  8
2
  6
Continuous
 62
    90
370
    18
100
AcDbLine
 10
1076.219045486772
 20
347.666259008907
 30
0.0
 11
1077.159990507171
 21
346.7253139885072
 31
0.0
  0
ARC
  5
145
330
1F
100
AcDbEntity
  8
2
  6
Continuous
 62
    90
370
    18
100
AcDbCircle
 10
1084.244484816372
 20
351.6291943237072
 30
0.0
 40
6.9351323426
100
AcDbArc
 50
269.9999999999998
 51
314.999999999997
  0
LINE
  5
146
330
1F
100
AcDbEntity
  8
2
  6
Continuous
 62
    90
370
    18
100
AcDbLine
 10
1076.219045486772
 20
347.666259008907
 30
0.0
 11
1062.348777829372
 21
347.666259008907
 31
0.0
  0
LINE
  5
147
330
1F
100
AcDbEntity
  8
2
  6
Continuous
 62
    90
370
    18
100
AcDbLine
 10
1084.244484816372
 20
344.6940590089068
 30
0.0
 11
1083.154177829372
 21
344.6940590089068
 31
0.0
  0
LINE
  5
148
330
1F
100
AcDbEntity
  8
2
  6
Continuous
 62
    90
370
    18
100
AcDbLine
 10
1090.089313144171
 20
347.666259008907
 30
0.0
 11
1089.148365151572
 21
346.7253139885072
 31
0.0
  0
LINE
  5
149
330
1F
100
AcDbEntity
  8
2
  6
Continuous
 62
    90
370
    18
100
AcDbLine
 10
1101.978113144172
 20
347.666259008907
 30
0.0
 11
1090.089313144171
 21
347.666259008907
 31
0.0
  0
LINE
  5
14A
330
1F
100
AcDbEntity
  8
2
  6
Continuous
 62
    90
370
    18
100
AcDbLine
 10
1100.194793144172
 20
406.7795928423072
 30
0.0
 11
1100.194793144172
 21
482.4627603715069
 31
0.0
  0
ARC
  5
14B
330
1F
100
AcDbEntity
  8
2
  6
Continuous
 62
    90
370
    18
100
AcDbCircle
 10
1027.178244816372
 20
351.6291943237072
 30
0.0
 40
6.9351323426
100
AcDbArc
 50
269.9999999999998
 51
314.999999999997
  0
LINE
  5
14C
330
1F
100
AcDbEntity
  8
2
  6
Continuous
 62
    90
370
    18
100
AcDbLine
 10
1027.178244816372
 20
344.6940590089068
 30
0.0
 11
1026.087937829372
 21
344.6940590089068
 31
0.0
  0
LINE
  5
14D
330
1F
100
AcDbEntity
  8
2
  6
Continuous
 62
    90
370
    18
100
AcDbLine
 10
1033.023073144172
 20
347.666259008907
 30
0.0
 11
1032.082125151572
 21
346.7253139885072
 31
0.0
  0
ARC
  5
14E
330
1F
100
AcDbEntity
  8
2
  6
Continuous
 62
    90
370
    18
100
AcDbCircle
 10
1024.997630842372
 20
351.6291943237072
 30
0.0
 40
6.9351323426
100
AcDbArc
 50
224.999999999997
 51
269.9999999999998
  0
LINE
  5
14F
330
1F
100
AcDbEntity
  8
2
  6
Continuous
 62
    90
370
    18
100
AcDbLine
 10
1024.997630842372
 20
344.6940590089068
 30
0.0
 11
1026.087937829372
 21
344.6940590089068
 31
0.0
  0
LINE
  5
150
330
1F
100
AcDbEntity
  8
2
  6
Continuous
 62
    90
370
    18
100
AcDbLine
 10
1019.152805486772
 20
347.666259008907
 30
0.0
 11
1020.093750507171
 21
346.7253139885072
 31
0.0
  0
ARC
  5
151
330
1F
100
AcDbEntity
  8
2
  6
Continuous
 62
    90
370
    18
100
AcDbCircle
 10
999.4377124737719
 20
351.6291943237072
 30
0.0
 40
6.9351323426
100
AcDbArc
 50
269.9999999999998
 51
314.999999999997
  0
LINE
  5
152
330
1F
100
AcDbEntity
  8
2
  6
Continuous
 62
    90
370
    18
100
AcDbLine
 10
999.4377124737719
 20
344.6940590089068
 30
0.0
 11
998.3474054867718
 21
344.6940590089068
 31
0.0
  0
LINE
  5
153
330
1F
100
AcDbEntity
  8
2
  6
Continuous
 62
    90
370
    18
100
AcDbLine
 10
1005.282537829372
 20
347.666259008907
 30
0.0
 11
1004.341592808971
 21
346.7253139885072
 31
0.0
  0
ARC
  5
154
330
1F
100
AcDbEntity
  8
2
  6
Continuous
 62
    90
370
    18
100
AcDbCircle
 10
997.2570984997717
 20
351.6291943237072
 30
0.0
 40
6.9351323426
100
AcDbArc
 50
225.0000000000023
 51
269.9999999999998
  0
LINE
  5
155
330
1F
100
AcDbEntity
  8
2
  6
Continuous
 62
    90
370
    18
100
AcDbLine
 10
1005.282537829372
 20
347.666259008907
 30
0.0
 11
1019.152805486772
 21
347.666259008907
 31
0.0
  0
LINE
  5
156
330
1F
100
AcDbEntity
  8
2
  6
Continuous
 62
    90
370
    18
100
AcDbLine
 10
997.2570984997717
 20
344.6940590089068
 30
0.0
 11
998.3474054867718
 21
344.6940590089068
 31
0.0
  0
LINE
  5
157
330
1F
100
AcDbEntity
  8
2
  6
Continuous
 62
    90
370
    18
100
AcDbLine
 10
991.4122731441719
 20
347.666259008907
 30
0.0
 11
992.3532181645721
 21
346.7253139885072
 31
0.0
  0
LINE
  5
158
330
1F
100
AcDbEntity
  8
2
  6
Continuous
 62
    90
370
    18
100
AcDbLine
 10
979.5234731441712
 20
347.666259008907
 30
0.0
 11
991.4122731441719
 21
347.666259008907
 31
0.0
  0
LINE
  5
159
330
1F
100
AcDbEntity
  8
2
  6
Continuous
 62
    90
370
    18
100
AcDbLine
 10
981.3067931441717
 20
406.7795928423072
 30
0.0
 11
981.3067931441717
 21
482.4627603715069
 31
0.0
  0
LINE
  5
15A
330
1F
100
AcDbEntity
  8
2
  6
Continuous
 62
    90
370
    18
100
AcDbLine
 10
951.144913144172
 20
359.8711940897072
 30
0.0
 11
951.144913144172
 21
364.6026244087068
 31
0.0
  0
LINE
  5
15B
330
1F
100
AcDbEntity
  8
2
  6
Continuous
 62
    90
370
    18
100
AcDbLine
 10
949.1634454867715
 20
359.8711940897072
 30
0.0
 11
949.1634454867715
 21
364.6026244087068
 31
0.0
  0
LINE
  5
15C
330
1F
100
AcDbEntity
  8
2
  6
Continuous
 62
    90
370
    18
100
AcDbLine
 10
949.1634454867715
 20
359.8711940897072
 30
0.0
 11
951.144913144172
 21
359.8711940897072
 31
0.0
  0
LINE
  5
15D
330
1F
100
AcDbEntity
  8
2
  6
Continuous
 62
    90
370
    18
100
AcDbLine
 10
923.4043778293715
 20
359.8711940897072
 30
0.0
 11
923.4043778293715
 21
364.6026244087068
 31
0.0
  0
LINE
  5
15E
330
1F
100
AcDbEntity
  8
2
  6
Continuous
 62
    90
370
    18
100
AcDbLine
 10
921.4229131441714
 20
359.8711940897072
 30
0.0
 11
921.4229131441714
 21
364.6026244087068
 31
0.0
  0
LINE
  5
15F
330
1F
100
AcDbEntity
  8
2
  6
Continuous
 62
    90
370
    18
100
AcDbLine
 10
921.4229131441714
 20
359.8711940897072
 30
0.0
 11
923.4043778293715
 21
359.8711940897072
 31
0.0
  0
LINE
  5
160
330
1F
100
AcDbEntity
  8
2
  6
Continuous
 62
    90
370
    18
100
AcDbLine
 10
894.078673144172
 20
359.8711940897072
 30
0.0
 11
894.078673144172
 21
364.6026244087068
 31
0.0
  0
LINE
  5
161
330
1F
100
AcDbEntity
  8
2
  6
Continuous
 62
    90
370
    18
100
AcDbLine
 10
892.0972054867714
 20
359.8711940897072
 30
0.0
 11
892.0972054867714
 21
364.6026244087068
 31
0.0
  0
LINE
  5
162
330
1F
100
AcDbEntity
  8
2
  6
Continuous
 62
    90
370
    18
100
AcDbLine
 10
892.0972054867714
 20
359.8711940897072
 30
0.0
 11
894.078673144172
 21
359.8711940897072
 31
0.0
  0
LINE
  5
163
330
1F
100
AcDbEntity
  8
2
  6
Continuous
 62
    90
370
    18
100
AcDbLine
 10
866.3381378293714
 20
359.8711940897072
 30
0.0
 11
866.3381378293714
 21
364.6026244087068
 31
0.0
  0
LINE
  5
164
330
1F
100
AcDbEntity
  8
2
  6
Continuous
 62
    90
370
    18
100
AcDbLine
 10
864.3566731441722
 20
359.8711940897072
 30
0.0
 11
864.3566731441722
 21
364.6026244087068
 31
0.0
  0
LINE
  5
165
330
1F
100
AcDbEntity
  8
2
  6
Continuous
 62
    90
370
    18
100
AcDbLine
 10
864.3566731441722
 20
359.8711940897072
 30
0.0
 11
866.3381378293714
 21
359.8711940897072
 31
0.0
  0
ARC
  5
166
330
1F
100
AcDbEntity
  8
2
  6
Continuous
 62
    90
370
    18
100
AcDbCircle
 10
921.3233384997718
 20
351.6291943237072
 30
0.0
 40
6.9351323426
100
AcDbArc
 50
225.0000000000023
 51
269.9999999999998
  0
LINE
  5
167
330
1F
100
AcDbEntity
  8
2
  6
Continuous
 62
    90
370
    18
100
AcDbLine
 10
921.3233384997718
 20
344.6940590089068
 30
0.0
 11
922.4136454867719
 21
344.6940590089068
 31
0.0
  0
LINE
  5
168
330
1F
100
AcDbEntity
  8
2
  6
Continuous
 62
    90
370
    18
100
AcDbLine
 10
915.478513144172
 20
347.666259008907
 30
0.0
 11
916.4194581645722
 21
346.7253139885072
 31
0.0
  0
ARC
  5
169
330
1F
100
AcDbEntity
  8
2
  6
Continuous
 62
    90
370
    18
100
AcDbCircle
 10
923.503952473772
 20
351.6291943237072
 30
0.0
 40
6.9351323426
100
AcDbArc
 50
269.9999999999998
 51
314.999999999997
  0
LINE
  5
16A
330
1F
100
AcDbEntity
  8
2
  6
Continuous
 62
    90
370
    18
100
AcDbLine
 10
923.503952473772
 20
344.6940590089068
 30
0.0
 11
922.4136454867719
 21
344.6940590089068
 31
0.0
  0
LINE
  5
16B
330
1F
100
AcDbEntity
  8
2
  6
Continuous
 62
    90
370
    18
100
AcDbLine
 10
929.3487778293718
 20
347.666259008907
 30
0.0
 11
928.4078328089715
 21
346.7253139885072
 31
0.0
  0
ARC
  5
16C
330
1F
100
AcDbEntity
  8
2
  6
Continuous
 62
    90
370
    18
100
AcDbCircle
 10
949.0638708423719
 20
351.6291943237072
 30
0.0
 40
6.9351323426
100
AcDbArc
 50
224.999999999997
 51
269.9999999999998
  0
LINE
  5
16D
330
1F
100
AcDbEntity
  8
2
  6
Continuous
 62
    90
370
    18
100
AcDbLine
 10
949.0638708423719
 20
344.6940590089068
 30
0.0
 11
950.154177829372
 21
344.6940590089068
 31
0.0
  0
LINE
  5
16E
330
1F
100
AcDbEntity
  8
2
  6
Continuous
 62
    90
370
    18
100
AcDbLine
 10
943.2190454867721
 20
347.666259008907
 30
0.0
 11
944.1599905071714
 21
346.7253139885072
 31
0.0
  0
ARC
  5
16F
330
1F
100
AcDbEntity
  8
2
  6
Continuous
 62
    90
370
    18
100
AcDbCircle
 10
951.244484816372
 20
351.6291943237072
 30
0.0
 40
6.9351323426
100
AcDbArc
 50
269.9999999999998
 51
314.999999999997
  0
LINE
  5
170
330
1F
100
AcDbEntity
  8
2
  6
Continuous
 62
    90
370
    18
100
AcDbLine
 10
943.2190454867721
 20
347.666259008907
 30
0.0
 11
929.3487778293718
 21
347.666259008907
 31
0.0
  0
LINE
  5
171
330
1F
100
AcDbEntity
  8
2
  6
Continuous
 62
    90
370
    18
100
AcDbLine
 10
951.244484816372
 20
344.6940590089068
 30
0.0
 11
950.154177829372
 21
344.6940590089068
 31
0.0
  0
LINE
  5
172
330
1F
100
AcDbEntity
  8
2
  6
Continuous
 62
    90
370
    18
100
AcDbLine
 10
957.0893131441715
 20
347.666259008907
 30
0.0
 11
956.1483651515716
 21
346.7253139885072
 31
0.0
  0
LINE
  5
173
330
1F
100
AcDbEntity
  8
2
  6
Continuous
 62
    90
370
    18
100
AcDbLine
 10
968.9781131441721
 20
347.666259008907
 30
0.0
 11
957.0893131441715
 21
347.666259008907
 31
0.0
  0
LINE
  5
174
330
1F
100
AcDbEntity
  8
2
  6
Continuous
 62
    90
370
    18
100
AcDbLine
 10
967.1947931441716
 20
406.7795928423072
 30
0.0
 11
967.1947931441716
 21
482.4627603715069
 31
0.0
  0
ARC
  5
175
330
1F
100
AcDbEntity
  8
2
  6
Continuous
 62
    90
370
    18
100
AcDbCircle
 10
894.178244816372
 20
351.6291943237072
 30
0.0
 40
6.9351323426
100
AcDbArc
 50
269.9999999999998
 51
314.999999999997
  0
LINE
  5
176
330
1F
100
AcDbEntity
  8
2
  6
Continuous
 62
    90
370
    18
100
AcDbLine
 10
894.178244816372
 20
344.6940590089068
 30
0.0
 11
893.0879378293719
 21
344.6940590089068
 31
0.0
  0
LINE
  5
177
330
1F
100
AcDbEntity
  8
2
  6
Continuous
 62
    90
370
    18
100
AcDbLine
 10
900.0230731441723
 20
347.666259008907
 30
0.0
 11
899.0821251515715
 21
346.7253139885072
 31
0.0
  0
ARC
  5
178
330
1F
100
AcDbEntity
  8
2
  6
Continuous
 62
    90
370
    18
100
AcDbCircle
 10
891.9976308423718
 20
351.6291943237072
 30
0.0
 40
6.9351323426
100
AcDbArc
 50
224.999999999997
 51
269.9999999999998
  0
LINE
  5
179
330
1F
100
AcDbEntity
  8
2
  6
Continuous
 62
    90
370
    18
100
AcDbLine
 10
891.9976308423718
 20
344.6940590089068
 30
0.0
 11
893.0879378293719
 21
344.6940590089068
 31
0.0
  0
LINE
  5
17A
330
1F
100
AcDbEntity
  8
2
  6
Continuous
 62
    90
370
    18
100
AcDbLine
 10
886.152805486772
 20
347.666259008907
 30
0.0
 11
887.0937505071713
 21
346.7253139885072
 31
0.0
  0
ARC
  5
17B
330
1F
100
AcDbEntity
  8
2
  6
Continuous
 62
    90
370
    18
100
AcDbCircle
 10
866.4377124737719
 20
351.6291943237072
 30
0.0
 40
6.9351323426
100
AcDbArc
 50
269.9999999999998
 51
314.999999999997
  0
LINE
  5
17C
330
1F
100
AcDbEntity
  8
2
  6
Continuous
 62
    90
370
    18
100
AcDbLine
 10
866.4377124737719
 20
344.6940590089068
 30
0.0
 11
865.3474054867718
 21
344.6940590089068
 31
0.0
  0
LINE
  5
17D
330
1F
100
AcDbEntity
  8
2
  6
Continuous
 62
    90
370
    18
100
AcDbLine
 10
872.2825378293717
 20
347.666259008907
 30
0.0
 11
871.3415928089714
 21
346.7253139885072
 31
0.0
  0
ARC
  5
17E
330
1F
100
AcDbEntity
  8
2
  6
Continuous
 62
    90
370
    18
100
AcDbCircle
 10
864.2570984997717
 20
351.6291943237072
 30
0.0
 40
6.9351323426
100
AcDbArc
 50
225.0000000000023
 51
269.9999999999998
  0
LINE
  5
17F
330
1F
100
AcDbEntity
  8
2
  6
Continuous
 62
    90
370
    18
100
AcDbLine
 10
872.2825378293717
 20
347.666259008907
 30
0.0
 11
886.152805486772
 21
347.666259008907
 31
0.0
  0
LINE
  5
180
330
1F
100
AcDbEntity
  8
2
  6
Continuous
 62
    90
370
    18
100
AcDbLine
 10
864.2570984997717
 20
344.6940590089068
 30
0.0
 11
865.3474054867718
 21
344.6940590089068
 31
0.0
  0
LINE
  5
181
330
1F
100
AcDbEntity
  8
2
  6
Continuous
 62
    90
370
    18
100
AcDbLine
 10
858.4122731441719
 20
347.666259008907
 30
0.0
 11
859.3532181645717
 21
346.7253139885072
 31
0.0
  0
LINE
  5
182
330
1F
100
AcDbEntity
  8
2
  6
Continuous
 62
    90
370
    18
100
AcDbLine
 10
846.5234731441717
 20
347.666259008907
 30
0.0
 11
858.4122731441719
 21
347.666259008907
 31
0.0
  0
LINE
  5
183
330
1F
100
AcDbEntity
  8
2
  6
Continuous
 62
    90
370
    18
100
AcDbLine
 10
848.3067931441717
 20
406.7795928423072
 30
0.0
 11
848.3067931441717
 21
482.4627603715069
 31
0.0
  0
LINE
  5
184
330
1F
100
AcDbEntity
  8
2
  6
Continuous
 62
    90
370
    18
100
AcDbLine
 10
844.5420054867716
 20
484.3931834661068
 30
0.0
 11
970.9595778293722
 21
484.3931834661068
 31
0.0
  0
LINE
  5
185
330
1F
100
AcDbEntity
  8
2
  6
Continuous
 62
    90
370
    18
100
AcDbLine
 10
848.3067931441717
 20
482.4627603715069
 30
0.0
 11
967.1947931441716
 21
482.4627603715069
 31
0.0
  0
LINE
  5
186
330
1F
100
AcDbEntity
  8
2
  6
Continuous
 62
    90
370
    18
100
AcDbLine
 10
977.5420054867716
 20
484.3931834661068
 30
0.0
 11
1103.959577829372
 21
484.3931834661068
 31
0.0
  0
LINE
  5
187
330
1F
100
AcDbEntity
  8
2
  6
Continuous
 62
    90
370
    18
100
AcDbLine
 10
981.3067931441717
 20
482.4627603715069
 30
0.0
 11
1100.194793144172
 21
482.4627603715069
 31
0.0
  0
LINE
  5
188
330
1F
100
AcDbEntity
  8
2
  6
Continuous
 62
    90
370
    18
100
AcDbLine
 10
848.3067931441717
 20
406.7795928423072
 30
0.0
 11
967.1947931441716
 21
406.7795928423072
 31
0.0
  0
LINE
  5
189
330
1F
100
AcDbEntity
  8
2
  6
Continuous
 62
    90
370
    18
100
AcDbLine
 10
981.3067931441717
 20
406.7795928423072
 30
0.0
 11
1100.194793144172
 21
406.7795928423072
 31
0.0
  0
LINE
  5
18A
330
1F
100
AcDbEntity
  8
2
  6
Continuous
 62
    90
370
    18
100
AcDbLine
 10
846.5234731441717
 20
372.0205371417071
 30
0.0
 11
968.9781131441721
 21
372.0205371417071
 31
0.0
  0
LINE
  5
18B
330
1F
100
AcDbEntity
  8
2
  6
Continuous
 62
    90
370
    18
100
AcDbLine
 10
846.5234731441717
 20
364.6026244087068
 30
0.0
 11
968.9781131441721
 21
364.6026244087068
 31
0.0
  0
LINE
  5
18C
330
1F
100
AcDbEntity
  8
2
  6
Continuous
 62
    90
370
    18
100
AcDbLine
 10
900.0230731441723
 20
347.666259008907
 30
0.0
 11
915.478513144172
 21
347.666259008907
 31
0.0
  0
LINE
  5
18D
330
1F
100
AcDbEntity
  8
2
  6
Continuous
 62
    90
370
    18
100
AcDbLine
 10
979.5234731441712
 20
372.0205371417071
 30
0.0
 11
1101.978113144172
 21
372.0205371417071
 31
0.0
  0
LINE
  5
18E
330
1F
100
AcDbEntity
  8
2
  6
Continuous
 62
    90
370
    18
100
AcDbLine
 10
979.5234731441712
 20
364.6026244087068
 30
0.0
 11
1101.978113144172
 21
364.6026244087068
 31
0.0
  0
LINE
  5
18F
330
1F
100
AcDbEntity
  8
2
  6
Continuous
 62
    90
370
    18
100
AcDbLine
 10
1033.023073144172
 20
347.666259008907
 30
0.0
 11
1048.478513144172
 21
347.666259008907
 31
0.0
  0
LINE
  5
190
330
1F
100
AcDbEntity
  8
2
  6
Continuous
 62
    90
370
    18
100
AcDbLine
 10
872.7494178293719
 20
516.3931834661068
 30
0.0
 11
845.7494178293719
 21
516.3931834661068
 31
0.0
  0
LINE
  5
191
330
1F
100
AcDbEntity
  8
2
  6
Continuous
 62
    90
370
    18
100
AcDbLine
 10
845.7494178293719
 20
516.3931834661068
 30
0.0
 11
845.7494178293719
 21
491.3931834661068
 31
0.0
  0
LINE
  5
192
330
1F
100
AcDbEntity
  8
2
  6
Continuous
 62
    90
370
    18
100
AcDbLine
 10
845.7494178293719
 20
491.3931834661068
 30
0.0
 11
842.7494178293719
 21
491.3931834661068
 31
0.0
  0
INSERT
  5
19A
330
1F
100
AcDbEntity
  8
0
100
AcDbBlockReference
  2
*G14
 10
0.0
 20
0.0
 30
0.0
  0
LINE
  5
19B
330
1F
100
AcDbEntity
  8
1
  6
Continuous
 62
    45
370
     9
100
AcDbLine
 10
844.5420054867716
 20
375.543687911307
 30
0.0
 11
846.5234731441717
 21
375.543687911307
 31
0.0
  0
LINE
  5
19C
330
1F
100
AcDbEntity
  8
1
  6
Continuous
 62
    45
370
     9
100
AcDbLine
 10
844.5420054867716
 20
371.5312238557069
 30
0.0
 11
846.5234731441717
 21
371.5312238557069
 31
0.0
  0
LINE
  5
19D
330
1F
100
AcDbEntity
  8
1
  6
Continuous
 62
    45
370
     9
100
AcDbLine
 10
844.5420054867716
 20
363.459483594507
 30
0.0
 11
846.5234731441717
 21
363.459483594507
 31
0.0
  0
LINE
  5
19E
330
1F
100
AcDbEntity
  8
1
  6
Continuous
 62
    45
370
     9
100
AcDbLine
 10
970.9595778293722
 20
375.543687911307
 30
0.0
 11
968.9781131441721
 21
375.543687911307
 31
0.0
  0
LINE
  5
19F
330
1F
100
AcDbEntity
  8
1
  6
Continuous
 62
    45
370
     9
100
AcDbLine
 10
970.9595778293722
 20
371.5312238557069
 30
0.0
 11
968.9781131441721
 21
371.5312238557069
 31
0.0
  0
LINE
  5
1A0
330
1F
100
AcDbEntity
  8
1
  6
Continuous
 62
    45
370
     9
100
AcDbLine
 10
970.9595778293722
 20
363.459483594507
 30
0.0
 11
968.9781131441721
 21
363.459483594507
 31
0.0
  0
LINE
  5
1A1
330
1F
100
AcDbEntity
  8
1
  6
Continuous
 62
    45
370
     9
100
AcDbLine
 10
977.5420054867716
 20
375.543687911307
 30
0.0
 11
979.5234731441712
 21
375.543687911307
 31
0.0
  0
LINE
  5
1A2
330
1F
100
AcDbEntity
  8
1
  6
Continuous
 62
    45
370
     9
100
AcDbLine
 10
977.5420054867716
 20
371.5312238557069
 30
0.0
 11
979.5234731441712
 21
371.5312238557069
 31
0.0
  0
LINE
  5
1A3
330
1F
100
AcDbEntity
  8
1
  6
Continuous
 62
    45
370
     9
100
AcDbLine
 10
977.5420054867716
 20
363.459483594507
 30
0.0
 11
979.5234731441712
 21
363.459483594507
 31
0.0
  0
LINE
  5
1A4
330
1F
100
AcDbEntity
  8
1
  6
Continuous
 62
    45
370
     9
100
AcDbLine
 10
1103.959577829372
 20
375.543687911307
 30
0.0
 11
1101.978113144172
 21
375.543687911307
 31
0.0
  0
LINE
  5
1A5
330
1F
100
AcDbEntity
  8
1
  6
Continuous
 62
    45
370
     9
100
AcDbLine
 10
1103.959577829372
 20
371.5312238557069
 30
0.0
 11
1101.978113144172
 21
371.5312238557069
 31
0.0
  0
LINE
  5
1A6
330
1F
100
AcDbEntity
  8
1
  6
Continuous
 62
    45
370
     9
100
AcDbLine
 10
1103.959577829372
 20
363.459483594507
 30
0.0
 11
1101.978113144172
 21
363.459483594507
 31
0.0
  0
LINE
  5
1A7
330
1F
100
AcDbEntity
  8
1
  6
Continuous
 62
    45
370
     9
100
AcDbLine
 10
979.5234731441712
 20
368.4796720601069
 30
0.0
 11
1101.978113144172
 21
368.4796720601069
 31
0.0
  0
LINE
  5
1A8
330
1F
100
AcDbEntity
  8
1
  6
Continuous
 62
    45
370
     9
100
AcDbLine
 10
979.5234731441712
 20
369.309944241307
 30
0.0
 11
1101.978113144172
 21
369.309944241307
 31
0.0
  0
LINE
  5
1A9
330
1F
100
AcDbEntity
  8
1
  6
Continuous
 62
    45
370
     9
100
AcDbLine
 10
846.5234731441717
 20
368.4796720601069
 30
0.0
 11
968.9781131441721
 21
368.4796720601069
 31
0.0
  0
LINE
  5
1AA
330
1F
100
AcDbEntity
  8
1
  6
Continuous
 62
    45
370
     9
100
AcDbLine
 10
846.5234731441717
 20
369.309944241307
 30
0.0
 11
968.9781131441721
 21
369.309944241307
 31
0.0
  0
LINE
  5
1AB
330
1F
100
AcDbEntity
  8
1
  6
Continuous
 62
    45
370
     9
100
AcDbLine
 10
847.8114254867717
 20
474.0415250567069
 30
0.0
 11
847.8114254867717
 21
477.5090927141071
 31
0.0
  0
LINE
  5
1AC
330
1F
100
AcDbEntity
  8
1
  6
Continuous
 62
    45
370
     9
100
AcDbLine
 10
846.5234731441717
 20
476.2211403715071
 30
0.0
 11
847.8114254867717
 21
476.2211403715071
 31
0.0
  0
LINE
  5
1AD
330
1F
100
AcDbEntity
  8
1
  6
Continuous
 62
    45
370
     9
100
AcDbLine
 10
846.5234731441717
 20
471.8619127141071
 30
0.0
 11
847.8114254867717
 21
471.8619127141071
 31
0.0
  0
ARC
  5
1AE
330
1F
100
AcDbEntity
  8
1
  6
Continuous
 62
    45
370
     9
100
AcDbCircle
 10
848.3067931441717
 20
477.5090927141071
 30
0.0
 40
0.4953676574
100
AcDbArc
 50
89.99999999999991
 51
179.9999999999998
  0
ARC
  5
1AF
330
1F
100
AcDbEntity
  8
1
  6
Continuous
 62
    45
370
     9
100
AcDbCircle
 10
848.3067931441717
 20
470.5739603715072
 30
0.0
 40
0.4953676574
100
AcDbArc
 50
179.9999999999998
 51
269.9999999999998
  0
LINE
  5
1B0
330
1F
100
AcDbEntity
  8
1
  6
Continuous
 62
    45
370
     9
100
AcDbLine
 10
847.8114254867717
 20
474.0415250567069
 30
0.0
 11
847.8114254867717
 21
470.5739603715072
 31
0.0
  0
LINE
  5
1B1
330
1F
100
AcDbEntity
  8
1
  6
Continuous
 62
    45
370
     9
100
AcDbLine
 10
850.7836254867718
 20
406.7795928423072
 30
0.0
 11
850.7836254867718
 21
372.0205371417071
 31
0.0
  0
LINE
  5
1B2
330
1F
100
AcDbEntity
  8
1
  6
Continuous
 62
    45
370
     9
100
AcDbLine
 10
967.6901578293716
 20
474.0415250567069
 30
0.0
 11
967.6901578293716
 21
477.5090927141071
 31
0.0
  0
LINE
  5
1B3
330
1F
100
AcDbEntity
  8
1
  6
Continuous
 62
    45
370
     9
100
AcDbLine
 10
968.9781131441721
 20
476.2211403715071
 30
0.0
 11
967.6901578293716
 21
476.2211403715071
 31
0.0
  0
LINE
  5
1B4
330
1F
100
AcDbEntity
  8
1
  6
Continuous
 62
    45
370
     9
100
AcDbLine
 10
968.9781131441721
 20
471.8619127141071
 30
0.0
 11
967.6901578293716
 21
471.8619127141071
 31
0.0
  0
ARC
  5
1B5
330
1F
100
AcDbEntity
  8
1
  6
Continuous
 62
    45
370
     9
100
AcDbCircle
 10
967.1947931441716
 20
477.5090927141071
 30
0.0
 40
0.4953676574
100
AcDbArc
 50
0.0
 51
89.99999999999991
  0
ARC
  5
1B6
330
1F
100
AcDbEntity
  8
1
  6
Continuous
 62
    45
370
     9
100
AcDbCircle
 10
967.1947931441716
 20
470.5739603715072
 30
0.0
 40
0.4953676574
100
AcDbArc
 50
269.9999999999998
 51
0.0
  0
LINE
  5
1B7
330
1F
100
AcDbEntity
  8
1
  6
Continuous
 62
    45
370
     9
100
AcDbLine
 10
967.6901578293716
 20
474.0415250567069
 30
0.0
 11
967.6901578293716
 21
470.5739603715072
 31
0.0
  0
LINE
  5
1B8
330
1F
100
AcDbEntity
  8
1
  6
Continuous
 62
    45
370
     9
100
AcDbLine
 10
964.7179578293715
 20
406.7795928423072
 30
0.0
 11
964.7179578293715
 21
372.0205371417071
 31
0.0
  0
LINE
  5
1B9
330
1F
100
AcDbEntity
  8
1
  6
Continuous
 62
    45
370
     9
100
AcDbLine
 10
980.8114254867721
 20
474.0415250567069
 30
0.0
 11
980.8114254867721
 21
477.5090927141071
 31
0.0
  0
LINE
  5
1BA
330
1F
100
AcDbEntity
  8
1
  6
Continuous
 62
    45
370
     9
100
AcDbLine
 10
979.5234731441712
 20
476.2211403715071
 30
0.0
 11
980.8114254867721
 21
476.2211403715071
 31
0.0
  0
LINE
  5
1BB
330
1F
100
AcDbEntity
  8
1
  6
Continuous
 62
    45
370
     9
100
AcDbLine
 10
979.5234731441712
 20
471.8619127141071
 30
0.0
 11
980.8114254867721
 21
471.8619127141071
 31
0.0
  0
ARC
  5
1BC
330
1F
100
AcDbEntity
  8
1
  6
Continuous
 62
    45
370
     9
100
AcDbCircle
 10
981.3067931441717
 20
477.5090927141071
 30
0.0
 40
0.4953676574
100
AcDbArc
 50
89.99999999999991
 51
179.9999999999998
  0
ARC
  5
1BD
330
1F
100
AcDbEntity
  8
1
  6
Continuous
 62
    45
370
     9
100
AcDbCircle
 10
981.3067931441717
 20
470.5739603715072
 30
0.0
 40
0.4953676574
100
AcDbArc
 50
179.9999999999998
 51
269.9999999999998
  0
LINE
  5
1BE
330
1F
100
AcDbEntity
  8
1
  6
Continuous
 62
    45
370
     9
100
AcDbLine
 10
980.8114254867721
 20
474.0415250567069
 30
0.0
 11
980.8114254867721
 21
470.5739603715072
 31
0.0
  0
LINE
  5
1BF
330
1F
100
AcDbEntity
  8
1
  6
Continuous
 62
    45
370
     9
100
AcDbLine
 10
983.7836254867714
 20
406.7795928423072
 30
0.0
 11
983.7836254867714
 21
372.0205371417071
 31
0.0
  0
LINE
  5
1C0
330
1F
100
AcDbEntity
  8
1
  6
Continuous
 62
    45
370
     9
100
AcDbLine
 10
1100.690157829372
 20
474.0415250567069
 30
0.0
 11
1100.690157829372
 21
477.5090927141071
 31
0.0
  0
LINE
  5
1C1
330
1F
100
AcDbEntity
  8
1
  6
Continuous
 62
    45
370
     9
100
AcDbLine
 10
1101.978113144172
 20
476.2211403715071
 30
0.0
 11
1100.690157829372
 21
476.2211403715071
 31
0.0
  0
LINE
  5
1C2
330
1F
100
AcDbEntity
  8
1
  6
Continuous
 62
    45
370
     9
100
AcDbLine
 10
1101.978113144172
 20
471.8619127141071
 30
0.0
 11
1100.690157829372
 21
471.8619127141071
 31
0.0
  0
ARC
  5
1C3
330
1F
100
AcDbEntity
  8
1
  6
Continuous
 62
    45
370
     9
100
AcDbCircle
 10
1100.194793144172
 20
477.5090927141071
 30
0.0
 40
0.4953676574
100
AcDbArc
 50
0.0
 51
89.99999999999991
  0
ARC
  5
1C4
330
1F
100
AcDbEntity
  8
1
  6
Continuous
 62
    45
370
     9
100
AcDbCircle
 10
1100.194793144172
 20
470.5739603715072
 30
0.0
 40
0.4953676574
100
AcDbArc
 50
269.9999999999998
 51
0.0
  0
LINE
  5
1C5
330
1F
100
AcDbEntity
  8
1
  6
Continuous
 62
    45
370
     9
100
AcDbLine
 10
1100.690157829372
 20
474.0415250567069
 30
0.0
 11
1100.690157829372
 21
470.5739603715072
 31
0.0
  0
LINE
  5
1C6
330
1F
100
AcDbEntity
  8
1
  6
Continuous
 62
    45
370
     9
100
AcDbLine
 10
1097.717957829371
 20
406.7795928423072
 30
0.0
 11
1097.717957829371
 21
372.0205371417071
 31
0.0
  0
ARC
  5
1C7
330
1F
100
AcDbEntity
  8
1
  6
Continuous
 62
    45
370
     9
100
AcDbCircle
 10
853.9539731441716
 20
364.6026244087068
 30
0.0
 40
1.6842476574
100
AcDbArc
 50
179.9999999999998
 51
0.0
  0
ARC
  5
1C8
330
1F
100
AcDbEntity
  8
1
  6
Continuous
 62
    45
370
     9
100
AcDbCircle
 10
907.7507931441712
 20
364.6026244087068
 30
0.0
 40
1.6842476574
100
AcDbArc
 50
179.9999999999998
 51
269.9999999999998
  0
ARC
  5
1C9
330
1F
100
AcDbEntity
  8
1
  6
Continuous
 62
    45
370
     9
100
AcDbCircle
 10
880.2084054867717
 20
364.6026244087068
 30
0.0
 40
1.6842476574
100
AcDbArc
 50
179.9999999999998
 51
0.0
  0
LINE
  5
1CA
330
1F
100
AcDbEntity
  8
1
  6
Continuous
 62
    45
370
     9
100
AcDbLine
 10
858.4122731441719
 20
347.666259008907
 30
0.0
 11
858.4122731441719
 21
364.6026244087068
 31
0.0
  0
LINE
  5
1CB
330
1F
100
AcDbEntity
  8
1
  6
Continuous
 62
    45
370
     9
100
AcDbLine
 10
872.2825378293717
 20
347.666259008907
 30
0.0
 11
872.2825378293717
 21
364.6026244087068
 31
0.0
  0
LINE
  5
1CC
330
1F
100
AcDbEntity
  8
1
  6
Continuous
 62
    45
370
     9
100
AcDbLine
 10
886.152805486772
 20
347.666259008907
 30
0.0
 11
886.152805486772
 21
364.6026244087068
 31
0.0
  0
LINE
  5
1CD
330
1F
100
AcDbEntity
  8
1
  6
Continuous
 62
    45
370
     9
100
AcDbLine
 10
900.0230731441723
 20
347.666259008907
 30
0.0
 11
900.0230731441723
 21
364.6026244087068
 31
0.0
  0
ARC
  5
1CE
330
1F
100
AcDbEntity
  8
1
  6
Continuous
 62
    45
370
     9
100
AcDbCircle
 10
961.5476131441717
 20
364.6026244087068
 30
0.0
 40
1.6842476574
100
AcDbArc
 50
179.9999999999998
 51
0.0
  0
ARC
  5
1CF
330
1F
100
AcDbEntity
  8
1
  6
Continuous
 62
    45
370
     9
100
AcDbCircle
 10
907.7507931441712
 20
364.6026244087068
 30
0.0
 40
1.6842476574
100
AcDbArc
 50
269.9999999999998
 51
0.0
  0
ARC
  5
1D0
330
1F
100
AcDbEntity
  8
1
  6
Continuous
 62
    45
370
     9
100
AcDbCircle
 10
935.2931778293721
 20
364.6026244087068
 30
0.0
 40
1.6842476574
100
AcDbArc
 50
179.9999999999998
 51
0.0
  0
LINE
  5
1D1
330
1F
100
AcDbEntity
  8
1
  6
Continuous
 62
    45
370
     9
100
AcDbLine
 10
957.0893131441715
 20
347.666259008907
 30
0.0
 11
957.0893131441715
 21
364.6026244087068
 31
0.0
  0
LINE
  5
1D2
330
1F
100
AcDbEntity
  8
1
  6
Continuous
 62
    45
370
     9
100
AcDbLine
 10
943.2190454867721
 20
347.666259008907
 30
0.0
 11
943.2190454867721
 21
364.6026244087068
 31
0.0
  0
LINE
  5
1D3
330
1F
100
AcDbEntity
  8
1
  6
Continuous
 62
    45
370
     9
100
AcDbLine
 10
929.3487778293718
 20
347.666259008907
 30
0.0
 11
929.3487778293718
 21
364.6026244087068
 31
0.0
  0
LINE
  5
1D4
330
1F
100
AcDbEntity
  8
1
  6
Continuous
 62
    45
370
     9
100
AcDbLine
 10
915.478513144172
 20
347.666259008907
 30
0.0
 11
915.478513144172
 21
364.6026244087068
 31
0.0
  0
ARC
  5
1D5
330
1F
100
AcDbEntity
  8
1
  6
Continuous
 62
    45
370
     9
100
AcDbCircle
 10
986.9539731441716
 20
364.6026244087068
 30
0.0
 40
1.6842476574
100
AcDbArc
 50
179.9999999999998
 51
0.0
  0
ARC
  5
1D6
330
1F
100
AcDbEntity
  8
1
  6
Continuous
 62
    45
370
     9
100
AcDbCircle
 10
1040.750793144171
 20
364.6026244087068
 30
0.0
 40
1.6842476574
100
AcDbArc
 50
179.9999999999998
 51
269.9999999999998
  0
ARC
  5
1D7
330
1F
100
AcDbEntity
  8
1
  6
Continuous
 62
    45
370
     9
100
AcDbCircle
 10
1013.208405486772
 20
364.6026244087068
 30
0.0
 40
1.6842476574
100
AcDbArc
 50
179.9999999999998
 51
0.0
  0
LINE
  5
1D8
330
1F
100
AcDbEntity
  8
1
  6
Continuous
 62
    45
370
     9
100
AcDbLine
 10
991.4122731441719
 20
347.666259008907
 30
0.0
 11
991.4122731441719
 21
364.6026244087068
 31
0.0
  0
LINE
  5
1D9
330
1F
100
AcDbEntity
  8
1
  6
Continuous
 62
    45
370
     9
100
AcDbLine
 10
1005.282537829372
 20
347.666259008907
 30
0.0
 11
1005.282537829372
 21
364.6026244087068
 31
0.0
  0
LINE
  5
1DA
330
1F
100
AcDbEntity
  8
1
  6
Continuous
 62
    45
370
     9
100
AcDbLine
 10
1019.152805486772
 20
347.666259008907
 30
0.0
 11
1019.152805486772
 21
364.6026244087068
 31
0.0
  0
LINE
  5
1DB
330
1F
100
AcDbEntity
  8
1
  6
Continuous
 62
    45
370
     9
100
AcDbLine
 10
1033.023073144172
 20
347.666259008907
 30
0.0
 11
1033.023073144172
 21
364.6026244087068
 31
0.0
  0
ARC
  5
1DC
330
1F
100
AcDbEntity
  8
1
  6
Continuous
 62
    45
370
     9
100
AcDbCircle
 10
1094.547613144172
 20
364.6026244087068
 30
0.0
 40
1.6842476574
100
AcDbArc
 50
179.9999999999998
 51
0.0
  0
ARC
  5
1DD
330
1F
100
AcDbEntity
  8
1
  6
Continuous
 62
    45
370
     9
100
AcDbCircle
 10
1040.750793144171
 20
364.6026244087068
 30
0.0
 40
1.6842476574
100
AcDbArc
 50
269.9999999999998
 51
0.0
  0
ARC
  5
1DE
330
1F
100
AcDbEntity
  8
1
  6
Continuous
 62
    45
370
     9
100
AcDbCircle
 10
1068.293177829372
 20
364.6026244087068
 30
0.0
 40
1.6842476574
100
AcDbArc
 50
179.9999999999998
 51
0.0
  0
LINE
  5
1DF
330
1F
100
AcDbEntity
  8
1
  6
Continuous
 62
    45
370
     9
100
AcDbLine
 10
1090.089313144171
 20
347.666259008907
 30
0.0
 11
1090.089313144171
 21
364.6026244087068
 31
0.0
  0
LINE
  5
1E0
330
1F
100
AcDbEntity
  8
1
  6
Continuous
 62
    45
370
     9
100
AcDbLine
 10
1076.219045486772
 20
347.666259008907
 30
0.0
 11
1076.219045486772
 21
364.6026244087068
 31
0.0
  0
LINE
  5
1E1
330
1F
100
AcDbEntity
  8
1
  6
Continuous
 62
    45
370
     9
100
AcDbLine
 10
1062.348777829372
 20
347.666259008907
 30
0.0
 11
1062.348777829372
 21
364.6026244087068
 31
0.0
  0
LINE
  5
1E2
330
1F
100
AcDbEntity
  8
1
  6
Continuous
 62
    45
370
     9
100
AcDbLine
 10
1048.478513144172
 20
347.666259008907
 30
0.0
 11
1048.478513144172
 21
364.6026244087068
 31
0.0
  0
LINE
  5
1E3
330
1F
100
AcDbEntity
  8
1
  6
Continuous
 62
    45
370
     9
100
AcDbLine
 10
843.7494178293716
 20
341.6029353425072
 30
0.0
 11
843.7494178293716
 21
471.2875558695071
 31
0.0
  0
LINE
  5
1E4
330
1F
100
AcDbEntity
  8
1
  6
Continuous
 62
    45
370
     9
100
AcDbLine
 10
843.7494178293716
 20
471.2875558695071
 30
0.0
 11
844.5420054867716
 21
471.2875558695071
 31
0.0
  0
LINE
  5
1E5
330
1F
100
AcDbEntity
  8
1
  6
Continuous
 62
    45
370
     9
100
AcDbLine
 10
970.9595778293722
 20
341.6029353425072
 30
0.0
 11
971.7521654867712
 21
341.6029353425072
 31
0.0
  0
LINE
  5
1E6
330
1F
100
AcDbEntity
  8
1
  6
Continuous
 62
    45
370
     9
100
AcDbLine
 10
971.7521654867712
 20
341.6029353425072
 30
0.0
 11
971.7521654867712
 21
471.2875558695071
 31
0.0
  0
LINE
  5
1E7
330
1F
100
AcDbEntity
  8
1
  6
Continuous
 62
    45
370
     9
100
AcDbLine
 10
971.7521654867712
 20
471.2875558695071
 30
0.0
 11
970.9595778293722
 21
471.2875558695071
 31
0.0
  0
LINE
  5
1E8
330
1F
100
AcDbEntity
  8
1
  6
Continuous
 62
    45
370
     9
100
AcDbLine
 10
844.5420054867716
 20
341.6029353425072
 30
0.0
 11
843.7494178293716
 21
341.6029353425072
 31
0.0
  0
LINE
  5
1E9
330
1F
100
AcDbEntity
  8
1
  6
Continuous
 62
    45
370
     9
100
AcDbLine
 10
976.7494178293716
 20
341.6029353425072
 30
0.0
 11
976.7494178293716
 21
471.2875558695071
 31
0.0
  0
LINE
  5
1EA
330
1F
100
AcDbEntity
  8
1
  6
Continuous
 62
    45
370
     9
100
AcDbLine
 10
976.7494178293716
 20
471.2875558695071
 30
0.0
 11
977.5420054867716
 21
471.2875558695071
 31
0.0
  0
LINE
  5
1EB
330
1F
100
AcDbEntity
  8
1
  6
Continuous
 62
    45
370
     9
100
AcDbLine
 10
1103.959577829372
 20
341.6029353425072
 30
0.0
 11
1104.752165486771
 21
341.6029353425072
 31
0.0
  0
LINE
  5
1EC
330
1F
100
AcDbEntity
  8
1
  6
Continuous
 62
    45
370
     9
100
AcDbLine
 10
1104.752165486771
 20
341.6029353425072
 30
0.0
 11
1104.752165486771
 21
471.2875558695071
 31
0.0
  0
LINE
  5
1ED
330
1F
100
AcDbEntity
  8
1
  6
Continuous
 62
    45
370
     9
100
AcDbLine
 10
1104.752165486771
 20
471.2875558695071
 30
0.0
 11
1103.959577829372
 21
471.2875558695071
 31
0.0
  0
LINE
  5
1EE
330
1F
100
AcDbEntity
  8
1
  6
Continuous
 62
    45
370
     9
100
AcDbLine
 10
977.5420054867716
 20
341.6029353425072
 30
0.0
 11
976.7494178293716
 21
341.6029353425072
 31
0.0
  0
CIRCLE
  5
1EF
330
1F
100
AcDbEntity
  8
1
  6
Continuous
 62
    45
370
     9
100
AcDbCircle
 10
859.7494178293719
 20
504.3931834661068
 30
0.0
 40
2.5
  0
LINE
  5
1F0
330
1F
100
AcDbEntity
  8
2
  6
Continuous
 62
    90
370
    18
100
AcDbLine
 10
1075.752165486771
 20
516.3931834661068
 30
0.0
 11
1102.752165486771
 21
516.3931834661068
 31
0.0
  0
LINE
  5
1F1
330
1F
100
AcDbEntity
  8
2
  6
Continuous
 62
    90
370
    18
100
AcDbLine
 10
1102.752165486771
 20
516.3931834661068
 30
0.0
 11
1102.752165486771
 21
491.3931834661068
 31
0.0
  0
LINE
  5
1F2
330
1F
100
AcDbEntity
  8
2
  6
Continuous
 62
    90
370
    18
100
AcDbLine
 10
1102.752165486771
 20
491.3931834661068
 30
0.0
 11
1105.752165486771
 21
491.3931834661068
 31
0.0
  0
INSERT
  5
1FA
330
1F
100
AcDbEntity
  8
0
100
AcDbBlockReference
  2
*G15
 10
0.0
 20
0.0
 30
0.0
  0
CIRCLE
  5
1FB
330
1F
100
AcDbEntity
  8
1
  6
Continuous
 62
    45
370
     9
100
AcDbCircle
 10
1088.752165486771
 20
504.3931834661068
 30
0.0
 40
2.5
  0
LINE
  5
1FC
330
1F
100
AcDbEntity
  8
2
  6
Continuous
 62
    90
370
    18
100
AcDbLine
 10
804.7494178293844
 20
716.8931837722587
 30
0.0
 11
836.7494178293803
 21
716.8931837722569
 31
0.0
  0
LINE
  5
1FD
330
1F
100
AcDbEntity
  8
2
  6
Continuous
 62
    90
370
    18
100
AcDbLine
 10
834.2494178293846
 20
639.3931834661068
 30
0.0
 11
836.2494178293846
 21
640.8931834661068
 31
0.0
  0
LINE
  5
1FE
330
1F
100
AcDbEntity
  8
2
  6
Continuous
 62
    90
370
    18
100
AcDbLine
 10
807.2494178293844
 20
639.3931834661068
 30
0.0
 11
805.2494178293844
 21
640.8931834661068
 31
0.0
  0
LINE
  5
1FF
330
1F
100
AcDbEntity
  8
2
  6
Continuous
 62
    90
370
    18
100
AcDbLine
 10
805.2494178293844
 20
640.8931834661068
 30
0.0
 11
805.2494178293846
 21
693.3931834661068
 31
0.0
  0
LINE
  5
200
330
1F
100
AcDbEntity
  8
2
  6
Continuous
 62
    90
370
    18
100
AcDbLine
 10
836.2494178293846
 20
640.8931834661068
 30
0.0
 11
836.2494178293846
 21
693.3931834661068
 31
0.0
  0
LINE
  5
201
330
1F
100
AcDbEntity
  8
2
  6
Continuous
 62
    90
370
    18
100
AcDbLine
 10
805.2494178293846
 20
693.3931834661068
 30
0.0
 11
836.2494178293846
 21
693.3931834661068
 31
0.0
  0
LINE
  5
202
330
1F
100
AcDbEntity
  8
2
  6
Continuous
 62
    90
370
    18
100
AcDbLine
 10
834.2494178293846
 20
639.3931834661068
 30
0.0
 11
807.2494178293844
 21
639.3931834661068
 31
0.0
  0
LINE
  5
203
330
1F
100
AcDbEntity
  8
2
  6
Continuous
 62
    90
370
    18
100
AcDbLine
 10
836.4494178293844
 20
693.3931834661068
 30
0.0
 11
805.0494178293848
 21
693.3931834661068
 31
0.0
  0
LINE
  5
204
330
1F
100
AcDbEntity
  8
2
  6
Continuous
 62
    90
370
    18
100
AcDbLine
 10
836.4494178293846
 20
716.8931834661073
 30
0.0
 11
805.0494178293845
 21
716.8931834661068
 31
0.0
  0
LINE
  5
205
330
1F
100
AcDbEntity
  8
2
  6
Continuous
 62
    90
370
    18
100
AcDbLine
 10
804.7494178293846
 20
693.693183466107
 30
0.0
 11
804.7494178293844
 21
716.5931834661071
 31
0.0
  0
ARC
  5
206
330
1F
100
AcDbEntity
  8
2
  6
Continuous
 62
    90
370
    18
100
AcDbCircle
 10
805.0494178293845
 20
716.5931834661071
 30
0.0
 40
0.3
100
AcDbArc
 50
89.99999999999991
 51
179.9999999999998
  0
ARC
  5
207
330
1F
100
AcDbEntity
  8
2
  6
Continuous
 62
    90
370
    18
100
AcDbCircle
 10
805.0494178293848
 20
693.693183466107
 30
0.0
 40
0.3
100
AcDbArc
 50
179.9999999999998
 51
269.9999999999998
  0
LINE
  5
208
330
1F
100
AcDbEntity
  8
2
  6
Continuous
 62
    90
370
    18
100
AcDbLine
 10
829.5634688293849
 20
693.3931834661068
 30
0.0
 11
805.0494178293848
 21
693.3931834661068
 31
0.0
  0
LINE
  5
209
330
1F
100
AcDbEntity
  8
2
  6
Continuous
 62
    90
370
    18
100
AcDbLine
 10
836.7494178293844
 20
716.5931834661071
 30
0.0
 11
836.7494178293846
 21
693.693183466107
 31
0.0
  0
ARC
  5
20A
330
1F
100
AcDbEntity
  8
2
  6
Continuous
 62
    90
370
    18
100
AcDbCircle
 10
836.4494178293846
 20
716.5931834661071
 30
0.0
 40
0.3
100
AcDbArc
 50
0.0
 51
89.99999999999991
  0
ARC
  5
20B
330
1F
100
AcDbEntity
  8
2
  6
Continuous
 62
    90
370
    18
100
AcDbCircle
 10
836.4494178293844
 20
693.693183466107
 30
0.0
 40
0.3
100
AcDbArc
 50
269.9999999999998
 51
0.0
  0
LINE
  5
20C
330
1F
100
AcDbEntity
  8
1
  6
Continuous
 62
    45
370
     9
100
AcDbLine
 10
836.2494178293846
 20
640.8931834661068
 30
0.0
 11
805.2494178293844
 21
640.8931834661068
 31
0.0
  0
LINE
  5
20D
330
1F
100
AcDbEntity
  8
2
  6
Continuous
 62
    90
370
    18
100
AcDbLine
 10
977.5420054867716
 20
337.3931834661068
 30
0.0
 11
979.5234731441712
 21
337.3931834661068
 31
0.0
  0
LINE
  5
20E
330
1F
100
AcDbEntity
  8
2
  6
Continuous
 62
    90
370
    18
100
AcDbLine
 10
1103.959577829372
 20
337.3931834661068
 30
0.0
 11
1101.978113144172
 21
337.3931834661068
 31
0.0
  0
LINE
  5
20F
330
1F
100
AcDbEntity
  8
2
  6
Continuous
 62
    90
370
    18
100
AcDbLine
 10
1101.978113144172
 20
337.3931834661068
 30
0.0
 11
1101.978113144172
 21
484.3931834661068
 31
0.0
  0
LINE
  5
210
330
1F
100
AcDbEntity
  8
2
  6
Continuous
 62
    90
370
    18
100
AcDbLine
 10
1103.959577829372
 20
337.3931834661068
 30
0.0
 11
1103.959577829372
 21
484.3931834661068
 31
0.0
  0
LINE
  5
211
330
1F
100
AcDbEntity
  8
2
  6
Continuous
 62
    90
370
    18
100
AcDbLine
 10
979.5234731441712
 20
337.3931834661068
 30
0.0
 11
979.5234731441712
 21
484.3931834661068
 31
0.0
  0
LINE
  5
212
330
1F
100
AcDbEntity
  8
2
  6
Continuous
 62
    90
370
    18
100
AcDbLine
 10
977.5420054867716
 20
337.3931834661068
 30
0.0
 11
977.5420054867716
 21
484.3931834661068
 31
0.0
  0
LINE
  5
213
330
1F
100
AcDbEntity
  8
2
  6
Continuous
 62
    90
370
    18
100
AcDbLine
 10
844.5420054867716
 20
337.3931834661068
 30
0.0
 11
846.5234731441717
 21
337.3931834661068
 31
0.0
  0
LINE
  5
214
330
1F
100
AcDbEntity
  8
2
  6
Continuous
 62
    90
370
    18
100
AcDbLine
 10
970.9595778293722
 20
337.3931834661068
 30
0.0
 11
968.9781131441721
 21
337.3931834661068
 31
0.0
  0
LINE
  5
215
330
1F
100
AcDbEntity
  8
2
  6
Continuous
 62
    90
370
    18
100
AcDbLine
 10
968.9781131441721
 20
337.3931834661068
 30
0.0
 11
968.9781131441721
 21
484.3931834661068
 31
0.0
  0
LINE
  5
216
330
1F
100
AcDbEntity
  8
2
  6
Continuous
 62
    90
370
    18
100
AcDbLine
 10
970.9595778293722
 20
337.3931834661068
 30
0.0
 11
970.9595778293722
 21
484.3931834661068
 31
0.0
  0
LINE
  5
217
330
1F
100
AcDbEntity
  8
2
  6
Continuous
 62
    90
370
    18
100
AcDbLine
 10
846.5234731441717
 20
337.3931834661068
 30
0.0
 11
846.5234731441717
 21
484.3931834661068
 31
0.0
  0
LINE
  5
218
330
1F
100
AcDbEntity
  8
2
  6
Continuous
 62
    90
370
    18
100
AcDbLine
 10
844.5420054867716
 20
337.3931834661068
 30
0.0
 11
844.5420054867716
 21
484.3931834661068
 31
0.0
  0
DIMENSION
  5
224
330
1F
100
AcDbEntity
  8
6
  6
Continuous
 62
     7
370
     9
100
AcDbDimension
  2
Dim2
 10
804.7494178293707
 20
964.5128821577948
 30
0.0
 11
869.1787770526482
 21
976.5128821577948
 31
0.0
 70
   160
  1
<>
 71
     5
 42
-1.0
  3
Standard
100
AcDbAlignedDimension
 13
804.7494178293705
 23
888.9128821577899
 33
0.0
 14
836.7494178293798
 24
888.9128821577899
 34
0.0
100
AcDbRotatedDimension
1001
ACAD
1000
DSTYLE
1002
{
1070
   344
1005
3C
1070
   343
1005
3C
1070
   173
1070
     1
1070
   289
1070
     2
1070
   279
1070
     2
1070
   288
1070
     1
1070
    77
1070
     3
1070
   172
1070
     1
1070
   174
1070
     0
1070
    74
1070
     0
1070
    73
1070
     0
1070
   284
1070
     8
1070
    78
1070
     8
1070
   140
1040
3.0
1070
    40
1040
8.0
1070
    42
1040
2.0
1070
    44
1040
1.0
1070
    43
1040
10.0
1070
   271
1070
     2
1070
    41
1040
2.0
1002
}
  0
LINE
  5
225
330
1F
100
AcDbEntity
  8
6
  6
Continuous
 62
     7
370
     9
100
AcDbLine
 10
821.6472279695729
 20
1069.154548824469
 30
0.0
 11
832.9609364685576
 21
1080.468257323453
 31
0.0
  0
LINE
  5
226
330
1F
100
AcDbEntity
  8
6
  6
Continuous
 62
     7
370
     9
100
AcDbLine
 10
821.6472279695729
 20
1069.154548824469
 30
0.0
 11
837.102041190198
 21
1073.295653546109
 31
0.0
  0
POLYLINE
  5
227
330
1F
100
AcDbEntity
  8
6
  6
Continuous
 62
     7
370
     9
100
AcDb2dPolyline
 66
     1
 10
0.0
 20
0.0
 30
0.0
  0
VERTEX
  5
229
330
227
100
AcDbEntity
  8
6
  6
Continuous
 62
     7
370
     9
100
AcDbVertex
100
AcDb2dVertex
 10
821.6472279695729
 20
1069.154548824469
 30
0.0
  0
VERTEX
  5
22A
330
227
100
AcDbEntity
  8
6
  6
Continuous
 62
     7
370
     9
100
AcDbVertex
100
AcDb2dVertex
 10
964.7472279695833
 20
1151.77337234551
 30
0.0
  0
VERTEX
  5
22B
330
227
100
AcDbEntity
  8
6
  6
Continuous
 62
     7
370
     9
100
AcDbVertex
100
AcDb2dVertex
 10
1036.747227969583
 20
1151.77337234551
 30
0.0
  0
SEQEND
  5
228
330
227
100
AcDbEntity
  8
6
  6
Continuous
370
     9
  0
TEXT
  5
22C
330
1F
100
AcDbEntity
  8
6
  6
Continuous
 62
     7
370
     9
100
AcDbText
 10
964.7472279695833
 20
1151.77337234551
 30
0.0
 40
24.0
  1
手すり
100
AcDbText
  0
LINE
  5
22D
330
1F
100
AcDbEntity
  8
6
  6
Continuous
 62
     7
370
     9
100
AcDbLine
 10
1148.447227969595
 20
529.2212154910974
 30
0.0
 11
1152.588332691236
 21
544.6760287117224
 31
0.0
  0
LINE
  5
22E
330
1F
100
AcDbEntity
  8
6
  6
Continuous
 62
     7
370
     9
100
AcDbLine
 10
1148.447227969595
 20
529.2212154910974
 30
0.0
 11
1159.76093646858
 21
540.5349239900821
 31
0.0
  0
POLYLINE
  5
22F
330
1F
100
AcDbEntity
  8
6
  6
Continuous
 62
     7
370
     9
100
AcDb2dPolyline
 66
     1
 10
0.0
 20
0.0
 30
0.0
  0
VERTEX
  5
231
330
22F
100
AcDbEntity
  8
6
  6
Continuous
 62
     7
370
     9
100
AcDbVertex
100
AcDb2dVertex
 10
1148.447227969595
 20
529.2212154910974
 30
0.0
  0
VERTEX
  5
232
330
22F
100
AcDbEntity
  8
6
  6
Continuous
 62
     7
370
     9
100
AcDbVertex
100
AcDb2dVertex
 10
1228.467975279283
 20
667.8212154911068
 30
0.0
  0
VERTEX
  5
233
330
22F
100
AcDbEntity
  8
6
  6
Continuous
 62
     7
370
     9
100
AcDbVertex
100
AcDb2dVertex
 10
1300.467975279283
 20
667.8212154911068
 30
0.0
  0
SEQEND
  5
230
330
22F
100
AcDbEntity
  8
6
  6
Continuous
370
     9
  0
TEXT
  5
234
330
1F
100
AcDbEntity
  8
6
  6
Continuous
 62
     7
370
     9
100
AcDbText
 10
1228.467975279283
 20
667.8212154911068
 30
0.0
 40
24.0
  1
棚　板
100
AcDbText
  0
LINE
  5
235
330
1F
100
AcDbEntity
  8
6
  6
Continuous
 62
     7
370
     9
100
AcDbLine
 10
1080.997227969591
 20
437.9712154910906
 30
0.0
 11
1096.452041190216
 21
433.8301107694501
 31
0.0
  0
LINE
  5
236
330
1F
100
AcDbEntity
  8
6
  6
Continuous
 62
     7
370
     9
100
AcDbLine
 10
1080.997227969591
 20
437.9712154910906
 30
0.0
 11
1092.310936468576
 21
426.6575069921058
 31
0.0
  0
POLYLINE
  5
237
330
1F
100
AcDbEntity
  8
6
  6
Continuous
 62
     7
370
     9
100
AcDb2dPolyline
 66
     1
 10
0.0
 20
0.0
 30
0.0
  0
VERTEX
  5
239
330
237
100
AcDbEntity
  8
6
  6
Continuous
 62
     7
370
     9
100
AcDbVertex
100
AcDb2dVertex
 10
1080.997227969591
 20
437.9712154910906
 30
0.0
  0
VERTEX
  5
23A
330
237
100
AcDbEntity
  8
6
  6
Continuous
 62
     7
370
     9
100
AcDbVertex
100
AcDb2dVertex
 10
1169.797227969597
 20
386.7025115870476
 30
0.0
  0
VERTEX
  5
23B
330
237
100
AcDbEntity
  8
6
  6
Continuous
 62
     7
370
     9
100
AcDbVertex
100
AcDb2dVertex
 10
1323.397227969597
 20
386.7025115870476
 30
0.0
  0
SEQEND
  5
238
330
237
100
AcDbEntity
  8
6
  6
Continuous
370
     9
  0
TEXT
  5
23C
330
1F
100
AcDbEntity
  8
6
  6
Continuous
 62
     7
370
     9
100
AcDbText
 10
1169.797227969597
 20
386.7025115870476
 30
0.0
 40
24.0
  1
ペーパーホルダー
 41
0.8000000000000002
100
AcDbText
  0
LINE
  5
23D
330
1F
100
AcDbEntity
  8
1
  6
Continuous
 62
    45
370
     9
100
AcDbLine
 10
971.7521654867712
 20
391.3931834661068
 30
0.0
 11
976.7494178293716
 21
391.3931834661068
 31
0.0
  0
LINE
  5
23E
330
1F
100
AcDbEntity
  8
1
  6
Continuous
 62
    45
370
     9
100
AcDbLine
 10
970.9595778293722
 20
482.3931834661068
 30
0.0
 11
977.5420054867716
 21
482.3931834661068
 31
0.0
  0
DIMENSION
  5
249
330
1F
100
AcDbEntity
  8
6
  6
Continuous
 62
     7
370
     9
100
AcDbDimension
  2
Dim3
 10
724.7494178293841
 20
539.3931834661068
 30
0.0
 11
712.7494178293841
 21
559.3271421040574
 31
0.0
 70
   160
  1
<>
 71
     5
 42
-1.0
  3
Standard
100
AcDbAlignedDimension
 13
804.7494178293714
 23
539.3931834661068
 33
0.0
 14
804.7494178293716
 24
519.3931834661068
 34
0.0
 50
89.99999999999991
100
AcDbRotatedDimension
1001
ACAD
1000
DSTYLE
1002
{
1070
   344
1005
3C
1070
   343
1005
3C
1070
   173
1070
     1
1070
   289
1070
     2
1070
   279
1070
     2
1070
   288
1070
     1
1070
    77
1070
     3
1070
   172
1070
     1
1070
   174
1070
     0
1070
    74
1070
     0
1070
    73
1070
     0
1070
   284
1070
     8
1070
    78
1070
     8
1070
   140
1040
3.0
1070
    40
1040
8.0
1070
    42
1040
2.0
1070
    44
1040
1.0
1070
    43
1040
10.0
1070
   271
1070
     2
1070
    41
1040
2.0
1002
}
  0
DIMENSION
  5
254
330
1F
100
AcDbEntity
  8
6
  6
Continuous
 62
     7
370
     9
100
AcDbDimension
  2
Dim4
 10
724.7494178293841
 20
519.3931834661068
 30
0.0
 11
712.7494178293841
 21
501.8931834661068
 31
0.0
 70
   160
  1
<>
 71
     5
 42
-1.0
  3
Standard
100
AcDbAlignedDimension
 13
804.7494178293716
 23
519.3931834661068
 33
0.0
 14
842.7494178293719
 24
484.3931834661068
 34
0.0
 50
89.99999999999991
100
AcDbRotatedDimension
1001
ACAD
1000
DSTYLE
1002
{
1070
   344
1005
3C
1070
   343
1005
3C
1070
   173
1070
     1
1070
   289
1070
     2
1070
   279
1070
     2
1070
   288
1070
     1
1070
    77
1070
     3
1070
   172
1070
     1
1070
   174
1070
     0
1070
    74
1070
     0
1070
    73
1070
     0
1070
   284
1070
     8
1070
    78
1070
     8
1070
   140
1040
3.0
1070
    40
1040
8.0
1070
    42
1040
2.0
1070
    44
1040
1.0
1070
    43
1040
10.0
1070
   271
1070
     2
1070
    41
1040
2.0
1002
}
  0
DIMENSION
  5
25E
330
1F
100
AcDbEntity
  8
6
  6
Continuous
 62
     7
370
     9
100
AcDbDimension
  2
Dim5
 10
724.7494178293841
 20
484.3931834661068
 30
0.0
 11
712.7494178293844
 21
410.8931834661068
 31
0.0
 70
   160
  1
<>
 71
     5
 42
-1.0
  3
Standard
100
AcDbAlignedDimension
 13
842.7494178293719
 23
484.3931834661068
 33
0.0
 14
842.7494178293716
 24
337.3931834661068
 34
0.0
 50
90.0
100
AcDbRotatedDimension
1001
ACAD
1000
DSTYLE
1002
{
1070
   344
1005
3C
1070
   343
1005
3C
1070
   173
1070
     1
1070
   289
1070
     2
1070
   279
1070
     2
1070
   288
1070
     1
1070
    77
1070
     3
1070
   172
1070
     1
1070
   174
1070
     0
1070
    74
1070
     0
1070
    73
1070
     0
1070
   284
1070
     8
1070
    78
1070
     8
1070
   140
1040
3.0
1070
    40
1040
8.0
1070
    42
1040
2.0
1070
    44
1040
1.0
1070
    43
1040
10.0
1070
   271
1070
     2
1070
    41
1040
2.0
1002
}
  0
DIMENSION
  5
26A
330
1F
100
AcDbEntity
  8
6
  6
Continuous
 62
     7
370
     9
100
AcDbDimension
  2
Dim6
 10
668.7494178293846
 20
539.3931834661073
 30
0.0
 11
656.7494178293848
 21
438.3931834661073
 31
0.0
 70
   160
  1
<>
 71
     5
 42
-1.0
  3
Standard
100
AcDbAlignedDimension
 13
804.7494178293714
 23
539.3931834661068
 33
0.0
 14
842.7494178293716
 24
337.3931834661068
 34
0.0
 50
89.99999999999994
100
AcDbRotatedDimension
1001
ACAD
1000
DSTYLE
1002
{
1070
   344
1005
3C
1070
   343
1005
3C
1070
   173
1070
     1
1070
   289
1070
     2
1070
   279
1070
     2
1070
   288
1070
     1
1070
    77
1070
     3
1070
   172
1070
     1
1070
   174
1070
     0
1070
    74
1070
     0
1070
    73
1070
     0
1070
   284
1070
     8
1070
    78
1070
     8
1070
   140
1040
3.0
1070
    40
1040
8.0
1070
    42
1040
2.0
1070
    44
1040
1.0
1070
    43
1040
10.0
1070
   271
1070
     2
1070
    41
1040
2.0
1002
}
  0
DIMENSION
  5
276
330
1F
100
AcDbEntity
  8
6
  6
Continuous
 62
     7
370
     9
100
AcDbDimension
  2
Dim7
 10
668.7494178293846
 20
639.3931834661073
 30
0.0
 11
656.7494178293846
 21
589.3931834661073
 31
0.0
 70
   160
  1
<>
 71
     5
 42
-1.0
  3
Standard
100
AcDbAlignedDimension
 13
804.7494178293716
 23
639.3931834661068
 33
0.0
 14
804.7494178293714
 24
539.3931834661068
 34
0.0
 50
89.99999999999991
100
AcDbRotatedDimension
1001
ACAD
1000
DSTYLE
1002
{
1070
   344
1005
3C
1070
   343
1005
3C
1070
   173
1070
     1
1070
   289
1070
     2
1070
   279
1070
     2
1070
   288
1070
     1
1070
    77
1070
     3
1070
   172
1070
     1
1070
   174
1070
     0
1070
    74
1070
     0
1070
    73
1070
     0
1070
   284
1070
     8
1070
    78
1070
     8
1070
   140
1040
3.0
1070
    40
1040
8.0
1070
    42
1040
2.0
1070
    44
1040
1.0
1070
    43
1040
10.0
1070
   271
1070
     2
1070
    41
1040
2.0
1002
}
  0
DIMENSION
  5
282
330
1F
100
AcDbEntity
  8
6
  6
Continuous
 62
     7
370
     9
100
AcDbDimension
  2
Dim8
 10
804.7494178293689
 20
201.3931834661068
 30
0.0
 11
1104.749417829369
 21
213.3931834661068
 31
0.0
 70
   160
  1
<>
 71
     5
 42
-1.0
  3
Standard
100
AcDbAlignedDimension
 13
804.7494178293716
 23
519.3931834661068
 33
0.0
 14
1404.749417829372
 24
521.3931834661068
 34
0.0
100
AcDbRotatedDimension
1001
ACAD
1000
DSTYLE
1002
{
1070
   344
1005
3C
1070
   343
1005
3C
1070
   173
1070
     1
1070
   289
1070
     2
1070
   279
1070
     2
1070
   288
1070
     1
1070
    77
1070
     3
1070
   172
1070
     1
1070
   174
1070
     0
1070
    74
1070
     0
1070
    73
1070
     0
1070
   284
1070
     8
1070
    78
1070
     8
1070
   140
1040
3.0
1070
    40
1040
8.0
1070
    42
1040
2.0
1070
    44
1040
1.0
1070
    43
1040
10.0
1070
   271
1070
     2
1070
    41
1040
2.0
1002
}
  0
LINE
  5
283
330
1F
100
AcDbEntity
  8
8
  6
Continuous
 62
   171
370
    18
100
AcDbLine
 10
1918.841872000001
 20
1130.785000000002
 30
0.0
 11
1918.841872000001
 21
890.7850000000021
 31
0.0
  0
LINE
  5
284
330
1F
100
AcDbEntity
  8
8
  6
Continuous
 62
   171
370
    18
100
AcDbLine
 10
1739.420936
 20
1130.785000000002
 30
0.0
 11
1739.420936
 21
890.7850000000021
 31
0.0
  0
LINE
  5
285
330
1F
100
AcDbEntity
  8
8
  6
Continuous
 62
   171
370
    18
100
AcDbLine
 10
1560.0
 20
1130.785000000002
 30
0.0
 11
1560.0
 21
890.7850000000021
 31
0.0
  0
TEXT
  5
286
330
1F
100
AcDbEntity
  8
8
  6
Continuous
 62
   171
370
     9
100
AcDbText
 10
1620.910468
 20
1094.235954332392
 30
0.0
 40
24.0
  1
品　番
 41
0.8000000000000002
100
AcDbText
  0
TEXT
  5
287
330
1F
100
AcDbEntity
  8
8
  6
Continuous
 62
   171
370
     9
100
AcDbText
 10
1753.127043065689
 20
1046.678164762261
 30
0.0
 40
24.0
  1
オフホワイト
 41
0.7000000000000001
100
AcDbText
  0
LINE
  5
288
330
1F
100
AcDbEntity
  8
8
  6
Continuous
 62
   171
370
    18
100
AcDbLine
 10
2098.262808000001
 20
1130.785000000002
 30
0.0
 11
2098.262808000001
 21
890.7850000000021
 31
0.0
  0
LINE
  5
289
330
1F
100
AcDbEntity
  8
8
  6
Continuous
 62
   171
370
    18
100
AcDbLine
 10
1560.0
 20
890.7850000000021
 30
0.0
 11
2098.262808000001
 21
890.7850000000021
 31
0.0
  0
LINE
  5
28A
330
1F
100
AcDbEntity
  8
8
  6
Continuous
 62
   171
370
    18
100
AcDbLine
 10
1560.0
 20
1130.785000000002
 30
0.0
 11
2098.262808000001
 21
1130.785000000002
 31
0.0
  0
LINE
  5
28B
330
1F
100
AcDbEntity
  8
8
  6
Continuous
 62
   171
370
    18
100
AcDbLine
 10
1560.0
 20
1082.785000000002
 30
0.0
 11
2098.262808000001
 21
1082.785000000002
 31
0.0
  0
TEXT
  5
28C
330
1F
100
AcDbEntity
  8
8
  6
Continuous
 62
   171
370
     9
100
AcDbText
 10
1781.098411646691
 20
1093.315475662429
 30
0.0
 40
24.0
  1
本　体　色
 41
0.8000000000000002
100
AcDbText
  0
TEXT
  5
28D
330
1F
100
AcDbEntity
  8
8
  6
Continuous
 62
   171
370
     9
100
AcDbText
 10
1950.919347646691
 20
1093.315475662429
 30
0.0
 40
24.0
  1
棚・手すり色
 41
0.8000000000000002
100
AcDbText
  0
LINE
  5
28E
330
1F
100
AcDbEntity
  8
8
  6
Continuous
 62
   171
370
    18
100
AcDbLine
 10
1560.0
 20
1034.785000000002
 30
0.0
 11
1918.841872000001
 21
1034.785000000002
 31
0.0
  0
LINE
  5
28F
330
1F
100
AcDbEntity
  8
8
  6
Continuous
 62
   171
370
    18
100
AcDbLine
 10
1560.0
 20
986.7850000000021
 30
0.0
 11
1918.841872000001
 21
986.7850000000021
 31
0.0
  0
LINE
  5
290
330
1F
100
AcDbEntity
  8
8
  6
Continuous
 62
   171
370
    18
100
AcDbLine
 10
1560.0
 20
938.7850000000021
 30
0.0
 11
1918.841872000001
 21
938.7850000000021
 31
0.0
  0
TEXT
  5
291
330
1F
100
AcDbEntity
  8
8
  6
Continuous
 62
   171
370
     9
100
AcDbText
 10
1753.127043065689
 20
999.1770687622598
 30
0.0
 40
24.0
  1
パステルアイボリー
 41
0.7000000000000001
100
AcDbText
  0
TEXT
  5
292
330
1F
100
AcDbEntity
  8
8
  6
Continuous
 62
   171
370
     9
100
AcDbText
 10
1753.127043065689
 20
951.6759407622599
 30
0.0
 40
24.0
  1
パステルピンク
 41
0.7000000000000001
100
AcDbText
  0
TEXT
  5
293
330
1F
100
AcDbEntity
  8
8
  6
Continuous
 62
   171
370
     9
100
AcDbText
 10
1753.127043065689
 20
903.6759407622599
 30
0.0
 40
24.0
  1
パステルブルー
 41
0.7000000000000001
100
AcDbText
  0
TEXT
  5
294
330
1F
100
AcDbEntity
  8
8
  6
Continuous
 62
   171
370
     9
100
AcDbText
 10
1932.54797906569
 20
1022.286128000002
 30
0.0
 40
24.0
  1
Ｎ（ナチュラル）
 41
0.7000000000000001
100
AcDbText
  0
TEXT
  5
295
330
1F
100
AcDbEntity
  8
8
  6
Continuous
 62
   171
370
     9
100
AcDbText
 10
1932.54797906569
 20
974.7850000000021
 30
0.0
 40
24.0
  1
Ｄ（ダーク）
 41
0.7000000000000001
100
AcDbText
  0
TEXT
  5
296
330
1F
100
AcDbEntity
  8
8
  6
Continuous
 62
   171
370
     9
100
AcDbText
 10
1932.54797906569
 20
926.7850000000021
 30
0.0
 40
24.0
  1
Ｓ（スノー）
 41
0.7000000000000001
100
AcDbText
  0
TEXT
  5
297
330
1F
100
AcDbEntity
  8
8
  6
Continuous
 62
   171
370
     9
100
AcDbText
 10
1571.292919396381
 20
1142.235954332392
 30
0.0
 40
28.0
  1
品　番　表
100
AcDbText
  0
TEXT
  5
298
330
1F
100
AcDbEntity
  8
8
  6
Continuous
 62
   171
370
     9
100
AcDbText
 10
1568.346666666667
 20
858.7850000000019
 30
0.0
 40
24.0
  1
※ ○に棚・手すり色記号を付記
100
AcDbText
  0
TEXT
  5
299
330
1F
100
AcDbEntity
  8
8
  6
Continuous
 62
   171
370
     9
100
AcDbText
 10
1604.0
 20
694.7850000000021
 30
0.0
 40
24.0
  1
名　称
100
AcDbText
  0
TEXT
  5
29A
330
1F
100
AcDbEntity
  8
8
  6
Continuous
 62
   171
370
     9
100
AcDbText
 10
1569.903206233195
 20
742.2359543323923
 30
0.0
 40
28.0
  1
材　質　表
100
AcDbText
  0
TEXT
  5
29B
330
1F
100
AcDbEntity
  8
8
  6
Continuous
 62
   171
370
     9
100
AcDbText
 10
1568.0
 20
646.7850000000021
 30
0.0
 40
24.0
  1
ﾍﾟｰﾊﾟｰﾎﾙﾀﾞｰ本体
 41
0.7999999999999997
100
AcDbText
  0
TEXT
  5
29C
330
1F
100
AcDbEntity
  8
8
  6
Continuous
 62
   171
370
     9
100
AcDbText
 10
1803.999999999999
 20
694.7850000000021
 30
0.0
 40
24.0
  1
材　質
100
AcDbText
  0
LINE
  5
29D
330
1F
100
AcDbEntity
  8
8
  6
Continuous
 62
   171
370
    18
100
AcDbLine
 10
1560.0
 20
586.7850000000021
 30
0.0
 11
1959.999999999999
 21
586.7850000000021
 31
0.0
  0
LINE
  5
29E
330
1F
100
AcDbEntity
  8
8
  6
Continuous
 62
   171
370
    18
100
AcDbLine
 10
1560.0
 20
634.7850000000021
 30
0.0
 11
1959.999999999999
 21
634.7850000000021
 31
0.0
  0
LINE
  5
29F
330
1F
100
AcDbEntity
  8
8
  6
Continuous
 62
   171
370
    18
100
AcDbLine
 10
1560.0
 20
730.7850000000021
 30
0.0
 11
1959.999999999999
 21
730.7850000000021
 31
0.0
  0
LINE
  5
2A0
330
1F
100
AcDbEntity
  8
8
  6
Continuous
 62
   171
370
    18
100
AcDbLine
 10
1560.0
 20
682.7850000000021
 30
0.0
 11
1959.999999999999
 21
682.7850000000021
 31
0.0
  0
TEXT
  5
2A1
330
1F
100
AcDbEntity
  8
8
  6
Continuous
 62
   171
370
     9
100
AcDbText
 10
1724.799999999999
 20
646.7850000000021
 30
0.0
 40
24.0
  1
ＡＢＳ樹脂＋ウレタン樹脂
 41
0.7999999999999997
100
AcDbText
  0
LINE
  5
2A2
330
1F
100
AcDbEntity
  8
8
  6
Continuous
 62
   171
370
    18
100
AcDbLine
 10
1560.0
 20
538.7850000000021
 30
0.0
 11
1959.999999999999
 21
538.7850000000021
 31
0.0
  0
LINE
  5
2A3
330
1F
100
AcDbEntity
  8
8
  6
Continuous
 62
   171
370
    18
100
AcDbLine
 10
1560.0
 20
538.7850000000019
 30
0.0
 11
1560.0
 21
730.7850000000021
 31
0.0
  0
LINE
  5
2A4
330
1F
100
AcDbEntity
  8
8
  6
Continuous
 62
   171
370
    18
100
AcDbLine
 10
1720.0
 20
538.7850000000021
 30
0.0
 11
1720.0
 21
730.7850000000021
 31
0.0
  0
LINE
  5
2A5
330
1F
100
AcDbEntity
  8
8
  6
Continuous
 62
   171
370
    18
100
AcDbLine
 10
1959.999999999999
 20
538.7850000000024
 30
0.0
 11
1959.999999999999
 21
730.7850000000021
 31
0.0
  0
TEXT
  5
2A6
330
1F
100
AcDbEntity
  8
8
  6
Continuous
 62
   171
370
     9
100
AcDbText
 10
1611.2
 20
598.7850000000021
 30
0.0
 40
24.0
  1
手すり
 41
0.7999999999999997
100
AcDbText
  0
TEXT
  5
2A7
330
1F
100
AcDbEntity
  8
8
  6
Continuous
 62
   171
370
     9
100
AcDbText
 10
1611.2
 20
550.7850000000021
 30
0.0
 40
24.0
  1
棚　板
 41
0.7999999999999997
100
AcDbText
  0
TEXT
  5
2A8
330
1F
100
AcDbEntity
  8
8
  6
Continuous
 62
   171
370
     9
100
AcDbText
 10
1734.399999999999
 20
550.7850000000021
 30
0.0
 40
24.0
  1
ハードメイプル＋ＳＵＳ
 41
0.7999999999999997
100
AcDbText
  0
TEXT
  5
2A9
330
1F
100
AcDbEntity
  8
8
  6
Continuous
 62
   171
370
     9
100
AcDbText
 10
1772.799999999999
 20
598.7850000000021
 30
0.0
 40
24.0
  1
ハードメイプル
 41
0.7999999999999997
100
AcDbText
  0
ARC
  5
2AA
330
1F
100
AcDbEntity
  8
2
  6
Continuous
 62
    90
370
    18
100
AcDbCircle
 10
420.8136823654929
 20
529.3931834661068
 30
0.0
 40
10.0
100
AcDbArc
 50
269.9999999999998
 51
89.99999999999991
  0
INSERT
  5
2B3
330
1F
100
AcDbEntity
  8
0
100
AcDbBlockReference
  2
*G23
 10
0.0
 20
0.0
 30
0.0
  0
DIMENSION
  5
2BE
330
1F
100
AcDbEntity
  8
6
  6
Continuous
 62
     7
370
     9
100
AcDbDimension
  2
Dim9
 10
804.7494178293712
 20
257.3931834661073
 30
0.0
 11
823.7494178293709
 21
269.3931834661073
 31
0.0
 70
   160
  1
<>
 71
     5
 42
-1.0
  3
Standard
100
AcDbAlignedDimension
 13
804.7494178293716
 23
519.3931834661068
 33
0.0
 14
842.7494178293716
 24
337.3931834661068
 34
0.0
100
AcDbRotatedDimension
1001
ACAD
1000
DSTYLE
1002
{
1070
   344
1005
3C
1070
   343
1005
3C
1070
   173
1070
     1
1070
   289
1070
     2
1070
   279
1070
     2
1070
   288
1070
     1
1070
    77
1070
     3
1070
   172
1070
     1
1070
   174
1070
     0
1070
    74
1070
     0
1070
    73
1070
     0
1070
   284
1070
     8
1070
    78
1070
     8
1070
   140
1040
3.0
1070
    40
1040
8.0
1070
    42
1040
2.0
1070
    44
1040
1.0
1070
    43
1040
10.0
1070
   271
1070
     2
1070
    41
1040
2.0
1002
}
  0
DIMENSION
  5
2C9
330
1F
100
AcDbEntity
  8
6
  6
Continuous
 62
     7
370
     9
100
AcDbDimension
  2
Dim10
 10
842.7494178293714
 20
257.3931834661073
 30
0.0
 11
974.2507916580716
 21
269.3931834661073
 31
0.0
 70
   160
  1
<>
 71
     5
 42
-1.0
  3
Standard
100
AcDbAlignedDimension
 13
842.7494178293716
 23
337.3931834661068
 33
0.0
 14
1105.752165486771
 24
337.3931834661068
 34
0.0
100
AcDbRotatedDimension
1001
ACAD
1000
DSTYLE
1002
{
1070
   344
1005
3C
1070
   343
1005
3C
1070
   173
1070
     1
1070
   289
1070
     2
1070
   279
1070
     2
1070
   288
1070
     1
1070
    77
1070
     3
1070
   172
1070
     1
1070
   174
1070
     0
1070
    74
1070
     0
1070
    73
1070
     0
1070
   284
1070
     8
1070
    78
1070
     8
1070
   140
1040
3.0
1070
    40
1040
8.0
1070
    42
1040
2.0
1070
    44
1040
1.0
1070
    43
1040
10.0
1070
   271
1070
     2
1070
    41
1040
2.0
1002
}
  0
DIMENSION
  5
2D4
330
1F
100
AcDbEntity
  8
6
  6
Continuous
 62
     7
370
     9
100
AcDbDimension
  2
Dim11
 10
1105.752165486771
 20
257.3931834661073
 30
0.0
 11
1234.250791504996
 21
269.3931834661073
 31
0.0
 70
   160
  1
<>
 71
     5
 42
-1.0
  3
Standard
100
AcDbAlignedDimension
 13
1105.752165486771
 23
337.3931834661068
 33
0.0
 14
1362.74941752322
 24
456.4041388508792
 34
0.0
100
AcDbRotatedDimension
1001
ACAD
1000
DSTYLE
1002
{
1070
   344
1005
3C
1070
   343
1005
3C
1070
   173
1070
     1
1070
   289
1070
     2
1070
   279
1070
     2
1070
   288
1070
     1
1070
    77
1070
     3
1070
   172
1070
     1
1070
   174
1070
     0
1070
    74
1070
     0
1070
    73
1070
     0
1070
   284
1070
     8
1070
    78
1070
     8
1070
   140
1040
3.0
1070
    40
1040
8.0
1070
    42
1040
2.0
1070
    44
1040
1.0
1070
    43
1040
10.0
1070
   271
1070
     2
1070
    41
1040
2.0
1002
}
  0
DIMENSION
  5
2DE
330
1F
100
AcDbEntity
  8
6
  6
Continuous
 62
     7
370
     9
100
AcDbDimension
  2
Dim12
 10
1362.74941752322
 20
257.3931834661073
 30
0.0
 11
1383.749417676295
 21
269.3931834661073
 31
0.0
 70
   160
  1
<>
 71
     5
 42
-1.0
  3
Standard
100
AcDbAlignedDimension
 13
1362.74941752322
 23
456.4041388508792
 33
0.0
 14
1404.749417829372
 24
521.3931834661068
 34
0.0
100
AcDbRotatedDimension
1001
ACAD
1000
DSTYLE
1002
{
1070
   344
1005
3C
1070
   343
1005
3C
1070
   173
1070
     1
1070
   289
1070
     2
1070
   279
1070
     2
1070
   288
1070
     1
1070
    77
1070
     3
1070
   172
1070
     1
1070
   174
1070
     0
1070
    74
1070
     0
1070
    73
1070
     0
1070
   284
1070
     8
1070
    78
1070
     8
1070
   140
1040
3.0
1070
    40
1040
8.0
1070
    42
1040
2.0
1070
    44
1040
1.0
1070
    43
1040
10.0
1070
   271
1070
     2
1070
    41
1040
2.0
1002
}
  0
LINE
  5
2DF
330
1F
100
AcDbEntity
  8
2
  6
Continuous
 62
    90
370
    18
100
AcDbLine
 10
1362.749417829372
 20
516.3931834661068
 30
0.0
 11
1335.749417829372
 21
516.3931834661068
 31
0.0
  0
LINE
  5
2E0
330
1F
100
AcDbEntity
  8
2
  6
Continuous
 62
    90
370
    18
100
AcDbLine
 10
1335.749417829372
 20
516.3931834661068
 30
0.0
 11
1335.749417829372
 21
491.3931834661068
 31
0.0
  0
LINE
  5
2E1
330
1F
100
AcDbEntity
  8
2
  6
Continuous
 62
    90
370
    18
100
AcDbLine
 10
1335.749417829372
 20
491.3931834661068
 30
0.0
 11
1332.749417829372
 21
491.3931834661068
 31
0.0
  0
CIRCLE
  5
2E2
330
1F
100
AcDbEntity
  8
1
  6
Continuous
 62
    45
370
     9
100
AcDbCircle
 10
1349.749417829372
 20
504.3931834661068
 30
0.0
 40
2.5
  0
LINE
  5
2E3
330
1F
100
AcDbEntity
  8
2
  6
Continuous
 62
    90
370
    18
100
AcDbLine
 10
1337.749417829372
 20
456.3931834661068
 30
0.0
 11
1357.749417829372
 21
456.3931834661068
 31
0.0
  0
INSERT
  5
2EB
330
1F
100
AcDbEntity
  8
0
100
AcDbBlockReference
  2
*G28
 10
0.0
 20
0.0
 30
0.0
  0
ARC
  5
2EC
330
1F
100
AcDbEntity
  8
2
  6
Continuous
 62
    90
370
    18
100
AcDbCircle
 10
1337.749417829372
 20
461.3931834661068
 30
0.0
 40
5.0
100
AcDbArc
 50
179.9999999999948
 51
269.9999999999998
  0
CIRCLE
  5
2ED
330
1F
100
AcDbEntity
  8
1
  6
Continuous
 62
    45
370
     9
100
AcDbCircle
 10
1349.749417829372
 20
469.3931834661068
 30
0.0
 40
2.5
  0
LINE
  5
2EE
330
1F
100
AcDbEntity
  8
1
  6
DASHDOT
 62
    45
370
     9
100
AcDbLine
 10
274.6912394452028
 20
658.1431837722566
 30
0.0
 11
388.84827648224
 21
658.1431837722566
 31
0.0
  0
LINE
  5
2EF
330
1F
100
AcDbEntity
  8
2
  6
Continuous
 62
    90
370
    18
100
AcDbLine
 10
337.3136823654791
 20
1199.393183772267
 30
0.0
 11
369.3136823654872
 21
1199.393183772269
 31
0.0
  0
LINE
  5
2F0
330
1F
100
AcDbEntity
  8
2
  6
Continuous
 62
    90
370
    18
100
AcDbLine
 10
337.3136823654791
 20
1199.393183772267
 30
0.0
 11
337.3136823654929
 21
716.8931834661087
 31
0.0
  0
LINE
  5
2F1
330
1F
100
AcDbEntity
  8
2
  6
Continuous
 62
    90
370
    18
100
AcDbLine
 10
369.3136823654881
 20
716.8931834661068
 30
0.0
 11
369.3136823654918
 21
1199.393183772263
 31
0.0
  0
LINE
  5
2F2
330
1F
100
AcDbEntity
  8
2
  6
Continuous
 62
    90
370
    18
100
AcDbLine
 10
297.8136823654918
 20
1276.893183772257
 30
0.0
 11
366.8136823654918
 21
1276.893183772257
 31
0.0
  0
LINE
  5
2F3
330
1F
100
AcDbEntity
  8
2
  6
Continuous
 62
    90
370
    18
100
AcDbLine
 10
368.8136823654918
 20
1275.393183772257
 30
0.0
 11
366.8136823654918
 21
1276.893183772257
 31
0.0
  0
LINE
  5
2F4
330
1F
100
AcDbEntity
  8
2
  6
Continuous
 62
    90
370
    18
100
AcDbLine
 10
297.8136823654918
 20
1276.893183772257
 30
0.0
 11
297.8136823654918
 21
1274.893183772257
 31
0.0
  0
LINE
  5
2F5
330
1F
100
AcDbEntity
  8
2
  6
Continuous
 62
    90
370
    18
100
AcDbLine
 10
368.8136823654918
 20
1275.393183772257
 30
0.0
 11
368.8136823654918
 21
1222.893183772257
 31
0.0
  0
LINE
  5
2F6
330
1F
100
AcDbEntity
  8
2
  6
Continuous
 62
    90
370
    18
100
AcDbLine
 10
337.6136823654917
 20
1222.893183772257
 30
0.0
 11
337.8136823654918
 21
1222.893183772257
 31
0.0
  0
LINE
  5
2F7
330
1F
100
AcDbEntity
  8
2
  6
Continuous
 62
    90
370
    18
100
AcDbLine
 10
337.6136823654917
 20
1199.393183772257
 30
0.0
 11
369.0136823654916
 21
1199.393183772257
 31
0.0
  0
LINE
  5
2F8
330
1F
100
AcDbEntity
  8
2
  6
Continuous
 62
    90
370
    18
100
AcDbLine
 10
369.3136823654918
 20
1222.593183772257
 30
0.0
 11
369.3136823654918
 21
1199.693183772257
 31
0.0
  0
ARC
  5
2F9
330
1F
100
AcDbEntity
  8
2
  6
Continuous
 62
    90
370
    18
100
AcDbCircle
 10
369.0136823654916
 20
1199.693183772257
 30
0.0
 40
0.3
100
AcDbArc
 50
269.9999999999998
 51
0.0
  0
ARC
  5
2FA
330
1F
100
AcDbEntity
  8
2
  6
Continuous
 62
    90
370
    18
100
AcDbCircle
 10
369.0136823654918
 20
1222.593183772257
 30
0.0
 40
0.3
100
AcDbArc
 50
0.0
 51
89.99999999999991
  0
LINE
  5
2FB
330
1F
100
AcDbEntity
  8
2
  6
Continuous
 62
    90
370
    18
100
AcDbLine
 10
337.3136823654918
 20
1199.693183772257
 30
0.0
 11
337.3136823654918
 21
1222.593183772257
 31
0.0
  0
ARC
  5
2FC
330
1F
100
AcDbEntity
  8
2
  6
Continuous
 62
    90
370
    18
100
AcDbCircle
 10
337.6136823654917
 20
1199.693183772257
 30
0.0
 40
0.3
100
AcDbArc
 50
179.9999999999998
 51
269.9999999999998
  0
ARC
  5
2FD
330
1F
100
AcDbEntity
  8
2
  6
Continuous
 62
    90
370
    18
100
AcDbCircle
 10
337.6136823654917
 20
1222.593183772257
 30
0.0
 40
0.3
100
AcDbArc
 50
89.99999999999991
 51
179.9999999999998
  0
LINE
  5
2FE
330
1F
100
AcDbEntity
  8
2
  6
Continuous
 62
    90
370
    18
100
AcDbLine
 10
337.8136823654918
 20
1239.393183772257
 30
0.0
 11
297.8136823654918
 21
1239.393183772257
 31
0.0
  0
LINE
  5
2FF
330
1F
100
AcDbEntity
  8
2
  6
Continuous
 62
    90
370
    18
100
AcDbLine
 10
297.8136823654918
 20
1239.393183772257
 30
0.0
 11
297.8136823654918
 21
1274.893183772257
 31
0.0
  0
LINE
  5
300
330
1F
100
AcDbEntity
  8
2
  6
Continuous
 62
    90
370
    18
100
AcDbLine
 10
337.8136823654918
 20
1222.893183772257
 30
0.0
 11
337.8136823654918
 21
1239.393183772257
 31
0.0
  0
LINE
  5
301
330
1F
100
AcDbEntity
  8
1
  6
Continuous
 62
    45
370
     9
100
AcDbLine
 10
345.2708283854918
 20
1241.393183772257
 30
0.0
 11
297.8136823654918
 21
1241.393183772257
 31
0.0
  0
LINE
  5
302
330
1F
100
AcDbEntity
  8
1
  6
Continuous
 62
    45
370
     9
100
AcDbLine
 10
343.0231773854919
 20
1239.393183772257
 30
0.0
 11
345.2708283854918
 21
1241.393183772257
 31
0.0
  0
LINE
  5
303
330
1F
100
AcDbEntity
  8
1
  6
Continuous
 62
    45
370
     9
100
AcDbLine
 10
343.0231773854919
 20
1239.393183772257
 30
0.0
 11
337.8136823654918
 21
1239.393183772257
 31
0.0
  0
LINE
  5
304
330
1F
100
AcDbEntity
  8
1
  6
Continuous
 62
    45
370
     9
100
AcDbLine
 10
345.2708283854918
 20
1275.393183772257
 30
0.0
 11
345.2708283854918
 21
1222.893183772257
 31
0.0
  0
LINE
  5
305
330
1F
100
AcDbEntity
  8
1
  6
Continuous
 62
    45
370
     9
100
AcDbLine
 10
297.8136823654918
 20
1275.393183772257
 30
0.0
 11
368.8136823654918
 21
1275.393183772257
 31
0.0
  0
LINE
  5
306
330
1F
100
AcDbEntity
  8
1
  6
Continuous
 62
    45
370
     9
100
AcDbLine
 10
345.2708283854918
 20
1275.393183772257
 30
0.0
 11
345.8512765854919
 21
1276.893183772257
 31
0.0
  0
LINE
  5
307
330
1F
100
AcDbEntity
  8
2
  6
Continuous
 62
    90
370
    18
100
AcDbLine
 10
337.8136823654918
 20
1222.893183772257
 30
0.0
 11
369.0136823654918
 21
1222.893183772257
 31
0.0
  0
DIMENSION
  5
313
330
1F
100
AcDbEntity
  8
6
  6
Continuous
 62
     7
370
     9
100
AcDbDimension
  2
Dim13
 10
297.8136823654932
 20
1356.893183772257
 30
0.0
 11
333.3136823654926
 21
1368.893183772257
 31
0.0
 70
   160
  1
<>
 71
     5
 42
-1.0
  3
Standard
100
AcDbAlignedDimension
 13
297.8136823654929
 23
1276.893183772267
 33
0.0
 14
368.8136823654918
 24
1276.893183772267
 34
0.0
100
AcDbRotatedDimension
1001
ACAD
1000
DSTYLE
1002
{
1070
   344
1005
3C
1070
   343
1005
3C
1070
   173
1070
     1
1070
   289
1070
     2
1070
   279
1070
     2
1070
   288
1070
     1
1070
    77
1070
     3
1070
   172
1070
     1
1070
   174
1070
     0
1070
    74
1070
     0
1070
    73
1070
     0
1070
   284
1070
     8
1070
    78
1070
     8
1070
   140
1040
3.0
1070
    40
1040
8.0
1070
    42
1040
2.0
1070
    44
1040
1.0
1070
    43
1040
10.0
1070
   271
1070
     2
1070
    41
1040
2.0
1002
}
  0
LINE
  5
314
330
1F
100
AcDbEntity
  8
7
  6
Continuous
 62
   132
370
     9
100
AcDbLine
 10
297.8136823654929
 20
1396.85260814029
 30
0.0
 11
297.8136823654929
 21
218.1126078341945
 31
0.0
  0
LINE
  5
315
330
1F
100
AcDbEntity
  8
2
  6
Continuous
 62
    90
370
    18
100
AcDbLine
 10
804.7494178293705
 20
1199.393184078418
 30
0.0
 11
836.7494178293789
 21
1199.393184078419
 31
0.0
  0
LINE
  5
316
330
1F
100
AcDbEntity
  8
2
  6
Continuous
 62
    90
370
    18
100
AcDbLine
 10
804.7494178293705
 20
1199.393184078418
 30
0.0
 11
804.7494178293844
 21
716.8931837722587
 31
0.0
  0
LINE
  5
317
330
1F
100
AcDbEntity
  8
2
  6
Continuous
 62
    90
370
    18
100
AcDbLine
 10
836.7494178293798
 20
716.8931837722569
 30
0.0
 11
836.7494178293834
 21
1199.393184078413
 31
0.0
  0
LINE
  5
318
330
1F
100
AcDbEntity
  8
2
  6
Continuous
 62
    90
370
    18
100
AcDbLine
 10
834.2494178293834
 20
1276.893184078407
 30
0.0
 11
836.2494178293834
 21
1275.393184078407
 31
0.0
  0
LINE
  5
319
330
1F
100
AcDbEntity
  8
2
  6
Continuous
 62
    90
370
    18
100
AcDbLine
 10
807.2494178293832
 20
1276.893184078407
 30
0.0
 11
805.2494178293832
 21
1275.393184078407
 31
0.0
  0
LINE
  5
31A
330
1F
100
AcDbEntity
  8
2
  6
Continuous
 62
    90
370
    18
100
AcDbLine
 10
805.2494178293832
 20
1275.393184078407
 30
0.0
 11
805.2494178293834
 21
1222.893184078407
 31
0.0
  0
LINE
  5
31B
330
1F
100
AcDbEntity
  8
2
  6
Continuous
 62
    90
370
    18
100
AcDbLine
 10
836.2494178293834
 20
1275.393184078407
 30
0.0
 11
836.2494178293834
 21
1222.893184078407
 31
0.0
  0
LINE
  5
31C
330
1F
100
AcDbEntity
  8
2
  6
Continuous
 62
    90
370
    18
100
AcDbLine
 10
805.2494178293834
 20
1222.893184078407
 30
0.0
 11
836.2494178293834
 21
1222.893184078407
 31
0.0
  0
LINE
  5
31D
330
1F
100
AcDbEntity
  8
2
  6
Continuous
 62
    90
370
    18
100
AcDbLine
 10
834.2494178293834
 20
1276.893184078407
 30
0.0
 11
807.2494178293832
 21
1276.893184078407
 31
0.0
  0
LINE
  5
31E
330
1F
100
AcDbEntity
  8
2
  6
Continuous
 62
    90
370
    18
100
AcDbLine
 10
836.4494178293833
 20
1222.893184078407
 30
0.0
 11
805.0494178293836
 21
1222.893184078407
 31
0.0
  0
LINE
  5
31F
330
1F
100
AcDbEntity
  8
2
  6
Continuous
 62
    90
370
    18
100
AcDbLine
 10
836.4494178293837
 20
1199.393184078407
 30
0.0
 11
805.0494178293836
 21
1199.393184078407
 31
0.0
  0
LINE
  5
320
330
1F
100
AcDbEntity
  8
2
  6
Continuous
 62
    90
370
    18
100
AcDbLine
 10
804.7494178293834
 20
1222.593184078406
 30
0.0
 11
804.7494178293834
 21
1199.693184078407
 31
0.0
  0
ARC
  5
321
330
1F
100
AcDbEntity
  8
2
  6
Continuous
 62
    90
370
    18
100
AcDbCircle
 10
805.0494178293836
 20
1199.693184078407
 30
0.0
 40
0.3
100
AcDbArc
 50
179.9999999999998
 51
269.9999999999998
  0
ARC
  5
322
330
1F
100
AcDbEntity
  8
2
  6
Continuous
 62
    90
370
    18
100
AcDbCircle
 10
805.0494178293836
 20
1222.593184078406
 30
0.0
 40
0.3
100
AcDbArc
 50
89.99999999999991
 51
179.9999999999998
  0
LINE
  5
323
330
1F
100
AcDbEntity
  8
2
  6
Continuous
 62
    90
370
    18
100
AcDbLine
 10
829.5634688293837
 20
1222.893184078407
 30
0.0
 11
805.0494178293836
 21
1222.893184078407
 31
0.0
  0
LINE
  5
324
330
1F
100
AcDbEntity
  8
2
  6
Continuous
 62
    90
370
    18
100
AcDbLine
 10
836.7494178293834
 20
1199.693184078407
 30
0.0
 11
836.7494178293834
 21
1222.593184078406
 31
0.0
  0
ARC
  5
325
330
1F
100
AcDbEntity
  8
2
  6
Continuous
 62
    90
370
    18
100
AcDbCircle
 10
836.4494178293837
 20
1199.693184078407
 30
0.0
 40
0.3
100
AcDbArc
 50
269.9999999999998
 51
0.0
  0
ARC
  5
326
330
1F
100
AcDbEntity
  8
2
  6
Continuous
 62
    90
370
    18
100
AcDbCircle
 10
836.4494178293833
 20
1222.593184078406
 30
0.0
 40
0.3
100
AcDbArc
 50
0.0
 51
89.99999999999991
  0
LINE
  5
327
330
1F
100
AcDbEntity
  8
1
  6
Continuous
 62
    45
370
     9
100
AcDbLine
 10
836.2494178293834
 20
1275.393184078407
 30
0.0
 11
805.2494178293832
 21
1275.393184078407
 31
0.0
  0
LINE
  5
328
330
1F
100
AcDbEntity
  8
1
  6
DASHDOT
 62
    45
370
     9
100
AcDbLine
 10
274.6912394452016
 20
1258.143183772257
 30
0.0
 11
388.8482764822388
 21
1258.143183772257
 31
0.0
  0
DIMENSION
  5
334
330
1F
100
AcDbEntity
  8
6
  6
Continuous
 62
     7
370
     9
100
AcDbDimension
  2
Dim14
 10
217.813682365493
 20
658.143183772257
 30
0.0
 11
205.813682365493
 21
958.1431837722571
 31
0.0
 70
   160
  1
<>
 71
     5
 42
-1.0
  3
Standard
100
AcDbAlignedDimension
 13
297.8136823654929
 23
658.1431837722566
 33
0.0
 14
297.8136823654929
 24
1258.143183772257
 34
0.0
 50
89.99999999999991
100
AcDbRotatedDimension
1001
ACAD
1000
DSTYLE
1002
{
1070
   344
1005
3C
1070
   343
1005
3C
1070
   173
1070
     1
1070
   289
1070
     2
1070
   279
1070
     2
1070
   288
1070
     1
1070
    77
1070
     3
1070
   172
1070
     1
1070
   174
1070
     0
1070
    74
1070
     0
1070
    73
1070
     0
1070
   284
1070
     8
1070
    78
1070
     8
1070
   140
1040
3.0
1070
    40
1040
8.0
1070
    42
1040
2.0
1070
    44
1040
1.0
1070
    43
1040
10.0
1070
   271
1070
     2
1070
    41
1040
2.0
1002
}
  0
TEXT
  5
335
330
1F
100
AcDbEntity
  8
18
  6
Continuous
 62
     7
370
     9
100
AcDbText
 10
963.9391604938274
 20
1125.908938271606
 30
0.0
 40
24.0
  1
ＴＩＷＳ－３２Ｓ６００
 41
0.7999999999999999
100
AcDbText
  0
TEXT
  5
336
330
1F
100
AcDbEntity
  8
8
  6
Continuous
 62
   171
370
     9
100
AcDbText
 10
1544.8
 20
175.9999999999999
 30
0.0
 40
32.0
  1
ＰＲ－２ＡＬＳ
 41
0.6000000000000001
100
AcDbText
  0
TEXT
  5
337
330
1F
100
AcDbEntity
  8
8
  6
Continuous
 62
   171
370
     9
100
AcDbText
 10
2008.0
 20
152.0
 30
0.0
 40
32.0
  1
大野
100
AcDbText
  0
TEXT
  5
338
330
1F
100
AcDbEntity
  8
8
  6
Continuous
 62
   171
370
     9
100
AcDbText
 10
2104.0
 20
152.0
 30
0.0
 40
32.0
  1
深川
100
AcDbText
  0
TEXT
  5
339
330
1F
100
AcDbEntity
  8
8
  6
Continuous
 62
   171
370
     9
100
AcDbText
 10
2096.0
 20
108.0
 30
0.0
 40
24.0
  1
２０１３年０２月０７日
 41
0.6666666666666666
100
AcDbText
  0
ARC
  5
33A
330
1F
100
AcDbEntity
  8
2
  6
Continuous
 62
    90
370
    18
100
AcDbCircle
 10
1394.749417829372
 20
529.3931834661068
 30
0.0
 40
10.0
100
AcDbArc
 50
269.9999999999998
 51
89.99999999999991
  0
INSERT
  5
340
330
1F
100
AcDbEntity
  8
0
100
AcDbBlockReference
  2
*G31
 10
0.0
 20
0.0
 30
0.0
  0
ARC
  5
341
330
1F
100
AcDbEntity
  8
2
  6
Continuous
 62
    90
370
    18
100
AcDbCircle
 10
814.7494178293716
 20
529.3931834661068
 30
0.0
 40
10.0
100
AcDbArc
 50
89.99999999999991
 51
269.9999999999998
  0
DIMENSION
  5
34D
330
1F
100
AcDbEntity
  8
6
  6
Continuous
 62
     7
370
     9
100
AcDbDimension
  2
Dim15
 10
668.7494178293848
 20
1276.893183772267
 30
0.0
 11
656.7494178293848
 21
958.143183619187
 31
0.0
 70
   160
  1
<>
 71
     5
 42
-1.0
  3
Standard
100
AcDbAlignedDimension
 13
804.7494178293719
 23
1276.893183772267
 33
0.0
 14
804.7494178293719
 24
639.3931834661068
 34
0.0
 50
89.99999999999991
100
AcDbRotatedDimension
1001
ACAD
1000
DSTYLE
1002
{
1070
   344
1005
3C
1070
   343
1005
3C
1070
   173
1070
     1
1070
   289
1070
     2
1070
   279
1070
     2
1070
   288
1070
     1
1070
    77
1070
     3
1070
   172
1070
     1
1070
   174
1070
     0
1070
    74
1070
     0
1070
    73
1070
     0
1070
   284
1070
     8
1070
    78
1070
     8
1070
   140
1040
3.0
1070
    40
1040
8.0
1070
    42
1040
2.0
1070
    44
1040
1.0
1070
    43
1040
10.0
1070
   271
1070
     2
1070
    41
1040
2.0
1002
}
  0
TEXT
  5
34E
330
1F
100
AcDbEntity
  8
8
  6
Continuous
 62
   171
370
     9
100
AcDbText
 10
1582.233764463442
 20
1045.814347662429
 30
0.0
 40
24.0
  1
PR-2ALS-S/○
100
AcDbText
  0
TEXT
  5
34F
330
1F
100
AcDbEntity
  8
8
  6
Continuous
 62
   171
370
     9
100
AcDbText
 10
1582.233764463442
 20
997.8143476624286
 30
0.0
 40
24.0
  1
PR-2ALS-i/○
100
AcDbText
  0
TEXT
  5
350
330
1F
100
AcDbEntity
  8
8
  6
Continuous
 62
   171
370
     9
100
AcDbText
 10
1582.233764463442
 20
949.8143476624286
 30
0.0
 40
24.0
  1
PR-2ALS-P/○
100
AcDbText
  0
TEXT
  5
351
330
1F
100
AcDbEntity
  8
8
  6
Continuous
 62
   171
370
     9
100
AcDbText
 10
1582.233764463442
 20
901.8143476624286
 30
0.0
 40
24.0
  1
PR-2ALS-A/○
100
AcDbText
  0
DIMENSION
  5
35B
330
1F
100
AcDbEntity
  8
6
  6
Continuous
 62
     7
370
     9
100
AcDbDimension
  2
Dim16
 10
297.8136823654929
 20
964.5128821577948
 30
0.0
 11
425.4475939643346
 21
976.5128821577948
 31
0.0
 70
   160
  1
<>
 71
     5
 42
-1.0
  3
Standard
100
AcDbAlignedDimension
 13
297.8136823654929
 23
964.5128821577948
 33
0.0
 14
369.31368236549
 24
964.5128821577948
 34
0.0
100
AcDbRotatedDimension
1001
ACAD
1000
DSTYLE
1002
{
1070
   344
1005
3C
1070
   343
1005
3C
1070
   173
1070
     1
1070
   289
1070
     2
1070
   279
1070
     2
1070
   288
1070
     1
1070
    77
1070
     3
1070
   172
1070
     1
1070
   174
1070
     0
1070
    74
1070
     0
1070
    73
1070
     0
1070
   284
1070
     8
1070
    78
1070
     8
1070
   140
1040
3.0
1070
    40
1040
8.0
1070
    42
1040
2.0
1070
    44
1040
1.0
1070
    43
1040
10.0
1070
   271
1070
     2
1070
    41
1040
2.0
1002
}
  0
VIEWPORT
  5
2A
330
1B
100
AcDbEntity
 67
     1
  8
0
100
AcDbViewport
 10
1188.0
 20
840.0
 30
0.0
 40
2376.0
 41
1680.0
 68
     1
 69
     1
 12
1188.0
 22
840.0
 13
0.0
 23
0.0
 14
0.5
 24
0.5
 15
0.5
 25
0.5
 16
0.0
 26
0.0
 36
1.0
 17
0.0
 27
0.0
 37
0.0
 42
50.0
 43
0.0
 44
0.0
 45
9.0
 50
0.0
 51
0.0
 72
   100
 90
    32800
  1

281
     0
 71
     1
 74
     0
110
0.0
120
0.0
130
0.0
111
1.0
121
0.0
131
0.0
112
0.0
122
1.0
132
0.0
 79
     0
146
0.0
170
     0
  0
ENDSEC
  0
SECTION
  2
OBJECTS
  0
DICTIONARY
  5
C
330
0
100
AcDbDictionary
281
     1
  3
ACAD_GROUP
350
D
  3
ACAD_LAYOUT
350
1A
  3
ACAD_MLINESTYLE
350
17
  3
ACAD_PLOTSETTINGS
350
19
  3
ACAD_PLOTSTYLENAME
350
E
  0
DICTIONARY
  5
D
102
{ACAD_REACTORS
330
C
102
}
330
C
100
AcDbDictionary
281
     1
  0
DICTIONARY
  5
1A
102
{ACAD_REACTORS
330
C
102
}
330
C
100
AcDbDictionary
281
     1
  3
Layout1
350
1E
  3
Layout2
350
26
  3
Model
350
22
  0
DICTIONARY
  5
17
102
{ACAD_REACTORS
330
C
102
}
330
C
100
AcDbDictionary
281
     1
  3
Standard
350
18
  0
DICTIONARY
  5
19
102
{ACAD_REACTORS
330
C
102
}
330
C
100
AcDbDictionary
281
     1
  0
ACDBDICTIONARYWDFLT
  5
E
102
{ACAD_REACTORS
330
C
102
}
330
C
100
AcDbDictionary
281
     1
  3
Normal
350
F
100
AcDbDictionaryWithDefault
340
F
  0
LAYOUT
  5
1E
102
{ACAD_REACTORS
330
1A
102
}
330
1A
100
AcDbPlotSettings
  1

  2

  4

  6

 40
0.0
 41
0.0
 42
0.0
 43
0.0
 44
0.0
 45
0.0
 46
0.0
 47
0.0
 48
0.0
 49
0.0
140
0.0
141
0.0
142
1.0
143
1.0
 70
   688
 72
     0
 73
     0
 74
     5
  7

 75
    16
 76
     0
 77
     2
 78
   300
147
1.0
148
0.0
149
0.0
100
AcDbLayout
  1
Layout1
 70
     1
 71
     1
 10
0.0
 20
0.0
 11
297.0
 21
210.0
 12
0.0
 22
0.0
 32
0.0
 14
0.0
 24
0.0
 34
0.0
 15
297.0
 25
210.0
 35
0.0
146
0.0
 13
0.0
 23
0.0
 33
0.0
 16
1.0
 26
0.0
 36
0.0
 17
0.0
 27
1.0
 37
0.0
 76
     0
330
1B
331
2A
  0
LAYOUT
  5
26
102
{ACAD_REACTORS
330
1A
102
}
330
1A
100
AcDbPlotSettings
  1

  2

  4

  6

 40
0.0
 41
0.0
 42
0.0
 43
0.0
 44
0.0
 45
0.0
 46
0.0
 47
0.0
 48
0.0
 49
0.0
140
0.0
141
0.0
142
1.0
143
1.0
 70
   688
 72
     0
 73
     0
 74
     5
  7

 75
    16
 76
     0
 77
     2
 78
   300
147
1.0
148
0.0
149
0.0
100
AcDbLayout
  1
Layout2
 70
     1
 71
     2
 10
0.0
 20
0.0
 11
0.0
 21
0.0
 12
0.0
 22
0.0
 32
0.0
 14
0.0
 24
0.0
 34
0.0
 15
0.0
 25
0.0
 35
0.0
146
0.0
 13
0.0
 23
0.0
 33
0.0
 16
1.0
 26
0.0
 36
0.0
 17
0.0
 27
1.0
 37
0.0
 76
     0
330
23
  0
LAYOUT
  5
22
102
{ACAD_REACTORS
330
1A
102
}
330
1A
100
AcDbPlotSettings
  1

  2

  4

  6

 40
0.0
 41
0.0
 42
0.0
 43
0.0
 44
0.0
 45
0.0
 46
0.0
 47
0.0
 48
0.0
 49
0.0
140
0.0
141
0.0
142
1.0
143
1.0
 70
  1712
 72
     0
 73
     0
 74
     0
  7

 75
     0
 76
     0
 77
     2
 78
   300
147
1.0
148
0.0
149
0.0
100
AcDbLayout
  1
Model
 70
     1
 71
     0
 10
0.0
 20
0.0
 11
2376.0
 21
1680.0
 12
0.0
 22
0.0
 32
0.0
 14
0.0
 24
0.0
 34
0.0
 15
2376.0
 25
1680.0
 35
0.0
146
0.0
 13
0.0
 23
0.0
 33
0.0
 16
1.0
 26
0.0
 36
0.0
 17
0.0
 27
1.0
 37
0.0
 76
     0
330
1F
  0
MLINESTYLE
  5
18
102
{ACAD_REACTORS
330
17
102
}
330
17
100
AcDbMlineStyle
  2
Standard
 70
     0
  3

 62
   256
 51
90.0
 52
90.0
 71
     2
 49
0.5
 62
   256
  6
BYLAYER
 49
-0.5
 62
   256
  6
BYLAYER
  0
ACDBPLACEHOLDER
  5
F
102
{ACAD_REACTORS
330
E
102
}
330
E
  0
ENDSEC
  0
EOF
